#TITLE:The Porno Song;
#SUBTITLE:;
#ARTIST:Classic 70's Porno;
#TITLETRANSLIT:;
#SUBTITLETRANSLIT:;
#ARTISTTRANSLIT:;
#CREDIT:;
#BANNER:The P Song.png;
#BACKGROUND:PSong.png;
#LYRICSPATH:;
#CDTITLE:C;
#MUSIC:The Porno Song.mp3;
#OFFSET:-17.230;
#SAMPLESTART:0.020;
#SAMPLELENGTH:12.000;
#SELECTABLE:YES;
#BPMS:0.000=100.000;
#STOPS:;
#BGCHANGES:;
// cache tags:
#FIRSTBEAT:0.000;
#LASTBEAT:107.875;
#SONGFILENAME:Songs/keyboard/the song/PS.sm;
#HASMUSIC:1;
#HASBANNER:1;
#MUSICLENGTH:88.868;
// end cache tags

//---------------dance-single - ----------------
#NOTES:
     dance-single:
     :
     Easy:
     4:
     0.223,0.241,0.124,0.124,0.017,117.000,11.000,11.000,0.000,0.000:  // measure 1
1001
0000
0000
0000
1000
0010
0001
0000
,  // measure 2
0110
0000
0000
0000
0010
0100
0010
0000
,  // measure 3
1001
0000
0100
0010
,  // measure 4
1001
0000
0000
0000
0010
0100
0010
0000
,  // measure 5
0100
1000
0010
0001
,  // measure 6
0010
0100
0001
1000
,  // measure 7
0010
0000
0001
0000
1000
0001
1000
0001
,  // measure 8
1000
0000
0010
0000
0000
0001
0100
0000
,  // measure 9
1000
0010
1000
0010
1000
0010
1000
0010
,  // measure 10
0010
0001
0010
0001
0010
0001
0020
0030
,  // measure 11
0000
0001
0000
0000
,  // measure 12
0220
0000
0000
0000
0000
0000
0000
0330
0220
0000
0000
0000
0000
0000
0000
0000
0330
0000
0000
0000
0000
0000
0000
0000
0000
0000
0000
0000
0000
0000
0000
0000
,  // measure 13
2002
0000
0000
0000
0000
0000
0000
3003
2002
0000
0000
0000
0000
0000
0000
0000
3003
0000
0000
0000
0000
0000
0000
0000
0000
0000
0000
0000
0000
0000
0000
0000
,  // measure 14
0001
0000
1000
0000
0001
0000
0000
0000
1000
0000
0000
0001
0000
0000
1000
0000
,  // measure 15
1000
0000
0001
0000
1000
0000
0000
0000
1000
0000
0000
0001
0000
0000
1000
0000
,  // measure 16
0010
0010
0010
0010
0100
0100
0100
0100
,  // measure 17
0000
0110
0010
0000
0100
0000
0010
0000
,  // measure 18
0000
0100
0000
0000
0000
0000
0000
0000
0010
0000
0000
0000
0000
0000
0000
0000
0010
0000
0000
0000
0000
0000
0000
0000
0100
0000
0000
0000
0000
0000
0000
0000
,  // measure 19
0100
0010
1000
0001
,  // measure 20
0010
0001
1000
0100
,  // measure 21
0010
0100
0001
1000
,  // measure 22
0100
0000
0010
0000
0100
0010
0100
0010
,  // measure 23
0100
0001
0010
0100
,  // measure 24
0001
1000
0010
0100
,  // measure 25
0010
0100
0010
0100
,  // measure 26
0001
0000
1000
0000
0001
0000
1000
1001
,  // measure 27
2002
0000
0000
3003
;

//---------------dance-single - ----------------
#NOTES:
     dance-single:
     :
     Medium:
     5:
     0.288,0.303,0.079,0.090,0.006,164.000,7.000,8.000,0.000,0.000:  // measure 1
0110
0000
0000
0000
0100
0010
1000
0001
,  // measure 2
0010
0100
0001
1000
0010
0000
0110
0110
,  // measure 3
0000
0001
0100
1000
0010
0100
0000
0000
,  // measure 4
0010
0000
0010
0000
0000
0010
0100
0010
,  // measure 5
0100
0000
0001
0000
0100
0010
0100
0010
,  // measure 6
0010
0000
0001
0000
0010
0100
0001
0010
,  // measure 7
0010
0100
1000
0010
0100
0000
0010
0000
,  // measure 8
0001
0000
0010
0000
0000
0010
0010
1000
,  // measure 9
0010
0100
0001
1000
0100
0010
0100
0001
,  // measure 10
0001
1000
0100
0010
1000
0001
1000
0100
,  // measure 11
0010
0100
0001
1000
0100
0010
0100
0001
,  // measure 12
2002
0000
0000
0000
0000
0000
0000
3003
1001
0000
0000
0000
0001
0000
0000
0000
0100
0000
0000
0000
0010
0000
0000
0000
0100
0000
0000
0000
1000
0000
0000
0000
,  // measure 13
0010
0100
0001
1000
0100
0010
0100
0001
,  // measure 14
2002
0000
0000
0000
0000
0000
0000
3003
1001
0000
0000
0000
0010
0000
0000
0000
0100
0000
0000
0000
0001
0000
0000
0000
1000
0000
0000
0000
0010
0000
0000
0000
,  // measure 15
0010
0100
0001
1000
0100
0010
0100
0001
,  // measure 16
1000
0001
0100
0010
0001
1000
0001
0100
,  // measure 17
0010
0001
1000
0100
0010
0100
0001
1000
,  // measure 18
0010
0100
0001
1000
0100
0010
0001
0100
,  // measure 19
0010
0000
0000
0000
0100
0000
0000
0000
1000
0000
0000
0000
0001
0000
0000
0000
0100
0000
0000
0000
0010
0000
0000
1000
0000
0000
0000
0000
0000
0000
0000
0000
,  // measure 20
0010
0100
0001
1000
,  // measure 21
0100
0000
0010
0000
0001
1000
0010
0100
,  // measure 22
0010
0100
1000
0100
,  // measure 23
0010
0001
0100
0001
,  // measure 24
0010
0010
0100
0001
,  // measure 25
0001
1000
0100
0010
,  // measure 26
0010
0100
0001
1000
,  // measure 27
0200
0000
0000
0000
0000
0000
0000
0000
0302
0000
0000
0000
0000
0000
0000
0000
0023
0000
0000
0000
0000
0000
0000
0000
2030
0000
0000
0000
0000
0000
0000
3000
;

//---------------dance-single - ----------------
#NOTES:
     dance-single:
     :
     Hard:
     1:
     0.323,0.258,0.000,0.045,0.011,197.000,0.000,4.000,0.000,0.000:  // measure 1
0100
0010
0100
0001
0100
0000
0010
0010
,  // measure 2
0100
0001
1000
0100
0010
0000
0010
0010
,  // measure 3
0001
1000
0100
0010
0100
0001
1000
1000
,  // measure 4
0000
0010
0100
0001
0100
1000
0010
0000
,  // measure 5
0010
0000
1000
0010
0001
0010
0100
0000
,  // measure 6
0010
0000
0001
0000
1000
0100
0010
0001
,  // measure 7
0100
0000
0100
0000
0000
0001
0000
0000
0010
0000
0000
0000
0000
0000
0000
0000
,  // measure 8
0010
0000
0010
0000
0000
1000
0000
0000
0001
0000
0000
0000
0000
0000
0010
0000
,  // measure 9
0010
0100
0001
1000
0100
0010
0001
0100
,  // measure 10
0010
0100
0001
1000
0100
0010
0100
0001
,  // measure 11
0100
0010
0001
1000
0010
0100
0001
0010
,  // measure 12
0010
0100
1000
0001
0100
0010
1000
0100
,  // measure 13
0001
1000
0100
0010
1000
0001
0100
1000
,  // measure 14
0010
0010
0001
0010
0100
0010
1000
1000
,  // measure 15
0001
0010
0001
0100
0010
1000
0100
1000
,  // measure 16
0100
0001
0100
1000
0001
0010
1000
0010
,  // measure 17
1000
0100
1000
0010
0100
0001
0010
0001
,  // measure 18
0100
0001
0100
1000
0001
0010
1000
0010
,  // measure 19
1000
0100
1000
0010
0100
0001
0010
0001
,  // measure 20
0001
0010
0001
0100
0010
1000
0100
1000
,  // measure 21
1000
0010
1000
0100
0010
0001
0100
0001
,  // measure 22
1000
0100
1000
0010
0100
0001
0010
0001
,  // measure 23
0001
0100
0001
0010
0100
1000
0010
1000
,  // measure 24
0010
1000
0010
0001
1000
0100
0001
0100
,  // measure 25
0001
0010
0001
0100
0001
1000
0100
1000
,  // measure 26
0100
0001
0100
1000
0100
0010
1000
0010
,  // measure 27
0200
0000
0000
0000
0000
0000
0000
0000
0302
0000
0000
0000
0000
0000
0000
0000
0023
0000
0000
0000
0000
0000
0000
0000
2030
0000
0000
0000
0000
0000
0000
3000
;
