#TITLE:Release Me;
#SUBTITLE:;
#ARTIST:Johan Gielen;
#TITLETRANSLIT:;
#SUBTITLETRANSLIT:;
#ARTISTTRANSLIT:;
#CREDIT:;
#BANNER:release me.banner.jpg;
#BACKGROUND:release me.bg.jpg;
#LYRICSPATH:;
#CDTITLE:CDTITLE.jpg;
#MUSIC:Johan Gielen - Release Me.mp3;
#OFFSET:-0.280;
#SAMPLESTART:100.000;
#SAMPLELENGTH:12.000;
#SELECTABLE:YES;
#BPMS:0.000=149.780;
#STOPS:;
#BGCHANGES:;
// cache tags:
#FIRSTBEAT:16.000;
#LASTBEAT:1079.000;
#SONGFILENAME:Songs/Definitive Keyboard Megapack/Release Me - Johan Gielen(Leone510)/Johan Gielen - Release Me.sm;
#HASMUSIC:1;
#HASBANNER:1;
#MUSICLENGTH:433.266;
// end cache tags

//---------------dance-single - ----------------
#NOTES:
     dance-single:
     :
     Hard:
     12:
     1.000,1.000,0.969,1.000,1.000,2820.000,420.000,531.000,0.000,51.000:
0000
0000
0000
0000
,
0000
0000
0000
0000
,
0000
0000
0000
0000
,
0000
0000
0000
0000
,
1000
0001
1000
0010
0001
0100
1000
0100
,
0001
0010
0100
1000
0010
0100
1000
0010
,
0100
0001
0100
1000
0010
0001
0010
0100
,
1000
0010
0100
0001
0010
0100
1000
0010
,
0100
0000
0001
0010
1000
0000
1000
0001
1000
0000
1000
0000
0100
0000
0010
0000
,
0001
0000
0010
0100
1000
0000
0001
1000
0001
0000
0001
0000
0010
0000
0001
0000
,
0010
0000
0100
1000
0100
0000
0010
0100
0010
0000
0010
0000
0100
0000
0010
0000
,
1000
0000
0001
0100
0010
0000
0100
0001
0100
0000
0100
0000
0001
0000
1000
0000
,
0100
0000
0001
0010
1000
0000
1000
0001
1000
0000
1000
0000
0100
0000
0010
0000
,
0001
0000
0010
0100
1000
0000
0001
1000
0001
0000
0001
0000
0010
0000
0001
0000
,
0010
0000
0100
1000
0100
0000
0010
0100
0010
0000
0010
0000
0100
0000
0010
0000
,
1000
0000
0000
0000
0001
0000
0100
0000
0010
0000
0100
0010
0000
0000
0000
0000
0100
0000
0000
0000
1000
0000
0000
0000
0001
0000
0010
0000
1000
0000
0010
0000
,
0101
0100
1010
0001
1010
0100
0101
0010
,
1001
0001
0110
1000
0101
0010
1100
0010
,
1001
0100
0011
0010
1001
0100
0011
1000
,
0101
0010
1001
0010
1100
0010
0101
0010
,
0101
0100
1010
0001
1010
0100
0101
0010
,
1001
0001
0110
1000
0101
0010
1100
0010
,
1001
0100
0011
0010
1001
0100
0011
1000
,
0101
0000
0000
0000
0010
0000
0001
0000
1000
0000
0001
0010
0000
0000
0000
0000
1000
0000
0000
0000
0010
0000
1000
0000
0001
0000
0100
0000
0010
0000
0000
0000
,
0101
0000
0100
1000
0100
0000
0010
0001
0010
0000
0001
1000
0001
0000
0100
0001
,
0100
0000
0010
0100
1000
0000
0010
0100
0010
0000
1000
0001
0100
0000
0010
0001
,
0010
0000
0010
0100
0001
0000
1000
0001
1000
0000
0100
0001
0100
0000
0001
0010
,
1000
0000
0100
0001
0010
0000
0010
0100
0010
0000
0001
0010
1000
0000
0100
1000
,
0100
0000
0010
0001
0010
0000
0001
1000
0001
0000
0100
0001
0100
0000
0010
0100
,
1000
0000
0010
0100
0010
0000
1000
0001
0100
0000
0010
0001
0010
0000
0010
0100
,
0001
0000
1000
0001
1000
0000
0100
0001
0100
0000
0001
0010
1000
0000
0100
0001
,
0010
0000
0000
0000
0010
0000
0100
0000
0010
0000
0001
0100
0000
0000
0000
0000
1000
0000
0000
0000
0100
0000
0001
0000
0100
0000
0010
0000
1000
0000
0001
0000
,
1000
0010
0001
0000
1010
0000
0100
0010
0001
0000
0100
0000
0011
0000
0100
0010
,
0100
0010
0001
0000
1100
0000
0100
0001
0100
0000
0010
0000
1001
0000
0001
0010
,
1000
0010
0100
0000
0011
0000
0100
1000
0100
0000
0010
0000
1100
0000
0001
0100
,
0001
0010
0100
0000
1010
0000
0100
0010
0001
0000
0100
0000
1001
0000
0100
0010
,
0100
0010
0001
0000
1100
0000
0100
0001
0100
0000
0010
0000
1001
0000
0001
0010
,
1000
0010
0100
0000
0011
0000
0100
1000
0100
0000
0010
0000
1100
0000
0001
0100
,
0001
0010
0100
0000
1010
0000
0100
0010
0001
0000
0100
0000
1001
0000
0100
0010
,
0100
0010
0001
0000
1100
0000
0100
0001
0100
0000
0010
0000
1001
0000
0001
0010
,
1000
0010
0100
0000
0011
0000
0100
1000
0100
0000
0010
0000
1100
0000
0001
0100
,
0001
0010
0100
0000
1010
0000
0100
0010
0001
0000
0100
0000
1001
0000
0100
0010
,
0100
0010
0001
0000
1100
0000
0100
0001
0100
0000
0010
0000
1001
0000
0001
0010
,
1000
0010
0100
0000
0011
0000
0100
1000
0100
0000
0010
0000
1100
0000
0001
0100
,
0001
0010
0100
0000
1010
0000
0100
0010
0001
0000
0100
0000
1001
0000
0100
0010
,
0100
0010
0001
0000
1100
0000
0100
0001
0100
0000
0010
0000
1001
0000
0001
0010
,
1000
0010
0100
0000
0011
0000
0100
1000
0100
0000
0010
0000
1100
0000
0001
0100
,
0001
0000
0000
0010
0000
0000
0100
0000
0000
0001
0000
0000
0000
0000
0000
0100
0000
0000
0010
0000
0000
0000
0000
0000
1001
0000
0000
0000
0000
0000
0100
0000
0000
0010
0000
0000
0001
0000
0010
0000
0100
0000
1000
0000
0000
0010
0000
0000
,
0100
0000
0100
1000
0000
0010
1000
0000
0100
0000
0100
0001
0000
0001
1000
0100
,
0001
0010
1000
0000
0101
0000
1000
0000
0010
0000
0100
0000
0011
0000
1000
0000
,
0010
0001
1010
0100
0010
1000
0110
0100
,
1000
0001
1100
0010
1000
0001
0110
0100
,
0010
0000
0010
0001
0000
0001
1000
0000
0101
0000
0100
1000
0000
0100
0001
0000
,
1100
0001
0010
0000
1100
0000
0010
0000
0100
0000
0010
0000
1001
0000
0010
0000
,
0100
0001
1010
0100
0001
0010
1100
1000
,
0001
0000
0000
0000
0000
0000
0010
0000
0000
0100
0000
0000
0000
0000
0000
0010
0000
0000
0100
0000
0000
0000
0000
0000
1000
0000
0000
0000
0000
0000
0001
0000
0000
1000
0000
0000
0010
0000
0001
0000
0010
0000
0100
0000
0000
1000
0000
0000
,
0001
0010
0100
1000
0001
0100
0001
0100
0001
1000
0001
1000
0100
0010
0001
0100
,
0010
0100
0010
0001
0100
0001
0010
0100
0001
1000
0001
1000
0001
0010
0100
1000
,
0100
0001
1000
0001
0100
0001
1000
0001
0100
0010
0001
0010
0100
0010
0100
0010
,
1000
0001
0100
0010
0000
0100
0001
0000
0101
0000
0100
1000
0000
0001
1000
0000
,
0010
0100
0010
0001
1000
0001
0100
0010
1000
0010
0100
0010
0001
0100
0001
0100
,
0001
0010
1000
0100
0010
0001
0010
0100
1000
0100
0001
0100
0001
0100
0010
1000
,
0010
0100
1000
0100
0010
0100
0001
0100
0001
0100
0001
1000
0001
0010
0100
1000
,
0010
0100
0001
0100
0000
0010
1000
0000
0101
0000
0010
0100
0000
0100
0001
0000
,
1001
0010
0100
1000
0001
0100
0001
0100
0001
1000
0001
1000
0100
0010
0001
0100
,
0010
0100
0010
0001
0100
0001
0010
0100
0001
1000
0001
1000
0001
0010
0100
1000
,
0100
0001
1000
0001
0100
0001
1000
0001
0100
0010
0001
0010
0100
0010
0100
0010
,
1000
0001
0100
0010
0000
0100
0001
0000
0101
0000
0100
1000
0000
0001
1000
0000
,
0010
0100
0010
0001
1000
0001
0100
0010
1000
0010
0100
0010
0001
0100
0001
0100
,
0001
0010
1000
0100
0010
0001
0010
0100
1000
0100
0001
0100
0001
0100
0010
1000
,
0010
0100
1000
0100
0010
0100
0001
0100
0001
0100
0001
1000
0001
0010
0100
1000
,
0010
0100
0001
0100
0000
0010
1000
0000
0101
0000
0010
0100
0000
0100
0001
0000
,
0001
0010
0100
1000
0001
0100
0001
0100
0001
1000
0001
1000
0100
0010
0001
0100
,
0010
0100
0010
0001
0100
0001
0010
0100
0001
1000
0001
1000
0001
0010
0100
1000
,
0100
0001
1000
0001
0100
0001
1000
0001
0100
0010
0001
0010
0100
0010
0100
0010
,
1000
0001
0100
0010
0000
0100
0001
0000
0101
0000
0100
1000
0000
0001
1000
0000
,
0010
0100
0010
0001
1000
0001
0100
0010
1000
0010
0100
0010
0001
0100
0001
0100
,
0001
0010
1000
0100
0010
0001
0010
0100
1000
0100
0001
0100
0001
0100
0010
1000
,
0010
0100
1000
0100
0010
0100
0001
0100
0001
0100
0001
1000
0001
0010
0100
1000
,
0010
0000
0000
0100
0000
0000
0001
0000
0000
0100
0000
0000
0001
0000
0000
0010
0000
0000
1000
0000
0000
0010
0000
0000
0001
0000
0000
1000
0000
0000
0010
0000
0000
0100
0000
0000
1000
0000
0100
0000
0010
0000
0001
0000
1000
0000
0010
0000
,
0101
0000
0000
0101
0000
0000
0101
0000
0000
0000
0000
0100
0000
0000
0002
0000
,
0003
0000
0000
0100
0000
0000
0002
0000
0003
0000
0000
0100
0000
0000
0002
0000
,
0003
0000
0000
0100
0000
0000
0002
0000
0003
0000
0000
0100
0000
0000
0002
0000
,
0003
0000
0000
0100
0000
0000
0002
0000
0003
0000
0000
0100
0000
0000
0002
0000
,
0003
0000
0000
0100
0000
0000
0002
0000
0003
0000
0000
0100
0000
0000
0002
0000
,
0003
0000
0000
0100
0000
0000
0002
0000
0003
0000
0000
0100
0000
0000
0002
0000
,
0003
0000
0000
0100
0000
0000
0002
0000
0003
0000
0000
0100
0000
0000
0002
0000
,
0003
0000
0000
0100
0000
0000
0002
0000
0003
0000
0000
0100
0000
0000
0002
0000
,
0103
0000
0000
0010
0100
0000
0001
0000
0100
0000
0000
0100
0010
0000
0001
0000
,
0100
0000
0000
0100
1000
0000
0001
0000
0010
0000
0000
0010
0100
0000
0100
0001
,
0010
0000
0000
0010
0100
0000
1000
0000
0010
0000
0000
0100
0001
0000
0010
0000
,
0100
0000
0000
0100
0010
0000
0100
0000
0010
0000
0000
1000
0010
0000
0001
1000
,
0010
0000
0000
0010
0100
0000
0001
0000
0100
0000
0000
0100
0010
0000
0001
0000
,
0100
0000
0000
0100
1000
0000
0001
0000
0010
0000
0000
0010
0100
0000
0100
0001
,
0010
0000
0000
0010
0100
0000
1000
0000
0010
0000
0000
0100
0001
0000
0010
0000
,
0100
0000
0000
0100
0010
0000
0100
0000
0010
0000
0000
0000
0020
0230
0302
2003
,
3020
0230
0300
0202
0303
0000
0202
0303
2002
3003
0000
0202
0303
0000
2002
3003
,
0220
0330
0000
0010
0100
0000
0001
0000
0100
0000
0000
0100
0010
0000
0001
0010
,
2002
0000
3003
0100
0001
0000
0001
0000
0010
0000
0000
0010
0100
0000
0100
0001
,
0010
0000
0000
0010
0100
0000
1000
0000
0010
0000
0000
0100
0002
2003
3020
0030
,
0200
0320
0030
0020
0030
0000
2200
3300
0202
0303
0000
2002
3003
0000
0202
0303
,
2020
3030
0000
0010
0100
0000
0001
0000
0100
0000
0000
0100
0010
0000
0001
0010
,
2002
0000
3003
0100
0001
0000
0001
0000
0010
0000
0000
0010
0100
0000
0100
0001
,
0010
0000
0000
0010
0100
0000
1000
0000
0010
0000
0000
0100
0002
2003
3020
0030
,
0200
0320
0030
0020
0030
0000
2200
3300
0202
0303
0000
2002
3003
0000
0202
0000
,
0303
0000
0000
0100
1000
0000
0001
0000
0010
0000
0000
0010
0100
0000
0100
0000
,
0220
0000
0330
0010
0100
0000
0001
0000
0010
0000
0000
0010
0100
0000
0100
0001
,
0010
0000
0000
0010
0100
0000
1000
0000
0010
0000
0000
0100
0002
2003
3020
0030
,
0200
0320
0030
0020
0030
0000
2200
3300
0202
0303
0000
2002
3003
0000
0202
0303
,
2020
3030
0000
0100
0001
0000
0001
0000
0010
0000
0000
0010
0100
0000
0100
0001
,
2020
0000
3030
0001
0100
0000
0001
0000
0010
0000
0000
0010
0100
0000
0100
0001
,
0010
0000
0000
0010
0100
0000
1000
0000
0010
0000
0000
0100
0002
2003
3020
0030
,
0202
0323
0030
2020
3030
0000
2200
3300
0202
0303
0000
2002
3003
0000
0202
0303
,
2020
3032
0003
0202
0303
0000
2002
3003
2002
3003
0000
0202
0303
0000
0202
0303
,
2002
3203
0300
2020
3030
0000
0220
0330
0202
0303
0000
2020
3030
0000
2020
3030
,
0220
2330
3000
0202
0303
0000
0202
0303
2002
3203
0300
0220
0332
2003
3020
0030
,
0202
0323
0030
2020
3030
0000
2200
3300
0202
0303
0000
2002
3003
0000
0202
0303
,
2020
3032
0003
0202
0303
0000
2002
3003
2002
3003
0000
0202
0303
0000
0202
0303
,
2002
3203
0300
2020
3030
0000
0220
0330
0202
0303
0000
2020
3030
0000
2020
3030
,
0220
2330
3000
0202
0303
0000
0202
0303
2002
3203
0300
0220
0332
2003
3020
0030
,
0202
0323
0030
2020
3030
0000
2200
3300
0202
0303
0000
2002
3003
0000
0202
0303
,
2020
3032
0003
0202
0303
0000
2002
3003
2002
3003
0000
0202
0303
0000
0202
0303
,
2002
3203
0300
2020
3030
0000
0220
0330
0202
0303
0000
2020
3030
0000
2020
3030
,
0220
2330
3000
0202
0303
0000
0202
0303
2002
3003
0000
0220
0332
2003
3020
0030
,
0202
0323
0030
2020
3030
0000
2200
3300
0202
0323
0030
2002
3003
0000
0202
0303
,
2020
3032
0003
0202
0303
0000
2002
3003
2002
3203
0300
0202
0303
0000
0202
0303
,
2002
3203
0300
2020
3030
0000
0220
0330
0202
0323
0030
2020
3030
0000
2020
3030
,
0220
2330
3000
0202
0303
0000
0202
0303
2002
3203
0300
0220
0330
0000
2002
0000
,
3113
0000
0000
0000
,
0000
0000
0000
0000
0000
0000
0000
0000
0000
0000
0000
0000
1000
0001
1000
0000
,
1001
0010
0100
1000
0001
0100
0001
0100
0001
1000
0001
1000
0100
0010
0001
0100
,
0010
0100
0010
0001
0100
0001
0010
0100
0001
1000
0001
1000
0001
0010
0100
1000
,
0100
0001
1000
0001
0100
0001
1000
0001
0100
0010
0001
0010
0100
0010
0100
0010
,
1000
0001
0000
1010
0000
0100
0001
0000
0001
0100
0000
1001
0000
0001
1000
0000
,
0010
0100
0010
0001
1000
0001
0100
0010
1000
0010
0100
0010
0001
0100
0001
0100
,
0001
0010
1000
0100
0010
0001
0010
0100
1000
0100
0001
0100
0001
0100
0010
1000
,
0010
0100
1000
0100
0010
0100
0001
0100
0001
0100
0001
1000
0001
0010
0100
1000
,
0010
0100
0000
0110
0000
0010
1000
0000
0001
1000
0000
0101
0000
0100
0001
0000
,
1001
0010
0100
1000
0001
0100
0001
0100
0001
1000
0001
1000
0100
0010
0001
0100
,
0010
0100
0010
0001
0100
0001
0010
0100
0001
1000
0001
1000
0001
0010
0100
1000
,
0100
0001
1000
0001
0100
0001
1000
0001
0100
0010
0001
0010
0100
0010
0100
0010
,
1000
0001
0000
1010
0000
0100
0001
0000
0001
0100
0000
1001
0000
0001
1000
0000
,
0010
0100
0010
0001
1000
0001
0100
0010
1000
0010
0100
0010
0001
0100
0001
0100
,
0001
0010
1000
0100
0010
0001
0010
0100
1000
0100
0001
0100
0001
0100
0010
1000
,
0010
0100
1000
0100
0010
0100
0001
0100
0001
0100
0001
1000
0001
0010
0100
1000
,
0010
0100
0000
0110
0000
0010
1000
0000
0001
1000
0000
0101
0000
0100
0001
0000
,
1001
0010
0100
1000
0001
0100
0001
0100
0001
1000
0001
1000
0100
0010
0001
0100
,
0010
0100
0010
0001
0100
0001
0010
0100
0001
1000
0001
1000
0001
0010
0100
1000
,
0100
0001
1000
0001
0100
0001
1000
0001
0100
0010
0001
0010
0100
0010
0100
0010
,
1000
0001
0000
1010
0000
0100
0001
0000
0001
0100
0000
1001
0000
0001
1000
0000
,
0010
0100
0010
0001
1000
0001
0100
0010
1000
0010
0100
0010
0001
0100
0001
0100
,
0001
0010
1000
0100
0010
0001
0010
0100
1000
0100
0001
0100
0001
0100
0010
1000
,
0010
0100
1000
0100
0010
0100
0001
0100
0001
0100
0001
1000
0001
0010
0100
1000
,
0010
0100
0000
0110
0000
0010
1000
0000
0001
1000
0000
0101
0000
0100
0001
0000
,
0100
0000
0000
0100
0000
0000
0100
0000
0000
0100
0000
0000
0100
0000
0100
0001
,
0100
0010
1000
0000
0101
0000
0010
0000
0100
0000
1000
0000
0110
0000
0001
0000
,
0010
0100
1001
0100
0001
0010
1100
0010
,
0001
0000
1000
0000
0101
0000
0010
0000
1000
0000
0001
0000
1000
0010
0001
0010
,
0100
0000
0010
0100
0000
0010
0100
0000
0010
0100
0000
0000
0101
0000
0010
0000
,
0100
1000
0110
0001
0010
0100
1001
0100
,
0001
0010
1100
0010
0001
1000
0101
0010
,
1000
0001
1010
0100
0010
0001
1100
0010
,
0100
0000
0000
0100
0000
0000
0100
0000
0000
0100
0000
0000
0100
0000
0100
0001
,
0100
0010
1000
0000
0101
0000
0010
0000
0100
0000
1000
0000
0110
0000
0001
0000
,
0010
0100
1001
0100
0001
0010
1100
0010
,
0001
0000
1000
0000
0101
0000
0010
0000
1000
0000
0001
0000
1000
0010
0001
0010
,
0100
0000
0010
0100
0000
0010
0100
0000
0010
0100
0000
0000
0101
0000
0010
0000
,
0100
1000
0110
0001
0010
0100
1001
0100
,
0001
0010
1100
0010
0001
1000
0101
0010
,
1000
0001
1010
0100
0010
0001
1100
0010
,
0101
0000
0000
0101
0000
0000
0110
0000
0000
1100
0000
0000
0100
0000
0100
0001
,
0100
0010
1000
0010
0101
0000
0010
1000
0000
0000
1000
0000
0110
0000
0001
0010
,
1000
0010
0100
0010
1001
0000
0100
0001
0000
0000
0010
0000
1100
0000
0010
0001
,
0010
0100
1000
0010
0101
0000
0010
1000
0000
0000
0001
0000
1000
0010
0001
0010
,
0100
0000
0010
0100
0000
0010
0100
0000
0010
0100
0000
0000
0101
0000
0010
1000
,
0100
0001
1000
0001
0110
0000
0001
0010
0000
0000
0100
0000
1001
0000
0100
1000
,
0001
1000
0010
0001
1100
0000
0010
0001
0000
0000
1000
0000
0101
0000
0010
0100
,
1000
0100
0001
0100
1010
0000
0100
0010
0000
0000
0001
0000
1100
0000
0010
1000
,
0101
0000
0000
0101
0000
0000
0110
0000
0000
1100
0000
0000
0100
0000
0100
0001
,
0100
0010
1000
0010
0101
0000
0010
1000
0000
0000
1000
0000
0110
0000
0001
0010
,
1000
0010
0100
0010
1001
0000
0100
0001
0000
0000
0010
0000
1100
0000
0010
0001
,
0010
0100
1000
0010
0101
0000
0010
1000
0000
0000
0001
0000
1000
0010
0001
0010
,
0100
0000
0010
0100
0000
0010
0100
0000
0010
0100
0000
0000
0101
0000
0010
1000
,
0100
0001
1000
0001
0110
0000
0001
0010
0000
0000
0100
0000
1001
0000
0100
1000
,
0001
1000
0010
0001
1100
0000
0010
0001
0000
0000
1000
0000
0101
0000
0010
0100
,
1000
0100
0001
0100
1010
0000
0100
0010
0000
0000
0001
0000
1100
0000
0010
1000
,
0101
0000
0000
0101
0000
0000
0110
0000
0000
1100
0000
0000
0100
0000
0100
0001
,
0100
0010
1000
0010
0101
0000
0010
1000
0000
0000
1000
0000
0110
0000
0001
0010
,
1000
0010
0100
0010
1001
0000
0100
0001
0000
0000
0010
0000
1100
0000
0010
0001
,
0010
0100
1000
0010
0101
0000
0010
1000
0000
0000
0001
0000
1000
0010
0001
0010
,
0100
0000
0010
0100
0000
0010
0100
0000
0010
0100
0000
0000
0101
0000
0010
1000
,
0100
0001
1000
0001
0110
0000
0001
0010
0000
0000
0100
0000
1001
0000
0100
1000
,
0001
1000
0010
0001
1100
0000
0010
0001
0000
0000
1000
0000
0101
0000
0010
0100
,
1000
0100
0001
0100
1000
0001
0100
0010
1000
0010
0001
0010
1000
0001
0100
0001
,
0220
0000
0000
0000
0330
0000
0000
0000
0000
0000
0000
0000
0002
2003
3020
0030
,
0202
0323
0030
2020
3030
0000
2200
3300
0202
0303
0000
2002
3003
0000
0202
0303
,
2020
3032
0003
0202
0303
0000
2002
3003
2002
3003
0000
0202
0303
0000
0202
0303
,
2002
3203
0300
2020
3030
0000
0220
0330
0202
0303
0000
2020
3030
0000
2020
3030
,
0220
2330
3000
0202
0303
0000
0202
0303
2002
3203
0300
0220
0332
2003
3020
0030
,
0202
0323
0030
2020
3030
0000
2200
3300
0202
0303
0000
2002
3003
0000
0202
0303
,
2020
3032
0003
0202
0303
0000
2002
3003
2002
3003
0000
0202
0303
0000
0202
0303
,
2002
3203
0300
2020
3030
0000
0220
0330
0202
0303
0000
2020
3030
0000
2020
3030
,
0220
2330
3000
0202
0303
0000
0202
0303
2002
3203
0300
0220
0332
2003
3020
0030
,
0202
0323
0030
2020
3030
0000
2200
3300
0202
0303
0000
2002
3003
0000
0202
0303
,
2020
3032
0003
0202
0303
0000
2002
3003
2002
3003
0000
0202
0303
0000
0202
0303
,
2002
3203
0300
2020
3030
0000
0220
0330
0202
0303
0000
2020
3030
0000
2020
3030
,
0220
2330
3000
0202
0303
0000
0202
0303
2002
3003
0000
0220
0332
2003
3020
0030
,
0202
0323
0030
2020
3030
0000
2200
3300
0202
0323
0030
2002
3003
0000
0202
0303
,
2020
3032
0003
0202
0303
0000
2002
3003
2002
3203
0300
0202
0303
0000
0202
0303
,
2002
3203
0300
2020
3030
0000
0220
0330
0202
0323
0030
2020
3030
0000
2020
3030
,
0220
2330
3000
0202
0303
0000
0202
0303
2002
3203
0300
0220
0330
0000
2002
0000
,
3003
0000
0000
0000
,
0000
0000
0000
0000
0000
0000
0000
0000
0000
0000
0000
0000
1000
0001
1000
0000
,
1001
0010
0100
1000
0001
0100
0001
0100
0001
1000
0001
1000
0100
0010
0001
0100
,
0010
0100
0010
0001
0100
0001
0010
0100
0001
1000
0001
1000
0001
0010
0100
1000
,
0100
0001
1000
0001
0100
0001
1000
0001
0100
0010
0001
0010
0100
0010
0100
0010
,
1000
0001
0000
1010
0000
0100
0001
0000
0001
0100
0000
1001
0000
0001
1000
0000
,
0010
0100
0010
0001
1000
0001
0100
0010
1000
0010
0100
0010
0001
0100
0001
0100
,
0001
0010
1000
0100
0010
0001
0010
0100
1000
0100
0001
0100
0001
0100
0010
1000
,
0010
0100
1000
0100
0010
0100
0001
0100
0001
0100
0001
1000
0001
0010
0100
1000
,
0010
0100
0000
0110
0000
0010
1000
0000
0001
1000
0000
0101
0000
0100
0001
0000
,
1001
0010
0100
1000
0001
0100
0001
0100
0001
1000
0001
1000
0100
0010
0001
0100
,
0010
0100
0010
0001
0100
0001
0010
0100
0001
1000
0001
1000
0001
0010
0100
1000
,
0100
0001
1000
0001
0100
0001
1000
0001
0100
0010
0001
0010
0100
0010
0100
0010
,
1000
0001
0000
1010
0000
0100
0001
0000
0001
0100
0000
1001
0000
0001
1000
0000
,
0010
0100
0010
0001
1000
0001
0100
0010
1000
0010
0100
0010
0001
0100
0001
0100
,
0001
0010
1000
0100
0010
0001
0010
0100
1000
0100
0001
0100
0001
0100
0010
1000
,
0010
0100
1000
0100
0010
0100
0001
0100
0001
0100
0001
1000
0001
0010
0100
1000
,
0010
0100
0000
0110
0000
0010
1000
0000
0001
1000
0000
0101
0000
0100
0001
0000
,
1001
0010
0100
1000
0001
0100
0001
0100
0001
1000
0001
1000
0100
0010
0001
0100
,
0010
0100
0010
0001
0100
0001
0010
0100
0001
1000
0001
1000
0001
0010
0100
1000
,
0100
0001
1000
0001
0100
0001
1000
0001
0100
0010
0001
0010
0100
0010
0100
0010
,
1000
0001
0000
1010
0000
0100
0001
0000
0001
0100
0000
1001
0000
0001
1000
0000
,
0010
0100
0010
0001
1000
0001
0100
0010
1000
0010
0100
0010
0001
0100
0001
0100
,
0001
0010
1000
0100
0010
0001
0010
0100
1000
0100
0001
0100
0001
0100
0010
1000
,
0010
0100
1000
0100
0010
0100
0001
0100
0001
0100
0001
1000
0001
0010
0100
1000
,
0010
0100
0000
0110
0000
0010
1000
0000
0001
1000
0000
0101
0000
0100
0001
0000
,
1000
0010
0001
0000
1010
0000
0100
0010
0001
0000
0100
0000
0011
0000
0100
0010
,
0100
0010
0001
0000
1100
0000
0100
0001
0100
0000
0010
0000
1001
0000
0001
0010
,
1000
0010
0100
0000
0011
0000
0100
1000
0100
0000
0010
0000
1100
0000
0001
0100
,
0001
0010
0100
0000
1010
0000
0100
0010
0001
0000
0100
0000
1001
0000
0100
0010
,
0100
0010
0001
0000
1100
0000
0100
0001
0100
0000
0010
0000
1001
0000
0001
0010
,
1000
0010
0100
0000
0011
0000
0100
1000
0100
0000
0010
0000
1100
0000
0001
0100
,
0001
0010
0100
0000
1010
0000
0100
0010
0001
0000
0100
0000
1001
0000
0100
0010
,
0100
0010
0001
0000
1100
0000
0100
0001
0100
0000
0010
0000
1001
0000
0001
0010
,
1000
0010
0100
0000
0011
0000
0000
1000
0000
0000
0010
0000
0000
0000
0000
0100
,
0001
0010
0100
0000
1010
0000
0000
0010
0001
0000
0100
0000
0000
0000
0000
1000
,
0001
0100
0001
0000
1100
0000
0000
1000
0001
0000
0010
0000
0000
0000
0000
1000
,
0001
0100
0001
0000
0110
0000
0000
0001
0010
0000
1000
0000
0000
0000
0000
0010
,
0001
1000
0001
0000
0101
0000
0000
0100
0010
0000
1000
0000
0000
0000
0000
0100
,
0001
0010
0100
0000
1010
0000
0000
0010
0001
0000
0100
0000
0000
0000
0000
1000
,
0001
0100
0001
0000
1100
0000
0000
1000
0001
0000
0010
0000
0000
0000
0000
1000
,
0001
0100
0001
0000
0110
0000
0000
0001
0010
0000
1000
0000
0000
0000
0000
0010
,
1001
0000
0100
1000
0100
0000
0010
0001
0010
0000
0001
1000
0001
0000
0100
0001
,
0100
0000
0010
0100
1000
0000
0010
0100
0010
0000
1000
0001
0100
0000
0010
0001
,
0010
0000
0010
0100
0001
0000
1000
0001
1000
0000
0100
0001
0100
0000
0001
0010
,
1000
0000
0100
0001
0010
0000
0010
0100
0010
0000
0001
0010
1000
0000
0100
1000
,
0100
0000
0010
0001
0010
0000
0001
1000
0001
0000
0100
0001
0100
0000
0010
0100
,
1000
0000
0010
0100
0010
0000
1000
0001
0100
0000
0010
0001
0010
0000
0010
0100
,
0001
0000
1000
0001
1000
0000
0100
0001
0100
0000
0001
0010
1000
0000
0100
0001
,
0010
0000
0010
0100
0010
0000
0001
0010
1000
0000
0100
1000
0100
0000
0010
0001
,
0010
0000
0001
1000
0001
0000
0100
0001
0100
0000
0010
0100
1000
0000
0010
0100
,
0010
0000
1000
0001
0100
0000
0010
0001
0010
0000
0010
0100
0001
0000
1000
0001
,
1000
0000
0100
0001
0100
0000
0001
0010
1000
0000
0100
0001
0010
0000
0010
0100
,
0010
0000
0001
0010
1000
0000
0100
1000
0100
0000
0010
0001
0010
0000
0001
1000
,
0001
0000
0100
0001
0100
0000
0010
0100
1000
0000
0010
0100
0010
0000
1000
0001
,
0100
0000
0010
0001
0010
0000
0010
0100
0001
0000
1000
0001
1000
0000
0100
0001
,
0100
0000
0001
0010
1000
0000
0100
0001
0010
0000
0010
0100
0010
0000
0001
0010
,
1000
0000
0100
1000
0100
0000
0010
0001
0010
0000
0001
1000
0001
0000
0100
0001
,
0220
0000
0000
0330
;

//---------------dance-single - Copied from----------------
#NOTES:
     dance-single:
     Copied from:
     Challenge:
     13:
     1.000,1.000,1.000,1.000,1.000,2983.000,1120.000,772.000,0.000,546.000:
0000
0000
0000
0000
,
0000
0000
0000
0000
,
0000
0000
0000
0000
,
0000
0000
0000
0000
,
1000
0000
0001
0010
1000
0000
0010
0001
0000
0000
0100
0000
1000
0000
0100
0000
,
0001
0000
0010
0001
0100
0000
1000
0010
0000
0000
0100
0000
1000
0000
0010
0000
,
0100
0000
0001
0010
0100
0000
1000
0010
0000
0000
0001
0000
0010
0000
0100
0000
,
1000
0000
0010
0001
0100
0000
0001
0010
0000
0000
0100
0000
1000
0000
0010
0000
,
0100
0000
0001
0010
1000
0000
1000
0001
1000
0000
1000
0000
0100
0000
0010
0000
,
0001
0000
0010
0100
1000
0000
0001
1000
0001
0000
0001
0000
0010
0000
0001
0000
,
0010
0000
0100
1000
0100
0000
0010
0100
0010
0000
0010
0000
0100
0000
0010
0000
,
1000
0000
0001
0100
0010
0000
0100
0001
0100
0000
0100
0000
0001
0000
1000
0000
,
0100
0000
0001
0010
1000
0000
1000
0001
1000
0000
1000
0000
0100
0000
0010
0000
,
0001
0000
0010
0100
1000
0000
0001
1000
0001
0000
0001
0000
0010
0000
0001
0000
,
0010
0000
0100
1000
0100
0000
0010
0100
0010
0000
0010
0000
0100
0000
0010
0000
,
1100
0000
0000
0000
0001
0000
0100
0000
1010
0000
0100
0010
0000
0000
0000
0000
0101
0000
0000
0000
1000
0000
0000
0000
0101
0000
0010
0000
1001
0000
0010
0000
,
0101
0000
0100
0001
1010
0000
0001
0100
1010
0000
0100
0010
0101
0000
0010
0100
,
1001
0000
0001
1000
0110
0000
1000
0010
0101
0000
0010
0001
1100
0000
0010
0100
,
1001
0000
0100
1000
0011
0000
0010
0100
1001
0000
0100
1000
0011
0000
1000
0010
,
0101
0000
0010
0100
1001
0000
0010
0001
1100
0000
0010
1000
0101
0000
0010
1000
,
0101
0000
0100
0001
1010
0000
0001
0100
1010
0000
0100
0010
0101
0000
0010
0100
,
1001
0000
0001
1000
0110
0000
1000
0010
0101
0000
0010
0001
1100
0000
0010
0100
,
1001
0000
0100
1000
0011
0000
0010
0100
1001
0000
0100
1000
0011
0000
1000
0010
,
0101
0000
0000
0000
0010
0000
0001
0000
1100
0000
0001
0010
0000
0000
0000
0000
1001
0000
0000
0000
0010
0000
1000
0000
0011
0000
0100
0000
0010
0000
1000
0000
,
0101
0000
0100
1000
0101
0000
0010
0001
1010
0000
0001
1000
0011
0000
0100
0001
,
1100
0000
0010
0100
1001
0000
0010
0100
0011
0000
1000
0001
0110
0000
0010
0001
,
1010
0000
0010
0100
0011
0000
1000
0001
1010
0000
0100
0001
1100
0000
0001
0010
,
1001
0000
0100
0001
1010
0000
0010
0100
0011
0000
0001
0010
1001
0000
0100
1000
,
0101
0000
0010
0001
0110
0000
0001
1000
0011
0000
0100
0001
1100
0000
0010
0100
,
1001
0000
0010
0100
0011
0000
1000
0001
0110
0000
0010
0001
1010
0000
0010
0100
,
0011
0000
1000
0001
1010
0000
0100
0001
1100
0000
0001
0010
1001
0000
0100
0001
,
1010
0000
0000
0000
0010
0000
0100
0000
1010
0000
0001
0100
0000
0000
0000
0000
1001
0000
0000
0000
0100
0000
0001
0000
1100
0000
0010
0000
1000
0000
0001
0000
,
1100
0010
0001
0000
1011
0000
0100
0010
0001
0000
0110
0000
1011
0000
0100
0010
,
0101
0010
0001
0000
1110
0000
0100
0001
0100
0000
1010
0000
1101
0000
0001
0010
,
1100
0010
0100
0000
0111
0000
0100
1000
0100
0000
0101
0000
1101
0000
0001
0100
,
1001
0010
0100
0000
1110
0000
0100
0010
0001
0000
0110
0000
1011
0000
0100
0010
,
0101
0010
0001
0000
1110
0000
0100
0001
0100
0000
1010
0000
1101
0000
0001
0010
,
1100
0010
0100
0000
0111
0000
0100
1000
0100
0000
0101
0000
1101
0000
0001
0100
,
1001
0010
0100
0000
1110
0000
0100
0010
0001
0000
0110
0000
1011
0000
0100
0010
,
0101
0010
0001
0000
1110
0000
0100
0001
0100
0000
1010
0000
1101
0000
0001
0010
,
1100
0010
0100
0000
0111
0000
0100
1000
0100
0000
0101
0000
1101
0000
0001
0100
,
1001
0010
0100
0000
1110
0000
0100
0010
0001
0000
0110
0000
1011
0000
0100
0010
,
0101
0010
0001
0000
1110
0000
0100
0001
0100
0000
1010
0000
1101
0000
0001
0010
,
1100
0010
0100
0000
0111
0000
0100
1000
0100
0000
0101
0000
1101
0000
0001
0100
,
1001
0010
0100
0000
1110
0000
0100
0010
0001
0000
0110
0000
1011
0000
0100
0010
,
0101
0010
0001
0000
1110
0000
0100
0001
0100
0000
1010
0000
1101
0000
0001
0010
,
1100
0010
0100
0000
0111
0000
0100
1000
0100
0000
0101
0000
1101
0000
0001
0100
,
1001
0000
0000
0010
0000
0000
0100
0000
0000
0000
0000
0000
1110
0000
0000
0000
0000
0000
0100
0000
0000
0010
0000
0000
0001
0000
0000
0000
0000
0000
0110
0000
0000
0000
0000
0000
1101
0000
0010
0000
0100
0000
1000
0000
0001
0000
0010
0000
,
0101
0000
1010
0101
0000
1001
0110
0000
1001
0000
0101
1110
0000
0011
1010
0000
,
1001
0100
0001
0100
0001
0010
1000
0001
1010
0001
0100
1000
0001
0010
1000
0100
,
0011
0100
0001
0100
0010
1000
0100
0001
0110
0001
1000
0001
0100
0010
0100
0001
,
1100
0010
0001
0100
1000
0100
0010
0001
1010
0100
0001
1000
0010
0001
0100
0010
,
0101
0000
1010
0101
0000
0011
1010
0000
0101
0000
0101
1110
0000
0110
1001
0000
,
1100
0001
0010
0100
0001
0100
0010
1000
0101
0010
0100
1000
0001
0100
0010
0001
,
0110
1000
0001
0100
1000
0010
0100
0010
0101
1000
0010
0001
1000
0001
1000
0010
,
0101
0000
0000
1000
0000
0000
0010
0000
0000
0100
0000
0000
0001
0000
0000
0010
0000
0000
0100
0000
0000
0010
0000
0000
1100
0000
0000
0010
0000
0000
0001
0000
0000
1000
0000
0000
0010
0000
0001
0000
0010
0000
0100
0000
0000
1000
0000
0000
,
0101
0010
0100
1000
0111
1000
0001
0100
0011
1000
0001
1000
0111
1000
0001
0100
,
1010
0100
0010
0001
1110
0001
0010
0100
1001
0010
0001
1000
0111
1000
0100
1000
,
0110
0001
1000
0001
1110
0001
0100
0001
1100
0010
0001
0010
1101
0010
0100
0010
,
1100
0001
1100
0111
0000
1101
1001
0000
0101
0000
0101
1110
0000
1101
1010
0000
,
0011
0100
0010
0001
1110
0001
0100
0010
1001
0010
0100
0010
1101
0010
0001
0100
,
0011
0100
1000
0100
1011
0100
0010
0100
1010
0100
0001
1000
0111
1000
0010
1000
,
0011
0100
1000
0100
1011
0100
0001
0100
0011
0100
0001
0010
1101
0010
0100
1000
,
0011
0100
1001
0111
0000
1011
1010
0000
0101
0000
1010
1110
0000
0111
1001
0000
,
0101
0010
0100
1000
0111
1000
0001
0100
0011
1000
0001
1000
0111
1000
0001
0100
,
1010
0100
0010
0001
1110
0001
0010
0100
1001
0010
0001
1000
0111
1000
0100
1000
,
0110
0001
1000
0001
1110
0001
0100
0001
1100
0010
0001
0010
1101
0010
0100
0010
,
1100
0001
1100
0111
0000
1101
1001
0000
0101
0000
0101
1110
0000
1101
1010
0000
,
0011
0100
0010
0001
1110
0001
0100
0010
1001
0010
0100
0010
1101
0010
0001
0100
,
0011
0100
1000
0100
1011
0100
0010
0100
1010
0100
0001
1000
0111
1000
0010
1000
,
0011
0100
1000
0100
1011
0100
0001
0100
0011
0100
0001
0010
1101
0010
0100
1000
,
0011
0100
1001
0111
0000
1011
1010
0000
0101
0000
1010
1110
0000
0111
1001
0000
,
0101
0010
0100
1000
0111
1000
0001
0100
0011
1000
0001
1000
0111
1000
0001
0100
,
1010
0100
0010
0001
1110
0001
0010
0100
1001
0010
0001
1000
0111
1000
0100
1000
,
0110
0001
1000
0001
1110
0001
0100
0001
1100
0010
0001
0010
1101
0010
0100
0010
,
1100
0001
1100
0111
0000
1101
1001
0000
0101
0000
0101
1110
0000
1101
1010
0000
,
0011
0100
0010
0001
1110
0001
0100
0010
1001
0010
0100
0010
1101
0010
0001
0100
,
0011
0100
1000
0100
1011
0100
0010
0100
1010
0100
0001
1000
0111
1000
0010
1000
,
0011
0100
1000
0100
1011
0100
0001
0100
0011
0100
0001
0010
1101
0010
0100
1000
,
0011
0000
0000
0100
0000
0000
1001
0000
0000
0010
0000
0000
0101
0000
0000
0010
0000
0000
1100
0000
0000
0010
0000
0000
0101
0000
0000
0010
0000
0000
1001
0000
0000
0010
0000
0000
1100
0000
0001
0000
0100
0000
0010
0000
1000
0000
0010
0000
,
1101
0000
0000
1101
0000
0000
1101
0000
0000
0000
0000
0100
0000
0000
0002
0000
,
0003
0000
0000
0100
0000
0000
0002
0000
0003
0000
0000
0100
0000
0000
0002
0000
,
0003
0000
0000
0100
0000
0000
0002
0000
0003
0000
0000
0100
0000
0000
0002
0000
,
0003
0000
0000
0100
0000
0000
0002
0000
0003
0000
0000
0100
0000
0000
0002
0000
,
0003
0000
0000
0100
0000
0000
0002
0000
0003
0000
0000
0100
0000
0000
0002
0000
,
0003
0000
0000
0100
0000
0000
0002
0000
0003
0000
0000
0100
0000
0000
0002
0000
,
0003
0000
0000
0100
0000
0000
0002
0000
0003
0000
0000
0100
0000
0000
0002
0000
,
0003
0000
0000
0100
0000
0000
0002
0000
0003
0000
0000
0100
0000
0000
0002
0000
,
0103
0000
0000
0010
0100
0000
0001
0000
0100
0000
0000
0100
0010
0000
0001
0000
,
0100
0000
0000
0100
1000
0000
0001
0000
0010
0000
0000
0010
0100
0000
0100
1001
,
0010
0000
0000
0010
0100
0000
1000
0000
0010
0000
0000
0100
0001
0000
0010
0000
,
0100
0000
0000
0100
0010
0000
0100
0000
0010
0000
0000
1000
0010
0000
0001
1100
,
0010
0000
0000
0010
0100
0000
0001
0000
0100
0000
0000
0100
0010
0000
0001
0000
,
0100
0000
0000
0100
1000
0000
0001
0000
0010
0000
0000
0010
0100
0000
0100
1001
,
0010
0000
0000
0010
0100
0000
1000
0000
0010
0000
0000
0100
0001
0000
0010
0000
,
0100
0000
0000
0100
0010
0000
0100
0000
0010
0000
0000
0000
0020
0230
0302
2003
,
3022
2233
3300
2202
3303
0000
0222
0333
2202
3303
0000
2202
3303
0000
2022
3033
,
0220
0330
0000
0010
0100
0000
0001
0000
0100
0000
0000
0100
0010
0000
0101
0010
,
2002
0000
3003
0100
0001
0000
0001
0000
0010
0000
0000
0010
0100
0000
0100
1001
,
0010
0000
0000
0010
0100
0000
1000
0000
0010
0000
0000
0100
0002
2003
3020
0030
,
0202
2323
3030
0222
0333
0000
2202
3303
0222
0333
0000
2202
3303
0000
2202
3303
,
2020
3030
0000
0010
0100
0000
0001
0000
0100
0000
0000
0100
0010
0000
0101
0010
,
2002
0000
3003
0100
0001
0000
0001
0000
0010
0000
0000
0010
0100
0000
0100
0001
,
0010
0000
0000
0010
0100
0000
1000
0000
0010
0000
0000
0100
0002
2003
3020
0030
,
2200
3322
0033
2022
3033
0000
2202
3303
0222
0333
0000
2022
3033
0000
2202
0000
,
3303
0000
0000
0100
1000
0000
0001
0000
0010
0000
0000
0010
0100
0000
0100
0000
,
2222
0000
3333
0010
0100
0000
0001
0000
0010
0000
0000
0010
0100
0000
0100
1001
,
0010
0000
0000
0010
0100
0000
1000
0000
0010
0000
0000
0100
0002
2003
3020
0030
,
2200
3322
0033
2022
3033
0000
2202
3303
0222
0333
0000
2202
3303
0000
0222
0333
,
2020
3030
0000
0100
0001
0000
0001
0000
0010
0000
0000
0010
0100
0000
0100
0001
,
2020
0000
3030
0001
0100
0000
0001
0000
0010
0000
0000
0010
0100
0000
0100
0001
,
0010
0000
0000
0010
0100
0000
1000
0000
0010
0000
0000
0100
0002
2003
3020
0030
,
2202
3323
0030
2022
3033
0000
2202
3303
2202
3303
0000
2222
3333
0000
2222
3333
,
2020
3032
0003
2202
3303
0000
2022
3033
2202
3303
0000
2222
3333
0000
2222
3333
,
2002
3203
0300
2022
3033
0000
2220
3330
0222
0333
0000
2222
3333
0000
2222
3333
,
0222
2333
3000
2202
3303
0000
0222
0333
2022
3233
0300
0220
0332
2003
3020
0030
,
2202
3323
0030
2022
3033
0000
2202
3303
2202
3303
0000
2222
3333
0000
2222
3333
,
2020
3032
0003
2202
3303
0000
2022
3033
2202
3303
0000
2222
3333
0000
2222
3333
,
2002
3203
0300
2022
3033
0000
2220
3330
0222
0333
0000
2222
3333
0000
2222
3333
,
0222
2333
3000
2202
3303
0000
0222
0333
2022
3233
0300
0220
0332
2003
3020
0030
,
2202
3323
0030
2022
3033
0000
2202
3303
2202
3303
0000
2222
3333
0000
2222
3333
,
2020
3032
0003
2202
3303
0000
2022
3033
2202
3303
0000
2222
3333
0000
2222
3333
,
2002
3203
0300
2022
3033
0000
2220
3330
0222
0333
0000
2222
3333
0000
2222
3333
,
0222
2333
3000
2202
3303
0000
0222
0333
2022
3233
0300
0220
0332
2003
3020
0030
,
2202
3323
0030
2022
3033
0000
2202
3303
2202
3323
0030
2202
3303
0000
2222
3333
,
2020
3032
0003
2202
3303
0000
2022
3033
2202
3323
0030
2222
3333
0000
2222
3333
,
2002
3203
0300
2022
3033
0000
2220
3330
0222
2333
3000
2202
3303
0000
2222
3333
,
0222
2333
3000
2202
3303
0000
0222
0333
2022
3233
0300
0220
0000
0000
2332
3003
,
1111
0000
0000
0000
,
0000
0000
0000
0000
0000
0000
0000
0000
0000
0000
0000
0000
1000
0001
1000
0000
,
0101
0010
0100
1000
0111
1000
0001
0100
0011
1000
0001
1000
0111
1000
0001
0100
,
1010
0100
0010
0001
1110
0001
0010
0100
1001
0010
0001
1000
0111
1000
0100
1000
,
0110
0001
1000
0001
1110
0001
0100
0001
1100
0010
0001
0010
1101
0010
0100
0010
,
1100
1011
0000
1111
0000
1101
1001
0000
0101
1011
0000
1111
0000
1101
1010
0000
,
0011
0100
0010
0001
1110
0001
0100
0010
1001
0010
0100
0010
1101
0010
0001
0100
,
0011
0100
1000
0100
1011
0100
0010
0100
1010
0100
0001
1000
0111
1000
0010
1000
,
0011
0100
1000
0100
1011
0100
0001
0100
0011
0100
0001
0010
1101
0010
0100
1000
,
0011
1101
0000
1111
0000
1011
1010
0000
0101
1110
0000
1111
0000
0111
1001
0000
,
0101
0010
0100
1000
0111
1000
0001
0100
0011
1000
0001
1000
0111
1000
0001
0100
,
1010
0100
0010
0001
1110
0001
0010
0100
1001
0010
0001
1000
0111
1000
0100
1000
,
0110
0001
1000
0001
1110
0001
0100
0001
1100
0010
0001
0010
1101
0010
0100
0010
,
1100
1011
0000
1111
0000
1101
1001
0000
0101
1011
0000
1111
0000
1101
1010
0000
,
0011
0100
0010
0001
1110
0001
0100
0010
1001
0010
0100
0010
1101
0010
0001
0100
,
0011
0100
1000
0100
1011
0100
0010
0100
1010
0100
0001
1000
0111
1000
0010
1000
,
0011
0100
1000
0100
1011
0100
0001
0100
0011
0100
0001
0010
1101
0010
0100
1000
,
0011
1101
0000
1111
0000
1011
1010
0000
0101
1110
0000
1111
0000
0111
1001
0000
,
0101
0010
0100
1000
0111
1000
0001
0100
0011
1000
0001
1000
0111
1000
0001
0100
,
1010
0100
0010
0001
1110
0001
0010
0100
1001
0010
0001
1000
0111
1000
0100
1000
,
0110
0001
1000
0001
1110
0001
0100
0001
1100
0010
0001
0010
1101
0010
0100
0010
,
1100
1011
0000
1111
0000
1101
1001
0000
0101
1011
0000
1111
0000
1101
1010
0000
,
0011
0100
0010
0001
1110
0001
0100
0010
1001
0010
0100
0010
1101
0010
0001
0100
,
0011
0100
1000
0100
1011
0100
0010
0100
1010
0100
0001
1000
0111
1000
0010
1000
,
0011
0100
1000
0100
1011
0100
0001
0100
0011
0100
0001
0010
1101
0010
0100
1000
,
0011
1101
0000
1111
0000
1011
1010
0000
0101
1110
0000
1111
0000
0111
1001
0000
,
0100
0000
0000
0100
0000
0000
0100
0000
0000
0100
0000
0000
0100
0000
0100
0001
,
0100
0010
1000
0010
0101
1000
0010
0001
0100
0001
1000
0001
0110
1000
0001
1000
,
0010
0001
0100
0010
1001
0010
0100
1000
0001
1000
0010
0001
1100
0001
0010
0100
,
0001
0100
1000
0010
0101
1000
0010
0001
1000
0100
0001
0100
1001
0010
0001
0010
,
1100
0000
0110
0101
0000
1010
1100
0000
0011
0101
0000
0000
1111
0000
0010
0001
,
0100
0001
1000
0001
0110
1000
0001
1000
0010
1000
0100
0010
1001
0010
0100
1000
,
0001
0100
0010
0001
1100
0001
0010
1000
0001
0100
1000
0010
0101
1000
0010
0001
,
1000
0100
0001
0100
1010
0001
0100
1000
0010
0100
0001
0010
1100
0001
0010
0001
,
0100
0000
0000
0100
0000
0000
0100
0000
0000
0100
0000
0000
0100
0000
0100
0001
,
0100
0010
1000
0010
0101
1000
0010
0001
0100
0001
1000
0001
0110
1000
0001
1000
,
0010
0001
0100
0010
1001
0010
0100
1000
0001
1000
0010
0001
1100
0001
0010
0100
,
0001
0100
1000
0010
0101
1000
0010
0001
1000
0100
0001
0100
1001
0010
0001
0010
,
1100
0000
0110
0101
0000
1010
1100
0000
0011
0101
0000
0000
1111
0000
0010
0001
,
0100
0001
1000
0001
0110
1000
0001
1000
0010
1000
0100
0010
1001
0010
0100
1000
,
0001
0100
0010
0001
1100
0001
0010
1000
0001
0100
1000
0010
0101
1000
0010
0001
,
1000
0100
0001
0100
1010
0001
0100
1000
0010
0100
0001
0010
1100
0001
0010
1000
,
0101
0000
0000
0101
0000
0000
0110
0000
0000
1100
0000
0000
0100
0000
1100
0001
,
1100
0010
1001
0010
0101
0000
0011
1101
0000
0000
1001
0000
1110
0000
0101
0010
,
1001
0010
1100
0010
1001
0000
0110
1011
0000
0000
0110
0000
1101
0000
0110
0001
,
1010
0100
1001
0010
0101
0000
0011
1101
0000
0000
0101
0000
1101
0010
1001
0010
,
1100
0000
0011
1100
0000
1011
1110
0000
1011
1101
0000
0000
1101
0000
0011
1000
,
0110
0001
1100
0001
0110
0000
0101
1110
0000
0000
0110
0000
1011
0000
0101
1000
,
0011
1000
0110
0001
1100
0000
1010
0111
0000
0000
1010
0000
1101
0000
0011
0100
,
1001
0100
0011
0100
1010
0000
0101
1011
0000
0000
0011
0000
1101
0000
0011
1000
,
0101
0000
0000
0101
0000
0000
0110
0000
0000
1100
0000
0000
0100
0000
1100
0001
,
1100
0010
1001
0010
0101
0000
0011
1101
0000
0000
1001
0000
1110
0000
0101
0010
,
1001
0010
1100
0010
1001
0000
0110
1011
0000
0000
0110
0000
1101
0000
0110
0001
,
1010
0100
1001
0010
0101
0000
0011
1101
0000
0000
0101
0000
1101
0010
1001
0010
,
1100
0000
0011
1100
0000
1011
1110
0000
1011
1101
0000
0000
1101
0000
0011
1000
,
0110
0001
1100
0001
0110
0000
0101
1110
0000
0000
0110
0000
1011
0000
0101
1000
,
0011
1000
0110
0001
1100
0000
1010
0111
0000
0000
1010
0000
1101
0000
0011
0100
,
1001
0100
0011
0100
1010
0000
0101
1011
0000
0000
0011
0000
1101
0000
0011
1000
,
0101
0000
0000
0101
0000
0000
0110
0000
0000
1100
0000
0000
0100
0000
1100
0001
,
1100
0010
1001
0010
0101
0000
0011
1101
0000
0000
1001
0000
1110
0000
0101
0010
,
1001
0010
1100
0010
1001
0000
0110
1011
0000
0000
0110
0000
1101
0000
0110
0001
,
1010
0100
1001
0010
0101
0000
0011
1101
0000
0000
0101
0000
1101
0010
1001
0010
,
1100
0000
0011
1100
0000
1011
1110
0000
1011
1101
0000
0000
1101
0000
0011
1000
,
0110
0001
1100
0001
0110
0000
0101
1110
0000
0000
0110
0000
1011
0000
0101
1000
,
0011
1000
0110
0001
1100
0000
1010
0111
0000
0000
1010
0000
1101
0000
0011
0100
,
1001
0100
0011
0100
1010
0000
0101
1011
0000
0000
0011
0000
1101
0000
0011
1000
,
0220
0000
0000
0000
0330
0000
0000
0000
0000
0000
0000
0000
0002
2003
3020
0030
,
2202
3323
0030
2022
3033
0000
2202
3303
2202
3303
0000
2222
3333
0000
2222
3333
,
2020
3032
0003
2202
3303
0000
2022
3033
2202
3303
0000
2222
3333
0000
2222
3333
,
2002
3203
0300
2022
3033
0000
2220
3330
0222
0333
0000
2222
3333
0000
2222
3333
,
0222
2333
3000
2202
3303
0000
0222
0333
2022
3233
0300
0220
0332
2003
3020
0030
,
2202
3323
0030
2022
3033
0000
2202
3303
2202
3303
0000
2222
3333
0000
2222
3333
,
2020
3032
0003
2202
3303
0000
2022
3033
2202
3303
0000
2222
3333
0000
2222
3333
,
2002
3203
0300
2022
3033
0000
2220
3330
0222
0333
0000
2222
3333
0000
2222
3333
,
0222
2333
3000
2202
3303
0000
0222
0333
2022
3233
0300
0220
0332
2003
3020
0030
,
2202
3323
0030
2022
3033
0000
2202
3303
2202
3303
0000
2222
3333
0000
2222
3333
,
2020
3032
0003
2202
3303
0000
2022
3033
2202
3303
0000
2222
3333
0000
2222
3333
,
2002
3203
0300
2022
3033
0000
2220
3330
0222
0333
0000
2222
3333
0000
2222
3333
,
0222
2333
3000
2202
3303
0000
0222
0333
2022
3233
0300
0220
0332
2003
3020
0030
,
2202
3323
0030
2022
3033
0000
2202
3303
2202
3323
0030
2202
3303
0000
2222
3333
,
2020
3032
0003
2202
3303
0000
2022
3033
2202
3323
0030
2222
3333
0000
2222
3333
,
2002
3203
0300
2022
3033
0000
2220
3330
0222
2333
3000
2202
3303
0000
2222
3333
,
0222
2333
3000
2202
3303
0000
0222
0333
2022
3233
0300
0220
0000
0000
2332
0000
,
3003
0000
0000
0000
,
0000
0000
0000
0000
0000
0000
0000
0000
0000
0000
0000
0000
1000
0001
1000
0000
,
0101
0010
0100
1000
0111
1000
0001
0100
0011
1000
0001
1000
0111
1000
0001
0100
,
1010
0100
0010
0001
1110
0001
0010
0100
1001
0010
0001
1000
0111
1000
0100
1000
,
0110
0001
1000
0001
1110
0001
0100
0001
1100
0010
0001
0010
1101
0010
0100
0010
,
1100
1011
0000
1111
0000
1101
1001
0000
0101
1011
0000
1111
0000
1101
1010
0000
,
0011
0100
0010
0001
1110
0001
0100
0010
1001
0010
0100
0010
1101
0010
0001
0100
,
0011
0100
1000
0100
1011
0100
0010
0100
1010
0100
0001
1000
0111
1000
0010
1000
,
0011
0100
1000
0100
1011
0100
0001
0100
0011
0100
0001
0010
1101
0010
0100
1000
,
0011
1101
0000
1111
0000
1011
1010
0000
0101
1110
0000
1111
0000
0111
1001
0000
,
0101
0010
0100
1000
0111
1000
0001
0100
0011
1000
0001
1000
0111
1000
0001
0100
,
1010
0100
0010
0001
1110
0001
0010
0100
1001
0010
0001
1000
0111
1000
0100
1000
,
0110
0001
1000
0001
1110
0001
0100
0001
1100
0010
0001
0010
1101
0010
0100
0010
,
1100
1011
0000
1111
0000
1101
1001
0000
0101
1011
0000
1111
0000
1101
1010
0000
,
0011
0100
0010
0001
1110
0001
0100
0010
1001
0010
0100
0010
1101
0010
0001
0100
,
0011
0100
1000
0100
1011
0100
0010
0100
1010
0100
0001
1000
0111
1000
0010
1000
,
0011
0100
1000
0100
1011
0100
0001
0100
0011
0100
0001
0010
1101
0010
0100
1000
,
0011
1101
0000
1111
0000
1011
1010
0000
0101
1110
0000
1111
0000
0111
1001
0000
,
0101
0010
0100
1000
0111
1000
0001
0100
0011
1000
0001
1000
0111
1000
0001
0100
,
1010
0100
0010
0001
1110
0001
0010
0100
1001
0010
0001
1000
0111
1000
0100
1000
,
0110
0001
1000
0001
1110
0001
0100
0001
1100
0010
0001
0010
1101
0010
0100
0010
,
1100
1011
0000
1111
0000
1101
1001
0000
0101
1011
0000
1111
0000
1101
1010
0000
,
0011
0100
0010
0001
1110
0001
0100
0010
1001
0010
0100
0010
1101
0010
0001
0100
,
0011
0100
1000
0100
1011
0100
0010
0100
1010
0100
0001
1000
0111
1000
0010
1000
,
0011
0100
1000
0100
1011
0100
0001
0100
0011
0100
0001
0010
1101
0010
0100
1000
,
0011
1101
0000
1111
0000
1011
1010
0000
0101
1110
0000
1111
0000
0111
1001
0000
,
1100
0010
0001
0000
1011
0000
0100
0010
0001
0000
0110
0000
1011
0000
0100
0010
,
0101
0010
0001
0000
1110
0000
0100
0001
0100
0000
1010
0000
1101
0000
0001
0010
,
1100
0010
0100
0000
0111
0000
0100
1000
0100
0000
0101
0000
1101
0000
0001
0100
,
1001
0010
0100
0000
1110
0000
0100
0010
0001
0000
0110
0000
1011
0000
0100
0010
,
0101
0010
0001
0000
1110
0000
0100
0001
0100
0000
1010
0000
1101
0000
0001
0010
,
1100
0010
0100
0000
0111
0000
0100
1000
0100
0000
0101
0000
1101
0000
0001
0100
,
1001
0010
0100
0000
1110
0000
0100
0010
0001
0000
0110
0000
1011
0000
0100
0010
,
0100
0010
0001
0000
1100
0000
0100
0001
0100
0000
0010
0000
1001
0000
0001
0010
,
1000
0010
0100
0000
0011
0000
0000
1000
0000
0000
0010
0000
0000
0000
0000
0100
,
0001
0010
0100
0000
1010
0000
0000
0010
0001
0000
0100
0000
0000
0000
0000
1000
,
0001
0100
0001
0000
1100
0000
0000
1000
0001
0000
0010
0000
0000
0000
0000
1000
,
0001
0100
0001
0000
0110
0000
0000
0001
0010
0000
1000
0000
0000
0000
0000
0010
,
0001
1000
0001
0000
0101
0000
0000
0100
0010
0000
1000
0000
0000
0000
0000
0100
,
0001
0010
0100
0000
1010
0000
0000
0010
0001
0000
0100
0000
0000
0000
0000
1000
,
0001
0100
0001
0000
1100
0000
0000
1000
0001
0000
0010
0000
0000
0000
0000
1000
,
0001
0100
0001
0000
0110
0000
0000
0001
0010
0000
1000
0000
0000
0000
0000
0010
,
1001
0000
0100
0001
1010
0000
0001
0100
1010
0000
0100
0010
0101
0000
0010
0100
,
1001
0000
0001
1000
0110
0000
1000
0010
0101
0000
0010
0001
1100
0000
0010
0100
,
1001
0000
0100
1000
0011
0000
0010
0100
1001
0000
0100
1000
0011
0000
1000
0010
,
0101
0000
0010
0100
1001
0000
0010
0001
1100
0000
0010
1000
0101
0000
0010
1000
,
0101
0000
0100
0001
1010
0000
0001
0100
1010
0000
0100
0010
0101
0000
0010
0100
,
1001
0000
0001
1000
0110
0000
1000
0010
0101
0000
0010
0001
1100
0000
0010
0100
,
1001
0000
0100
1000
0011
0000
0010
0100
1001
0000
0100
1000
0011
0000
1000
0010
,
0101
0000
0010
0100
1001
0000
0010
0001
1100
0000
0010
1000
0101
0000
0010
1000
,
0101
0000
0100
0001
1010
0000
0001
0100
1010
0000
0100
0010
0101
0000
0010
0100
,
1001
0000
0001
1000
0110
0000
1000
0010
0101
0000
0010
0001
1100
0000
0010
0100
,
1001
0000
0100
1000
0011
0000
0010
0100
1001
0000
0100
1000
0011
0000
1000
0010
,
0101
0000
0010
0100
1001
0000
0010
0001
1100
0000
0010
1000
0101
0000
0010
1000
,
0101
0000
0100
0001
1010
0000
0001
0100
1010
0000
0100
0010
0101
0000
0010
0100
,
1001
0000
0001
1000
0110
0000
1000
0010
0101
0000
0010
0001
1100
0000
0010
0100
,
1001
0000
0100
1000
0011
0000
0010
0100
1001
0000
0100
1000
0011
0000
1000
0010
,
0101
0000
0010
0100
1001
0000
0010
0001
1100
0000
0010
1000
0101
0000
0010
1000
,
2222
0000
0000
3333
;

//---------------dance-single - Copied from Copied f----------------
#NOTES:
     dance-single:
     Copied from Copied f:
     Edit:
     15:
     1.000,1.000,1.000,1.000,1.000,2991.000,1695.000,773.000,0.000,689.000:
0000
0000
0000
0000
,
0000
0000
0000
0000
,
0000
0000
0000
0000
,
0000
0000
0000
0000
,
1000
0000
0001
0010
1000
0000
0010
0001
0000
0000
0100
0000
1000
0000
0100
0000
,
0001
0000
0010
0001
0100
0000
1000
0010
0000
0000
0100
0000
1000
0000
0010
0000
,
0100
0000
0001
0010
0100
0000
1000
0010
0000
0000
0001
0000
0010
0000
0100
0000
,
1000
0000
0010
0001
0100
0000
0001
0010
0000
0000
0100
0000
1000
0000
0010
0000
,
0100
0000
0101
0010
1100
0000
1010
0001
1100
0000
1011
0000
0101
0000
0010
0000
,
1101
0000
0011
0100
1010
0000
0101
1000
0011
0000
1011
0000
0110
0000
0001
0000
,
1110
0000
0101
1000
0110
0000
0011
0100
1010
0000
1110
0000
0101
0000
0010
0000
,
1100
0000
1001
0100
0011
0000
1100
0001
0110
0000
0111
0000
0011
0000
1000
0000
,
0111
0000
0101
0010
1100
0000
1010
0001
1100
0000
1011
0000
0101
0000
0010
0000
,
1101
0000
0011
0100
1010
0000
0101
1000
0011
0000
1011
0000
0110
0000
0001
0000
,
1110
0000
0101
1000
0110
0000
0011
0100
1010
0000
1110
0000
0101
0000
0010
0000
,
1100
0000
1001
0100
0011
0000
1100
0001
0110
0000
0111
0000
0011
0100
1000
0100
,
0111
0000
0110
0001
1110
0000
1001
0100
1011
0000
1100
0010
1101
0000
0011
0100
,
1011
0000
0011
1000
0111
0000
1100
0010
1101
0000
1010
0001
1110
0000
0011
0100
,
1011
0000
0101
1000
0111
0000
1010
0100
1101
0000
0101
1000
0111
0000
1001
0010
,
1101
0000
0011
0100
1011
0000
0110
0001
1110
0000
0011
1000
0111
0000
0011
1000
,
0111
0000
0110
0001
1110
0000
1001
0100
1011
0000
1100
0010
1101
0000
0011
0100
,
1011
0000
0011
1000
0111
0000
1100
0010
1101
0000
1010
0001
1110
0000
0011
0100
,
1011
0000
0101
1000
0111
0000
1010
0100
1101
0000
0101
1000
0111
0000
1001
0010
,
1101
0000
0011
0100
1011
0000
0110
0001
1110
0000
0011
1000
0111
0000
0011
1000
,
0111
0000
0110
0001
1110
0000
1001
0100
1011
0000
1100
0010
1101
0000
0011
0100
,
1011
0000
0011
1000
0111
0000
1100
0010
1101
0000
1010
0001
1110
0000
0011
0100
,
1011
0000
0101
1000
0111
0000
1010
0100
1101
0000
0101
1000
0111
0000
1001
0010
,
1101
0000
0011
0100
1011
0000
0110
0001
1110
0000
0011
1000
0111
0000
0011
1000
,
0111
0000
0110
0001
1110
0000
1001
0100
1011
0000
1100
0010
1101
0000
0011
0100
,
1011
0000
0011
1000
0111
0000
1100
0010
1101
0000
1010
0001
1110
0000
0011
0100
,
1011
0000
0101
1000
0111
0000
1010
0100
1101
0000
0101
1000
0111
0000
1001
0010
,
1101
0000
0011
0100
1011
0000
0110
0001
1110
0000
0011
1000
0111
0000
0011
1000
,
0101
0010
1001
0000
1011
0000
1100
0010
0101
0000
0110
0000
1011
0000
1100
0010
,
0101
0010
1001
0000
1110
0000
0110
0001
0110
0000
1010
0000
1101
0000
0101
0010
,
1100
0010
0101
0000
0111
0000
0110
1000
0101
0000
0101
0000
1101
0000
1001
0100
,
1001
0010
0101
0000
1110
0000
1100
0010
0101
0000
0110
0000
1011
0000
1100
0010
,
0101
0010
0101
0000
1110
0000
0110
0001
1100
0000
1010
0000
1101
0000
0101
0010
,
1100
0010
0101
0000
0111
0000
0110
1000
0101
0000
0101
0000
1101
0000
0011
0100
,
1001
0010
1100
0000
1110
0000
1100
0010
0101
0000
0110
0000
1011
0000
1100
0010
,
0101
0010
0101
0000
1110
0000
0110
0001
0110
0000
1010
0000
1101
0000
1100
0010
,
0101
0010
1001
0000
1110
0000
0110
0001
0110
0000
1010
0000
1101
0000
0101
0010
,
1100
0010
0101
0000
0111
0000
0110
1000
0101
0000
0101
0000
1101
0000
1001
0100
,
1001
0010
0101
0000
1110
0000
1100
0010
0101
0000
0110
0000
1011
0000
1100
0010
,
0101
0010
0101
0000
1110
0000
0110
0001
1100
0000
1010
0000
1101
0000
0101
0010
,
1100
0010
0101
0000
0111
0000
0110
1000
0101
0000
0101
0000
1101
0000
0011
0100
,
1001
0010
1100
0000
1110
0000
1100
0010
0101
0000
0110
0000
1011
0000
1100
0010
,
0101
0010
0101
0000
1110
0000
0110
0001
0110
0000
1010
0000
1101
0000
0011
0100
,
1001
0000
0000
0010
0000
0000
0101
0000
0000
0000
0000
0000
1110
0000
0000
0000
0000
0000
1100
0000
0000
0010
0000
0000
0001
0000
0000
0000
0000
0000
0110
0000
0000
0000
0000
0000
1101
0000
0010
0000
0100
0000
1010
0000
0001
0000
0010
0000
,
1101
0000
1010
0101
0000
1001
0110
0000
1001
0000
0101
1110
0000
0011
1010
0000
,
1001
0100
0011
0100
1001
0010
1100
0001
1010
0001
0110
1000
0101
0010
1001
0100
,
0011
0100
1001
0100
0011
1000
0110
0001
0110
0001
1100
0001
1100
0010
0101
0010
,
1100
0010
1001
0100
1001
0100
1010
0001
1010
0100
0011
1000
0110
0001
1100
0010
,
0101
0000
1010
0101
0000
0011
1010
0000
0101
0000
0101
1110
0000
0110
1001
0000
,
1100
0001
1010
0100
1001
0100
0011
1000
0101
0010
0101
1000
0011
0100
1010
0001
,
0110
1000
0011
0100
1001
0010
1100
0010
0101
1000
0110
0001
1010
0001
1100
0010
,
0101
0000
0000
1000
0000
0000
0011
0000
0000
0100
0000
0000
1001
0000
0000
0010
0000
0000
0101
0000
0000
0010
0000
0000
1100
0000
0000
0010
0000
0000
0101
0000
0000
1000
0000
0000
0110
0000
0001
0000
0010
0000
0101
0000
0000
1000
0000
0000
,
0101
0010
0101
1000
0111
1000
0011
0100
0011
1000
0101
1000
0111
1000
0011
0100
,
1010
0100
1010
0001
1110
0001
1010
0100
1001
0010
0101
1000
0111
1000
0101
1000
,
0110
0001
1010
0001
1110
0001
0110
0001
1100
0010
1001
0010
1101
0010
0101
0010
,
1100
0001
1100
0111
0000
1101
1001
0000
0101
0000
0101
1110
0000
1101
1010
0000
,
0011
0100
1010
0001
1110
0001
1100
0010
1001
0010
0101
0010
1101
0010
1001
0100
,
0011
0100
1001
0100
1011
0100
0011
0100
1010
0100
0011
1000
0111
1000
0110
1000
,
0011
0100
1010
0100
1011
0100
1001
0100
0011
0100
1001
0010
1101
0010
0101
1000
,
0011
0100
1001
0111
0000
1011
1010
0000
0101
0000
1010
1110
0000
0111
1001
0000
,
0101
0010
0101
1000
0111
1000
0011
0100
0011
1000
0101
1000
0111
1000
0011
0100
,
1010
0100
1010
0001
1110
0001
1010
0100
1001
0010
0101
1000
0111
1000
0101
1000
,
0110
0001
1010
0001
1110
0001
0110
0001
1100
0010
1001
0010
1101
0010
0101
0010
,
1100
0001
1100
0111
0000
1101
1001
0000
0101
0000
0101
1110
0000
1101
1010
0000
,
0011
0100
1010
0001
1110
0001
1100
0010
1001
0010
0101
0010
1101
0010
1001
0100
,
0011
0100
1001
0100
1011
0100
0011
0100
1010
0100
0011
1000
0111
1000
0110
1000
,
0011
0100
1010
0100
1011
0100
1001
0100
0011
0100
1001
0010
1101
0010
0101
1000
,
0011
0100
1001
0111
0000
1011
1010
0000
0101
0000
1010
1110
0000
0111
1001
0000
,
0101
0010
0101
1000
0111
1000
0011
0100
0011
1000
0101
1000
0111
1000
0011
0100
,
1010
0100
1010
0001
1110
0001
1010
0100
1001
0010
0101
1000
0111
1000
0101
1000
,
0110
0001
1010
0001
1110
0001
0110
0001
1100
0010
1001
0010
1101
0010
0101
0010
,
1100
0001
1100
0111
0000
1101
1001
0000
0101
0000
0101
1110
0000
1101
1010
0000
,
0011
0100
1010
0001
1110
0001
1100
0010
1001
0010
0101
0010
1101
0010
1001
0100
,
0011
0100
1001
0100
1011
0100
0011
0100
1010
0100
0011
1000
0111
1000
0110
1000
,
0011
0100
1010
0100
1011
0100
1001
0100
0011
0100
1001
0010
1101
0010
0101
1000
,
0011
0000
0000
0100
0000
0000
1001
0000
0000
0100
0000
0000
0011
0000
0000
1000
0000
0000
0101
0000
0000
0010
0000
0000
0101
0000
0000
1000
0000
0000
0011
0000
0000
0100
0000
0000
1010
0000
0000
0100
0000
0000
0011
0000
1000
0000
0010
0000
,
1101
0000
0000
1101
0000
0000
1101
0000
0000
0000
0000
0100
0000
0000
0002
0000
,
0003
0000
0000
0100
0000
0000
0002
0000
0003
0000
0000
0100
0000
0000
0002
0000
,
0003
0000
0000
0100
0000
0000
0002
0000
0003
0000
0000
0100
0000
0000
0002
0000
,
0003
0000
0000
0100
0000
0000
0002
0000
0003
0000
0000
0100
0000
0000
0002
0000
,
0003
0000
0000
0100
0000
0000
0002
0000
0003
0000
0000
0100
0000
0000
0002
0000
,
0003
0000
0000
0100
0000
0000
0002
0000
0003
0000
0000
0100
0000
0000
0002
0000
,
0003
0000
0000
0100
0000
0000
0002
0000
0003
0000
0000
0100
0000
0000
0002
0000
,
0003
0000
0000
0100
0000
0000
0002
0000
0003
0000
0000
0100
0000
0000
0002
0000
,
0103
0000
0000
0010
0100
0000
0001
0000
0100
0000
0000
0100
0010
0000
0001
0000
,
0100
0000
0000
0100
1000
0000
0001
0000
0010
0000
0000
0010
0100
0000
0100
1001
,
0010
0000
0000
0010
0100
0000
1000
0000
0010
0000
0000
0100
0001
0000
0010
0000
,
0100
0000
0000
0100
0010
0000
0100
0000
0010
0000
0000
1000
0010
0000
0001
1100
,
0010
0000
0000
0010
0100
0000
0001
0000
0100
0000
0000
0100
0010
0000
0001
0000
,
0100
0000
0000
0100
1000
0000
0001
0000
0010
0000
0000
0010
0100
0000
0100
1001
,
0010
0000
0000
0010
0100
0000
1000
0000
0010
0000
0000
0100
0001
0000
0010
0000
,
0100
0000
0000
0100
0010
0000
0100
0000
0010
0000
0000
0000
0020
0230
0302
2003
,
3022
2233
3300
2202
3303
0000
0222
0333
2202
3303
0000
2202
3303
0000
2022
3033
,
0220
0330
0000
0010
0100
0000
0001
0000
0100
0000
0000
0100
0010
0000
0101
0010
,
2002
0000
3003
0100
0001
0000
0001
0000
0010
0000
0000
0010
0100
0000
0100
1001
,
0010
0000
0000
0010
0100
0000
1000
0000
0010
0000
0000
0100
0002
2003
3020
0030
,
0202
2323
3030
0222
0333
0000
2202
3303
0222
0333
0000
2202
3303
0000
2202
3303
,
2020
3030
0000
0010
0100
0000
0001
0000
0100
0000
0000
0100
0010
0000
0101
0010
,
2002
0000
3003
0100
0001
0000
0001
0000
0010
0000
0000
0010
0100
0000
0100
0001
,
0010
0000
0000
0010
0100
0000
1000
0000
0010
0000
0000
0100
0002
2003
3020
0030
,
2200
3322
0033
2022
3033
0000
2202
3303
0222
0333
0000
2022
3033
0000
2202
0000
,
3303
0000
0000
0100
1000
0000
0001
0000
0010
0000
0000
0010
0100
0000
0100
0000
,
2222
0000
3333
0010
0100
0000
0001
0000
0010
0000
0000
0010
0100
0000
0100
1001
,
0010
0000
0000
0010
0100
0000
1000
0000
0010
0000
0000
0100
0002
2003
3020
0030
,
2200
3322
0033
2022
3033
0000
2202
3303
0222
0333
0000
2202
3303
0000
0222
0333
,
2020
3030
0000
0100
0001
0000
0001
0000
0010
0000
0000
0010
0100
0000
0100
0001
,
2020
0000
3030
0001
0100
0000
0001
0000
0010
0000
0000
0010
0100
0000
0100
0001
,
0010
0000
0000
0010
0100
0000
1000
0000
0010
0000
0000
0100
0002
2003
3020
0030
,
2202
3323
0030
2022
3033
0000
2202
3303
2202
3303
0000
2222
3333
0000
2222
3333
,
2020
3032
0003
2202
3303
0000
2022
3033
2202
3303
0000
2222
3333
0000
2222
3333
,
2002
3203
0300
2022
3033
0000
2220
3330
0222
0333
0000
2222
3333
0000
2222
3333
,
0222
2333
3000
2202
3303
0000
0222
0333
2022
3233
0300
0220
0332
2003
3020
0030
,
2202
3323
0030
2022
3033
0000
2202
3303
2202
3303
0000
2222
3333
0000
2222
3333
,
2020
3032
0003
2202
3303
0000
2022
3033
2202
3303
0000
2222
3333
0000
2222
3333
,
2002
3203
0300
2022
3033
0000
2220
3330
0222
0333
0000
2222
3333
0000
2222
3333
,
0222
2333
3000
2202
3303
0000
0222
0333
2022
3233
0300
0220
0332
2003
3020
0030
,
2202
3323
0030
2022
3033
0000
2202
3303
2202
3303
0000
2222
3333
0000
2222
3333
,
2020
3032
0003
2202
3303
0000
2022
3033
2202
3303
0000
2222
3333
0000
2222
3333
,
2002
3203
0300
2022
3033
0000
2220
3330
0222
0333
0000
2222
3333
0000
2222
3333
,
0222
2333
3000
2202
3303
0000
0222
0333
2022
3233
0300
0220
0332
2003
3020
0030
,
2202
3323
0030
2022
3033
0000
2202
3303
2202
3323
0030
2202
3303
0000
2222
3333
,
2020
3032
0003
2202
3303
0000
2022
3033
2202
3323
0030
2222
3333
0000
2222
3333
,
2002
3203
0300
2022
3033
0000
2220
3330
0222
2333
3000
2202
3303
0000
2222
3333
,
0222
2333
3000
2202
3303
0000
0222
0333
2022
3233
0300
0220
0000
0000
2332
3003
,
1111
0000
0000
0000
,
0000
0000
0000
0000
0000
0000
0000
0000
0000
0000
0000
0000
1000
0001
1000
0000
,
0101
0010
0101
1000
0111
1000
0011
0100
0011
1000
0101
1000
0111
1000
0011
0100
,
1010
0100
1010
0001
1110
0001
1010
0100
1001
0010
0101
1000
0111
1000
0101
1000
,
0110
0001
1010
0001
1110
0001
0110
0001
1100
0010
1001
0010
1101
0010
0101
0010
,
1100
0001
1100
0111
0000
1101
1001
0000
0101
0000
0101
1110
0000
1101
1010
0000
,
0011
0100
1010
0001
1110
0001
1100
0010
1001
0010
0101
0010
1101
0010
1001
0100
,
0011
0100
1001
0100
1011
0100
0011
0100
1010
0100
0011
1000
0111
1000
0110
1000
,
0011
0100
1010
0100
1011
0100
1001
0100
0011
0100
1001
0010
1101
0010
0101
1000
,
0011
0100
1001
0111
0000
1011
1010
0000
0101
0000
1010
1110
0000
0111
1001
0000
,
0101
0010
0101
1000
0111
1000
0011
0100
0011
1000
0101
1000
0111
1000
0011
0100
,
1010
0100
1010
0001
1110
0001
1010
0100
1001
0010
0101
1000
0111
1000
0101
1000
,
0110
0001
1010
0001
1110
0001
0110
0001
1100
0010
1001
0010
1101
0010
0101
0010
,
1100
0001
1100
0111
0000
1101
1001
0000
0101
0000
0101
1110
0000
1101
1010
0000
,
0011
0100
1010
0001
1110
0001
1100
0010
1001
0010
0101
0010
1101
0010
1001
0100
,
0011
0100
1001
0100
1011
0100
0011
0100
1010
0100
0011
1000
0111
1000
0110
1000
,
0011
0100
1010
0100
1011
0100
1001
0100
0011
0100
1001
0010
1101
0010
0101
1000
,
0011
0100
1001
0111
0000
1011
1010
0000
0101
0000
1010
1110
0000
0111
1001
0000
,
0101
0010
0101
1000
0111
1000
0011
0100
0011
1000
0101
1000
0111
1000
0011
0100
,
1010
0100
1010
0001
1110
0001
1010
0100
1001
0010
0101
1000
0111
1000
0101
1000
,
0110
0001
1010
0001
1110
0001
0110
0001
1100
0010
1001
0010
1101
0010
0101
0010
,
1100
0001
1100
0111
0000
1101
1001
0000
0101
0000
0101
1110
0000
1101
1010
0000
,
0011
0100
1010
0001
1110
0001
1100
0010
1001
0010
0101
0010
1101
0010
1001
0100
,
0011
0100
1001
0100
1011
0100
0011
0100
1010
0100
0011
1000
0111
1000
0110
1000
,
0011
0100
1010
0100
1011
0100
1001
0100
0011
0100
1001
0010
1101
0010
0101
1000
,
0011
0100
1001
0111
0000
1011
1010
0000
0101
0000
1010
1110
0000
0111
1001
0000
,
0100
0000
0000
0100
0000
0000
0100
0000
0000
0100
0000
0000
0100
0000
1100
0001
,
1100
0010
1001
0010
0101
1000
0110
0001
1100
0001
1010
0001
0110
1000
0101
1000
,
0110
0001
1100
0010
1001
0010
0101
1000
0011
1000
0110
0001
1100
0001
1010
0100
,
1001
0100
1001
0010
0101
1000
0110
0001
1010
0100
0011
0100
1010
1010
1011
0101
,
1100
0000
0110
0101
0000
1010
1100
0000
0011
0101
0000
0000
1111
0000
1010
0001
,
0110
0001
1010
0001
0110
1000
0011
1000
0110
1000
0101
0010
1001
0010
0101
1000
,
0011
0100
1010
0001
1100
0001
0110
1000
0011
0100
1001
0010
0101
1000
0110
0001
,
1010
0100
0011
0100
1010
0001
0110
1000
0011
0100
1001
0010
1100
0001
0110
0001
,
1110
0000
0000
0100
0000
0000
0100
0000
0000
0100
0000
0000
0100
0000
1100
0001
,
1100
0010
1001
0010
0101
1000
0110
0001
1100
0001
1010
0001
0110
1000
0101
1000
,
0110
0001
1100
0010
1001
0010
0101
1000
0011
1000
0110
0001
1100
0001
1010
0100
,
1001
0100
1001
0010
0101
1000
0110
0001
1010
0100
0011
0100
1010
1010
1011
0101
,
1100
0000
0110
0101
0000
1010
1100
0000
0011
0101
0000
0000
1111
0000
1010
0001
,
0110
0001
1010
0001
0110
1000
0011
1000
0110
1000
0101
0010
1001
0010
0101
1000
,
0011
0100
1010
0001
1100
0001
0110
1000
0011
0100
1001
0010
0101
1000
0110
0001
,
1010
0100
0011
0100
1010
0001
0110
1000
0011
0100
1001
0010
1100
0001
0110
0001
,
1110
0000
0000
0101
0000
0000
0110
0000
0000
1100
0000
0000
0100
0000
1100
0001
,
1100
0010
1001
0010
1101
0000
0011
1101
0000
0000
1001
0000
1110
0000
0101
0010
,
1001
0010
1100
0010
1101
0000
0110
1011
0000
0000
0110
0000
1101
0000
0110
0001
,
1010
0100
1001
0010
1101
0000
0011
1101
0000
0000
0101
0000
1101
0010
1001
0010
,
1101
0000
0011
1100
0000
1011
1110
0000
1011
1101
0000
0000
1101
0000
0011
1000
,
0110
0001
1100
0001
1110
0000
0101
1110
0000
0000
0110
0000
1011
0000
0101
1000
,
0011
1000
0110
0001
1110
0000
1010
0111
0000
0000
1010
0000
1101
0000
0011
0100
,
1001
0100
0011
0100
1011
0000
0101
1011
0000
0000
0011
0000
1101
0000
0011
1000
,
0101
0000
0000
0101
0000
0000
0110
0000
0000
1100
0000
0000
0100
0000
1100
0001
,
1100
0010
1001
0010
1101
0000
0011
1101
0000
0000
1001
0000
1110
0000
0101
0010
,
1001
0010
1100
0010
1101
0000
0110
1011
0000
0000
0110
0000
1101
0000
0110
0001
,
1010
0100
1001
0010
1101
0000
0011
1101
0000
0000
0101
0000
1101
0010
1001
0010
,
1101
0000
0011
1100
0000
1011
1110
0000
1011
1101
0000
0000
1101
0000
0011
1000
,
0110
0001
1100
0001
1110
0000
0101
1110
0000
0000
0110
0000
1011
0000
0101
1000
,
0011
1000
0110
0001
1110
0000
1010
0111
0000
0000
1010
0000
1101
0000
0011
0100
,
1001
0100
0011
0100
1011
0000
0101
1011
0000
0000
0011
0000
1101
0000
0011
1000
,
0101
0000
0000
0101
0000
0000
0110
0000
0000
1100
0000
0000
0100
0000
1100
0001
,
1100
0010
1001
0010
1101
0000
0011
1101
0000
0000
1001
0000
1110
0000
0101
0010
,
1001
0010
1100
0010
1101
0000
0110
1011
0000
0000
0110
0000
1101
0000
0110
0001
,
1010
0100
1001
0010
1101
0000
0011
1101
0000
0000
0101
0000
1101
0010
1001
0010
,
1101
0000
0011
1100
0000
1011
1110
0000
1011
1101
0000
0000
1101
0000
0011
1000
,
0110
0001
1100
0001
1110
0000
0101
1110
0000
0000
0110
0000
1011
0000
0101
1000
,
0011
1000
0110
0001
1110
0000
1010
0111
0000
0000
1010
0000
1101
0000
0011
0100
,
1001
0100
0011
0100
1011
0000
0101
1011
0000
0000
0011
0000
1101
0000
0011
0000
,
0222
0000
0000
0000
0333
0000
0000
0000
0000
0000
0000
0000
0002
2003
3020
0030
,
2202
3323
0030
2022
3033
0000
2202
3303
2202
3303
0000
2222
3333
0000
2222
3333
,
2020
3032
0003
2202
3303
0000
2022
3033
2202
3303
0000
2222
3333
0000
2222
3333
,
2002
3203
0300
2022
3033
0000
2220
3330
0222
0333
0000
2222
3333
0000
2222
3333
,
0222
2333
3000
2202
3303
0000
0222
0333
2022
3233
0300
0220
0332
2003
3020
0030
,
2202
3323
0030
2022
3033
0000
2202
3303
2202
3303
0000
2222
3333
0000
2222
3333
,
2020
3032
0003
2202
3303
0000
2022
3033
2202
3303
0000
2222
3333
0000
2222
3333
,
2002
3203
0300
2022
3033
0000
2220
3330
0222
0333
0000
2222
3333
0000
2222
3333
,
0222
2333
3000
2202
3303
0000
0222
0333
2022
3233
0300
0220
0332
2003
3020
0030
,
2202
3323
0030
2022
3033
0000
2202
3303
2202
3303
0000
2222
3333
0000
2222
3333
,
2020
3032
0003
2202
3303
0000
2022
3033
2202
3303
0000
2222
3333
0000
2222
3333
,
2002
3203
0300
2022
3033
0000
2220
3330
0222
0333
0000
2222
3333
0000
2222
3333
,
0222
2333
3000
2202
3303
0000
0222
0333
2022
3233
0300
0220
0332
2003
3020
0030
,
2202
3323
0030
2022
3033
0000
2202
3303
2202
3323
0030
2202
3303
0000
2222
3333
,
2020
3032
0003
2202
3303
0000
2022
3033
2202
3323
0030
2222
3333
0000
2222
3333
,
2002
3203
0300
2022
3033
0000
2220
3330
0222
2333
3000
2202
3303
0000
2222
3333
,
0222
2333
3000
2202
3303
0000
0222
0333
2022
3233
0300
0220
0000
0000
2332
0000
,
3003
0000
0000
0000
,
0000
0000
0000
0000
0000
0000
0000
0000
0000
0000
0000
0000
1000
0001
1000
0000
,
0101
0010
0101
1000
0111
1000
0011
0100
0011
1000
0101
1000
0111
1000
0011
0100
,
1010
0100
1010
0001
1110
0001
1010
0100
1001
0010
0101
1000
0111
1000
0101
1000
,
0110
0001
1010
0001
1110
0001
0110
0001
1100
0010
1001
0010
1101
0010
0101
0010
,
1100
0001
1100
0111
0000
1101
1001
0000
0101
0000
0101
1110
0000
1101
1010
0000
,
0011
0100
1010
0001
1110
0001
1100
0010
1001
0010
0101
0010
1101
0010
1001
0100
,
0011
0100
1001
0100
1011
0100
0011
0100
1010
0100
0011
1000
0111
1000
0110
1000
,
0011
0100
1010
0100
1011
0100
1001
0100
0011
0100
1001
0010
1101
0010
0101
1000
,
0011
0100
1001
0111
0000
1011
1010
0000
0101
0000
1010
1110
0000
0111
1001
0000
,
0101
0010
0101
1000
0111
1000
0011
0100
0011
1000
0101
1000
0111
1000
0011
0100
,
1010
0100
1010
0001
1110
0001
1010
0100
1001
0010
0101
1000
0111
1000
0101
1000
,
0110
0001
1010
0001
1110
0001
0110
0001
1100
0010
1001
0010
1101
0010
0101
0010
,
1100
0001
1100
0111
0000
1101
1001
0000
0101
0000
0101
1110
0000
1101
1010
0000
,
0011
0100
1010
0001
1110
0001
1100
0010
1001
0010
0101
0010
1101
0010
1001
0100
,
0011
0100
1001
0100
1011
0100
0011
0100
1010
0100
0011
1000
0111
1000
0110
1000
,
0011
0100
1010
0100
1011
0100
1001
0100
0011
0100
1001
0010
1101
0010
0101
1000
,
0011
0100
1001
0111
0000
1011
1010
0000
0101
0000
1010
1110
0000
0111
1001
0000
,
0101
0010
0101
1000
0111
1000
0011
0100
0011
1000
0101
1000
0111
1000
0011
0100
,
1010
0100
1010
0001
1110
0001
1010
0100
1001
0010
0101
1000
0111
1000
0101
1000
,
0110
0001
1010
0001
1110
0001
0110
0001
1100
0010
1001
0010
1101
0010
0101
0010
,
1100
0001
1100
0111
0000
1101
1001
0000
0101
0000
0101
1110
0000
1101
1010
0000
,
0011
0100
1010
0001
1110
0001
1100
0010
1001
0010
0101
0010
1101
0010
1001
0100
,
0011
0100
1001
0100
1011
0100
0011
0100
1010
0100
0011
1000
0111
1000
0110
1000
,
0011
0100
1010
0100
1011
0100
1001
0100
0011
0100
1001
0010
1101
0010
0101
1000
,
0011
0100
1001
0111
0000
1011
1010
0000
0101
0000
1010
1110
0000
0111
1001
0000
,
1100
0010
0001
0000
1011
0000
0100
0010
0001
0000
0110
0000
1011
0000
0100
0010
,
0101
0010
0001
0000
1110
0000
0100
0001
0100
0000
1010
0000
1101
0000
0001
0010
,
1100
0010
0100
0000
0111
0000
0100
1000
0100
0000
0101
0000
1101
0000
0001
0100
,
1001
0010
0100
0000
1110
0000
0100
0010
0001
0000
0110
0000
1011
0000
0100
0010
,
0101
0010
0001
0000
1110
0000
0100
0001
0100
0000
1010
0000
1101
0000
0001
0010
,
1100
0010
0100
0000
0111
0000
0100
1000
0100
0000
0101
0000
1101
0000
0001
0100
,
1001
0010
0100
0000
1110
0000
0100
0010
0001
0000
0110
0000
1011
0000
0100
0010
,
0100
0010
0001
0000
1100
0000
0100
0001
0100
0000
0010
0000
1001
0000
0001
0010
,
1000
0010
0100
0000
0011
0000
0000
1000
0000
0000
0010
0000
0000
0000
0000
0100
,
0001
0010
0100
0000
1010
0000
0000
0010
0001
0000
0100
0000
0000
0000
0000
1000
,
0001
0100
0001
0000
1100
0000
0000
1000
0001
0000
0010
0000
0000
0000
0000
1000
,
0001
0100
0001
0000
0110
0000
0000
0001
0010
0000
1000
0000
0000
0000
0000
0010
,
0001
1000
0001
0000
0101
0000
0000
0100
0010
0000
1000
0000
0000
0000
0000
0100
,
0001
0010
0100
0000
1010
0000
0000
0010
0001
0000
0100
0000
0000
0000
0000
1000
,
0001
0100
0001
0000
1100
0000
0000
1000
0001
0000
0010
0000
0000
0000
0000
1000
,
0001
0100
0001
0000
0110
0000
0000
0001
0010
0000
1000
0000
0000
0000
0000
0010
,
1001
0000
1100
0001
1110
0000
0011
0100
1011
0000
0101
0010
1101
0000
0011
0100
,
1011
0000
0011
1000
0111
0000
1100
0010
1101
0000
0110
0001
1110
0000
0011
0100
,
1011
0000
1100
0001
1110
0000
0011
0100
1011
0000
0101
0010
1101
0000
0011
0100
,
1011
0000
0011
1000
0111
0000
1100
0010
1101
0000
0110
0001
1110
0000
0011
0100
,
1011
0000
1100
0001
1110
0000
0011
0100
1011
0000
0101
0010
1101
0000
0011
0100
,
1011
0000
0011
1000
0111
0000
1100
0010
1101
0000
0110
0001
1110
0000
0011
0100
,
1011
0000
1100
0001
1110
0000
0011
0100
1011
0000
0101
0010
1101
0000
0011
0100
,
1011
0000
0011
1000
0111
0000
1100
0010
1101
0000
0110
0001
1110
0000
0011
0100
,
1011
0000
1100
0001
1110
0000
0011
0100
1011
0000
0101
0010
1101
0000
0011
0100
,
1011
0000
0011
1000
0111
0000
1100
0010
1101
0000
0110
0001
1110
0000
0011
0100
,
1011
0000
1100
0001
1110
0000
0011
0100
1011
0000
0101
0010
1101
0000
0011
0100
,
1011
0000
0011
1000
0111
0000
1100
0010
1101
0000
0110
0001
1110
0000
0011
0100
,
1011
0000
1100
0001
1110
0000
0011
0100
1011
0000
0101
0010
1101
0000
0011
0100
,
1011
0000
0011
1000
0111
0000
1100
0010
1101
0000
0110
0001
1110
0000
0011
0100
,
1011
0000
1100
0001
1110
0000
0011
0100
1011
0000
0101
0010
1101
0000
0011
0100
,
1011
0000
0011
1000
0111
0000
1100
0010
1101
0000
0110
0001
1110
0000
0011
0100
,
2222
0000
0000
3333
;
