#TITLE:Knightman Stage(Megaman 6);
#SUBTITLE:;
#ARTIST:Capcom Sound Team;
#TITLETRANSLIT:;
#SUBTITLETRANSLIT:;
#ARTISTTRANSLIT:;
#CREDIT:Megaman 6(Capcom);
#BANNER:Knightman-banner.png;
#BACKGROUND:Knightman-bg.gif;
#LYRICSPATH:;
#CDTITLE:Sulfer Dragon-cdtitle.png;
#MUSIC:10 - Knight Man Stage.mp3;
#OFFSET:-0.619;
#SAMPLESTART:57.545;
#SAMPLELENGTH:12.000;
#SELECTABLE:YES;
#BPMS:0.000=155.004,1.000=139.004,3.000=132.804,4.500=121.604,5.250=112.004,7.000=75.104,7.750=98.004,8.250=150.204;
#STOPS:;
#BGCHANGES:;
// cache tags:
#FIRSTBEAT:1.000;
#LASTBEAT:328.000;
#SONGFILENAME:Songs/toune/Knight Man Stage/10 - Knight Man Stage.sm;
#HASMUSIC:1;
#HASBANNER:1;
#MUSICLENGTH:135.426;
// end cache tags

//---------------dance-single - ----------------
#NOTES:
     dance-single:
     :
     Edit:
     8:
     0.632,0.604,0.583,0.605,0.151,438.000,79.000,82.000,0.000,19.000:
0000
1001
0000
1001
,
0000
0000
1000
0000
0000
0100
0000
0000
0010
0000
0000
0000
2002
0000
0000
0000
,
0000
3003
0010
0100
0010
0100
0001
0100
0001
0010
0100
1000
0100
1000
1001
0000
,
0000
0000
0110
0000
0000
1001
0000
0000
,
0201
0000
0000
0310
0000
1001
0000
1010
,
0000
0000
1100
0000
0000
0110
0000
0000
,
0021
0000
0000
0130
0000
1001
0000
1002
,
0000
0000
0000
0213
0000
0000
0000
0321
,
0000
0000
0000
0132
0000
0000
0000
2003
,
0000
0000
0000
0000
3020
0000
0130
0001
,
1000
0100
1000
0100
0010
0001
0000
0001
0010
0000
0100
0000
0010
0000
1001
0000
,
0000
0000
0110
0000
0001
0101
0000
1000
,
2100
0000
0000
3001
0000
0110
0000
0101
,
0000
0000
1001
0000
1000
1010
0000
0001
,
0012
0000
0000
0103
0000
0110
0000
1200
,
0000
0000
1302
0000
1003
0100
1000
0010
,
0100
0001
0010
1000
0010
0001
0100
0010
,
1000
0000
0001
0000
1000
0000
0001
0000
1000
0000
0010
0100
0010
0000
2000
0000
,
0000
0000
0000
0000
3000
0000
0000
0000
1000
0100
0010
0100
1000
0001
0020
0000
,
0000
0000
1032
0000
0000
0203
0000
0000
,
0320
0000
0000
0230
0000
0302
0000
1003
,
0010
0000
1000
0000
0100
0000
0010
0000
0001
0000
1000
0100
2000
0000
0000
0000
,
3001
0010
0001
0100
0010
1000
0001
0201
,
0000
0000
0321
0000
0000
2031
0000
0000
,
3002
0000
0000
2003
0000
3020
0000
0130
,
0001
0000
0100
0000
0010
0000
1000
0000
0100
0000
0010
0001
0020
0000
0000
0000
,
0130
1000
0100
0010
0001
0100
0010
2002
,
0000
0000
0000
0000
3013
0100
1000
0020
,
0000
0031
0200
0000
0310
2000
0000
3220
,
0000
0000
0000
0330
1000
0010
0001
0200
,
0000
0000
0301
0000
2000
0000
0000
0000
3010
0000
0000
0000
0100
0000
0001
1000
,
0000
0001
1000
0100
1000
0000
0001
0010
0001
0100
0001
0010
0001
0100
0000
0000
,
1000
0010
1000
0100
0010
0001
0100
0010
,
1000
0010
0100
0001
0010
0100
0010
0001
,
0100
0010
0001
0100
0010
0100
1000
0100
,
0010
0001
1000
0001
0100
0010
1000
0100
,
0010
0100
0001
0010
0100
0010
0001
1000
,
0100
1000
0100
0020
0001
0001
0001
0000
,
0100
0000
1000
0000
0100
0100
0200
0000
,
0000
0000
0330
1001
0000
0000
0110
0000
,
0000
1001
0000
0000
1020
0000
0000
0130
,
0000
1001
0000
0101
0000
0000
0011
0000
,
0000
0110
0000
0000
1200
0000
0000
0310
,
0000
1001
0000
2001
0000
0000
0000
3120
,
0000
0000
0000
1230
0000
0000
0000
2310
,
0000
0000
0000
3002
0000
0000
0000
0000
,
0203
0000
0000
0000
0310
0000
1000
0000
0001
0010
0001
0010
0100
1000
0000
1000
,
0100
0010
0100
1001
0000
0000
0110
0000
,
1000
1010
0000
0001
0012
0000
0000
1003
,
0000
0110
0000
1010
0000
0000
1001
0000
,
0001
0101
0000
1000
2100
0000
0000
3010
,
0000
0110
0000
0021
0000
0000
2031
0000
,
3001
0010
0001
0100
0010
1000
0100
0001
,
0100
1000
0010
0100
0001
1000
0001
1000
,
0001
0000
0100
0010
0100
0000
0002
0000
0000
0000
0000
0000
0003
0000
0000
0000
,
0001
0010
0100
0010
0001
1000
0200
0000
0000
0000
0000
0000
2301
0000
0000
0000
,
0000
3020
0000
0000
0230
0000
0000
0320
,
0000
2030
0000
3001
0100
0001
0010
0100
,
1000
0000
0001
0010
0002
0000
0000
0000
1003
0000
0100
0000
1000
0000
0010
0000
,
0100
0001
1000
1020
0000
0000
1230
0000
,
0000
1302
0000
0000
2003
0000
0000
3002
,
0000
0203
0000
0310
1000
0010
0100
0001
,
0010
0000
0100
1000
0200
0000
0000
0000
0310
0000
0001
0000
0010
0000
0100
0000
,
1000
0010
0100
2002
0000
0000
0000
0000
,
3013
0100
0001
0200
0000
1300
0020
0000
,
0130
0002
0000
0223
0000
0000
0000
0330
,
0001
0100
1000
0020
0000
1030
0002
0000
,
0103
0000
0000
0000
0010
0000
1000
0001
0000
1000
0001
0010
0001
0000
1000
0100
,
1000
0010
1000
0100
1000
0010
0000
0000
0001
0000
0100
0000
0001
0000
0010
0000
,
0100
1000
0010
0100
0001
0100
0010
1000
,
0100
0010
0100
1000
0010
0100
1000
0010
,
0100
0010
0001
0010
0100
1000
0001
1000
,
0010
0100
0001
0010
0100
0010
1000
0100
,
0010
0100
1000
0001
0010
0001
0010
0200
,
1000
1000
1000
0000
0010
0000
0001
0000
,
0010
0010
0020
0000
0000
0000
0330
1001
,
0000
0000
0101
0000
0000
1100
0000
0000
,
0120
0000
0000
0031
0000
1010
0000
1100
,
0000
0000
0110
0000
0000
1001
0000
0000
,
0201
0000
0000
1300
0000
1001
0000
0120
,
0000
0000
0000
0231
0000
0000
0000
0000
,
0000
0000
0000
0300
;

//---------------dance-single - ----------------
#NOTES:
     dance-single:
     :
     Challenge:
     8:
     0.637,0.605,0.583,0.561,0.177,449.000,79.000,76.000,0.000,3.000:
0000
1001
0000
1001
,
0000
0000
1000
0000
0000
0100
0000
0000
0010
0000
0000
0000
2002
0000
0000
0000
,
0000
3003
0010
0100
0010
0100
0001
0100
0001
0010
0100
1000
0100
1000
1001
0000
,
0000
0000
0110
0000
0000
1001
0000
0000
,
0201
0000
0000
0310
0000
1001
0000
1010
,
0000
0000
1100
0000
0000
0110
0000
0000
,
0021
0000
0000
0130
0000
1001
0000
1002
,
0000
0000
0000
0000
0000
0003
0210
0000
0000
0000
0000
0000
0000
0300
0021
0000
,
0000
0000
0000
0000
0000
0030
0102
0000
0000
0000
0000
0000
0000
0000
2003
0000
,
0000
0000
0000
0000
3020
0000
0130
0001
,
1000
0100
1000
0100
0010
0001
0000
0001
0010
0000
0100
0000
0010
0000
1001
0000
,
0000
0000
0110
0000
0001
0101
0000
1000
,
2100
0000
0000
3001
0000
0110
0000
0101
,
0000
0000
1001
0000
1000
1010
0000
0001
,
0012
0000
0000
0103
0000
0110
0000
1200
,
0000
0000
1302
0000
1003
0100
1000
0010
,
0100
0001
0010
1000
0010
0001
0100
0010
,
1000
0000
0001
0000
1000
0000
0001
0000
1000
0000
0010
0100
0010
0000
2000
0000
,
0000
0000
0000
0000
3000
0000
1000
0001
1000
0100
0010
0100
1000
0001
0020
0000
,
0000
0000
0000
0030
1002
0000
0000
0000
0000
0000
0203
0000
0000
0000
0000
0000
,
0320
0000
0000
0230
0000
0302
0000
1003
,
0010
0000
1000
0000
0100
0000
0010
0000
0001
0000
1000
0100
2000
0000
0000
0000
,
3001
0010
0001
0100
0010
1000
0001
0201
,
0000
0000
0000
0300
0021
0000
0000
0000
0000
0030
2001
0000
0000
0000
0000
0000
,
3002
0000
0000
2003
0000
3020
0000
0130
,
0001
0000
0100
0000
0010
0000
1000
0000
0100
0000
0010
0001
0020
0000
0000
0000
,
0130
1000
0100
0010
0001
0100
0010
2002
,
0000
0000
0000
3000
0013
0100
1000
0020
,
0000
0031
0200
0000
0310
2000
0000
3220
,
0000
0000
0000
0330
1000
0010
0001
0200
,
0000
0000
0301
0000
2000
0000
0000
0000
3010
0000
0000
0000
0100
0000
0001
1000
,
0000
0001
1000
0100
1000
0000
0001
0010
0001
0100
0001
0010
0001
0100
0000
0000
,
1000
0010
1000
0100
0010
0001
0100
0010
,
1000
0010
0100
0001
0010
0100
0010
0001
,
0100
0010
0001
0100
0010
0100
1000
0100
,
0010
0001
1000
0001
0100
0010
1000
0100
,
0010
0100
0001
0010
0100
0010
0001
1000
,
0100
1000
0100
0020
0001
0001
0001
0000
,
0100
0000
1000
0000
0100
0100
0200
0000
,
0000
0000
0330
1010
0000
0000
0011
0000
,
0000
1010
0000
0000
0120
0000
0000
0130
,
0000
1001
0000
0011
0000
0000
0101
0000
,
0000
1010
0000
0000
1200
0000
0000
0310
,
0000
0000
1001
0000
0000
0000
2001
0000
0000
0000
0000
0000
0000
3000
0021
0000
,
0000
0000
0000
0000
0000
0030
0102
0000
0000
0000
0000
0000
0000
0003
1020
0000
,
0000
0000
0000
0230
0000
0000
0000
0000
,
0320
0000
0000
0000
0130
0000
1000
0000
0001
0000
0100
0010
0100
0000
0001
0000
,
1000
0100
0010
0001
1000
0000
1001
0000
0000
0000
0000
0000
0101
0000
0000
0000
,
1000
1100
0000
0001
1002
0000
0000
0103
,
0000
1010
0000
1001
0000
0000
0110
0000
,
0001
0011
0000
0010
1020
0000
0000
1030
,
0000
0000
0101
0000
0000
0000
0120
0000
0000
0000
0000
0030
2001
0000
0000
0000
,
3001
0010
1000
0010
0001
0100
1000
0010
,
0001
1000
0010
0001
0100
0010
0100
0010
,
0100
0000
0001
0100
0001
0000
0020
0000
0000
0000
0000
0000
0030
0000
0100
1000
,
0010
0100
0001
0100
0010
1000
0001
0000
0000
0000
0000
0000
0002
0000
0000
0000
,
1003
0100
0010
0000
0000
0000
0001
0000
0000
0000
0000
0000
0200
0000
0000
0000
,
0310
1000
0001
0000
0000
0000
1000
0000
0100
0000
1000
0000
0010
0000
0100
0000
,
0001
0000
1000
0100
2000
0000
0000
0000
3001
0000
0010
0000
0100
0000
0010
0000
,
0001
0000
0100
0010
0100
0010
1000
0000
0000
0000
0000
0000
2000
0000
0000
0000
,
3001
0100
0010
0000
0000
0000
0100
0000
0000
0000
0000
0000
0200
0000
0000
0000
,
0301
1000
0020
0000
0000
0000
0130
0000
0001
0000
1000
0000
0010
0000
0100
0000
,
0001
0000
1000
0100
2000
0000
0000
0000
3001
0000
0010
0000
0001
0000
0100
0000
,
0010
0001
1000
0220
0000
0000
0000
0030
,
0301
1000
0001
2000
0000
3100
0020
0000
,
0031
2000
0000
3220
0000
0000
0000
0330
,
1000
0001
1000
0200
0000
0310
0002
0000
,
0203
0000
0000
0000
0310
0000
1000
0100
0000
0010
0001
1000
0001
0000
0100
0010
,
0100
0001
0100
0010
0100
0001
1001
0000
0000
0000
0110
0000
0000
0000
1001
0000
,
0000
0110
0000
0010
0001
0010
0100
1000
,
0010
0100
0010
1000
0001
0010
1000
0100
,
0010
0100
0001
0100
0010
0001
1000
0001
,
0010
0100
1000
0001
0010
0001
1000
0010
,
0100
0010
1000
0001
0100
0001
1000
0020
,
0100
0100
0100
0000
0001
0000
0100
0000
,
1000
1000
2000
0000
0000
0000
3030
1001
,
0000
0000
0101
0000
0000
1100
0000
0000
,
0120
0000
0000
0031
0000
1010
0000
1100
,
0000
0000
0110
0000
0000
1001
0000
0000
,
0201
0000
0000
1300
0000
1001
0000
0120
,
0000
0000
0000
0000
0000
0030
0201
0000
0000
0000
0000
0000
0000
0000
0000
0000
,
0000
0000
0000
0000
,
0300
0000
0000
0000
;
