#TITLE:Brutal Swing;
#SUBTITLE:;
#ARTIST:Igorrr;
#TITLETRANSLIT:;
#SUBTITLETRANSLIT:;
#ARTISTTRANSLIT:;
#CREDIT:Mad Matt;
#BANNER:../_bn-1.png;
#BACKGROUND:../bg-1.png;
#LYRICSPATH:;
#CDTITLE:;
#MUSIC:Brutal Swing.ogg;
#OFFSET:-0.773;
#SAMPLESTART:43.205;
#SAMPLELENGTH:9.500;
#SELECTABLE:YES;
#BPMS:0.000=226.000;
#STOPS:;
#BGCHANGES:;
// cache tags:
#FIRSTBEAT:0.000;
#LASTBEAT:384.000;
#SONGFILENAME:Songs/Index Tournament 1/Brutal Swing - [Mad Matt]/Brutal Swing.sm;
#HASMUSIC:1;
#HASBANNER:1;
#MUSICLENGTH:105.624;
// end cache tags

//---------------dance-single - Mad Matt----------------
#NOTES:
     dance-single:
     Mad Matt:
     Challenge:
     16:
     1.000,1.000,0.464,0.350,1.000,958.000,49.000,37.000,2.000,0.000:

1000
0100
0010
0001
0010
0001
1000
0100
0010
0001
0010
0001
1000
0100
0010
0001
,
0010
0100
1000
0100
1000
0001
0010
0100
1000
0100
1000
0001
0010
0100
1000
0001
,
1000
0010
0100
0001
0100
0001
1000
0010
0100
0001
0100
0001
1000
0010
0100
0001
,
0100
0010
1000
0010
1000
0001
0100
0010
1000
0010
1000
0001
0100
0010
1000
0001
,
0010
0100
1000
0001
1000
0001
0010
0100
1000
0001
1000
0001
0010
0100
1000
0100
,
0010
0001
1000
0001
1000
0010
0100
0001
1000
0001
1000
0010
0100
0001
1000
0001
,
1000
0100
0010
0001
0010
0001
1000
0010
0100
0001
0100
0001
1000
0100
0010
0001
,
0010
0100
1000
0100
1000
0001
0100
0010
2000
0000
0000
0000
3000
0000
0000
0000
,
0001
0010
0100
1000
0100
1000
0001
0010
0100
1000
0100
1000
0001
0010
0100
1000
,
0100
0010
0001
0010
0001
1000
0100
0010
0001
0010
0001
1000
0100
0010
0001
1000
,
0001
0100
0010
1000
0010
1000
0001
0100
0010
1000
0010
1000
0001
0100
0010
1000
,
0010
0100
0001
0100
0001
1000
0010
0100
0001
0100
0001
1000
0010
0100
0001
1000
,
0100
0010
0001
1000
0001
1000
0100
0010
0001
1000
0001
1000
0100
0010
0001
0010
,
0100
1000
0001
1000
0001
0100
0010
1000
0001
1000
0001
0100
0010
1000
0001
1000
,
0001
0000
0000
0000
,
1000
0100
0010
0001
0010
0100
1000
0100
0010
0001
0010
0100
1000
0100
0010
0100
,
1000
0000
0000
0000
0000
0000
0000
0000
0000
0000
0000
0010
0000
0000
0000
0000
0000
0000
0000
0000
0000
0000
0000
0000
0000
0000
0000
0100
0000
0000
0000
0000
0001
0000
0000
0000
0000
0000
0000
0000
0000
0000
0000
1000
0000
0000
0000
0000
0000
0000
0000
0000
0000
0000
0000
0000
0000
0000
0000
0100
0000
0000
0000
0000
,
0000
0000
0000
0000
0000
0000
0000
0000
0000
0000
0000
0010
0000
0000
0000
0000
0000
0000
0000
0000
0000
0000
0000
0000
0000
0000
0000
0001
0000
0000
0000
0000
1000
0000
0000
0000
0000
0000
0000
0000
0000
0000
0000
0010
0000
0000
0000
0000
0000
0000
0000
0000
0000
0000
0000
0000
0000
0000
0000
0100
0000
0000
0000
0000
,
0000
0000
0000
0000
0000
0000
0000
0000
0000
0000
0000
0001
0000
0000
0000
0000
0000
0000
0000
0000
0000
0000
0000
0000
0000
0000
0000
1000
0000
0000
0000
0000
0100
0000
0000
0000
0000
0000
0000
0000
0000
0000
0000
0010
0000
0000
0000
0000
0000
0000
0000
0000
0000
0000
0000
0000
0000
0000
0000
0100
0000
0000
0000
0000
,
0000
0000
0000
0000
0000
0000
0000
0000
0000
0000
0000
1000
0000
0000
0000
0000
0000
0000
0000
0000
0000
0000
0000
0000
0000
0000
0000
0010
0000
0000
0000
0000
M100
0000
0000
0000
0000
0000
0000
0000
0000
0000
0000
0001
0000
0000
0000
0000
0000
0000
0000
0000
0000
0000
0000
0000
0000
0000
0000
0010
0000
0000
0000
0000
,
010M
0000
0000
0000
0000
0000
0000
0000
0000
0000
0000
1000
0000
0000
0000
0000
0000
0000
0000
0000
0000
0000
0000
0000
0000
0000
0000
0001
0000
0000
0000
0000
0100
0000
0000
0000
0000
0000
0000
0000
0000
0000
0000
0010
0000
0000
0000
0000
0000
0000
0000
0000
0000
0000
0000
0000
0000
0000
0000
1000
0000
0000
0000
0000
,
0000
0000
0000
0000
0000
0000
0000
0000
0000
0000
0000
0100
0000
0000
0000
0000
0000
0000
0000
0000
0000
0000
0000
0000
0000
0000
0000
0010
0000
0000
0000
0000
0001
0000
0000
0000
0000
0000
0000
0000
0000
0000
0000
1000
0000
0000
0000
0000
0000
0000
0000
0000
0000
0000
0000
0000
0000
0000
0000
0010
0000
0000
0000
0000
,
0000
0000
0000
0000
0000
0000
0000
0000
0000
0000
0000
0100
0000
0000
0000
0000
0000
0000
0000
0000
0000
0000
0000
0000
0000
0000
0000
0001
0000
0000
0000
0000
1000
0000
0000
0000
0000
0000
0000
0000
0000
0000
0000
0100
0000
0000
0000
0000
0000
0000
0000
0000
0000
0000
0000
0000
0000
0000
0000
0010
0000
0000
0000
0000
,
0000
0000
0000
0000
0000
0000
0000
0000
0000
0000
0000
0001
0000
0000
0000
0000
0000
0000
0000
0000
0000
0000
0000
0000
0000
0000
0000
1000
0000
0000
0000
0000
0010
0000
0000
0000
0000
0000
0000
0000
0000
0000
0000
0100
0000
0000
0000
0000
0000
0000
0000
0000
0000
0000
0000
0000
0000
0000
0000
0001
0000
0000
0000
0000
,
1000
0100
1000
0001
0100
0001
1000
0010
1000
0001
0010
0001
1000
0100
1000
0001
,
0010
0001
1000
0010
1000
0001
0100
0001
1000
0100
1000
0001
0010
0001
1000
0010
,
0200
0000
0000
0000
0000
0000
0000
0000
0000
0000
0000
0000
0000
0000
0000
0000
0000
0000
0000
0000
0000
0000
0000
0000
0000
0000
0000
0000
0000
0000
0000
0000
0000
0000
0000
0000
0000
0000
0000
0000
0300
0000
0000
0000
0000
0000
0000
0000
2010
0000
0000
0000
0000
0000
0000
0000
0000
0000
0000
0000
0000
0000
0000
0000
0000
0000
0000
0000
0000
0000
0000
0000
0000
0000
0000
0000
0000
0000
0000
0000
0000
0000
0000
0000
0000
0000
0000
0001
3000
0000
0000
0000
0000
0000
0000
0000
0020
0000
0000
0000
0000
0000
0000
0000
0000
0000
0000
0000
0000
0000
0000
0000
0000
0000
0000
0000
0000
0000
0000
0000
0000
0000
0000
0000
0000
0000
0000
0000
0000
0000
0000
0000
0000
0000
0000
0000
0030
0000
0000
0000
0000
0000
0000
0000
2100
0000
0000
0000
0000
0000
0000
0000
0000
0000
0000
0000
0000
0000
0000
0000
0000
0000
0000
0000
0000
0000
0000
0000
0000
0000
0000
0000
0000
0000
0000
0000
0000
0000
0000
0000
0000
0000
0000
0001
3000
0000
0000
0000
0000
0000
0000
0000
,
0200
0000
0000
0000
0000
0000
0000
0000
0000
0000
0000
0000
0000
0000
0000
0000
0000
0000
0000
0000
0000
0000
0000
0000
0000
0000
0000
0000
0000
0000
0000
0000
0000
0000
0000
0000
0000
0000
0000
0000
0300
0000
0000
0000
0000
0000
0000
0000
2010
0000
0000
0000
0000
0000
0000
0000
0000
0000
0000
0000
0000
0000
0000
0000
0000
0000
0000
0000
0000
0000
0000
0000
0000
0000
0000
0000
0000
0000
0000
0000
0000
0000
0000
0000
0000
0000
0000
0001
3000
0000
0000
0000
0000
0000
0000
0000
0020
0000
0000
0000
0000
0000
0000
0000
0000
0000
0000
0000
0000
0000
0000
0000
0000
0000
0000
0000
0000
0000
0000
0000
0000
0000
0000
0000
0000
0000
0000
0000
0000
0000
0000
0000
0000
0000
0000
0000
0030
0000
0000
0000
0000
0000
0000
0000
2001
0000
0000
0000
0000
0000
0000
0000
0000
0000
0000
0000
0000
0000
0000
0000
0000
0000
0000
0000
0000
0000
0000
0000
0000
0000
0000
0000
0000
0000
0000
0000
0000
0000
0000
0000
0000
0000
0000
0000
3000
0000
0000
0000
0000
0000
0000
0000
,
0001
0010
0100
1000
0001
1000
0001
0010
0100
1000
0001
1000
0001
0010
0100
1000
,
0001
0100
0010
1000
0001
1000
0001
0100
0010
1000
0001
1000
0001
0100
0010
1000
,
0001
0101
1100
1010
,
0011
0000
0000
0000
0101
0000
0000
0000
1000
0100
1000
0100
1000
0100
1000
0100
,
1000
0001
0100
0001
1000
0010
1000
0001
0010
0001
1000
0100
0010
0001
0010
0100
,
1000
0001
0010
0001
1000
0100
1000
0001
0100
0001
1000
0010
0100
0001
0100
0010
,
1000
0001
0100
0001
1000
0010
1000
0001
0010
0001
1000
0100
0010
0001
0010
0100
,
1000
0001
0010
0001
1000
0100
1000
0001
0100
0001
1000
0010
0100
0001
0100
0010
,
1000
0001
0010
0001
1000
0010
1000
0001
0010
0001
1000
0100
0010
0001
0010
0100
,
1000
0001
0100
0001
1000
0100
1000
0001
0010
0001
1000
0010
0100
0001
0100
0010
,
1000
0001
0010
0001
1000
0010
1000
0001
0100
0001
1000
0100
0010
0001
0010
0100
,
1000
0001
0010
0001
1000
0010
1000
0001
0100
0000
0000
0000
0000
0000
0000
0000
,
0001
0010
0100
1000
0001
0100
0001
1000
0100
1000
0001
0100
0010
1000
0001
0010
,
0001
1000
0010
1000
0001
0010
0100
1000
0001
0100
0001
1000
0100
1000
0001
0100
,
0010
1000
0001
0010
0001
1000
0010
1000
0001
0010
0100
1000
0001
0100
0001
1000
,
0100
1000
0001
0100
0010
1000
0001
0010
0001
1000
0010
1000
0001
0010
0100
1000
,
0001
0010
0100
0010
0100
1000
0001
0010
0100
0010
0100
1000
0001
0010
0100
1000
,
0001
1000
0001
0100
0010
1000
0001
1000
0001
0100
0010
1000
0001
1000
0001
0010
,
0100
0000
0000
0000
0000
0000
0000
0000
0000
0000
0000
0110
0000
0000
0000
0000
0000
0000
0000
0000
0000
0000
0000
0000
0000
0000
0000
0010
0000
0000
0000
0000
0001
0000
0000
0000
0000
0000
0000
0000
0000
0000
0000
1000
0000
0000
0000
0000
0000
0000
0000
0000
0000
0000
0000
0000
0000
0000
0000
0110
0000
0000
0000
0000
,
0000
0000
0000
0000
0000
0000
0000
0000
0000
0000
0000
0101
0000
0000
0000
0000
0000
0000
0000
0000
0000
0000
0000
0000
0000
0000
0000
0001
0000
0000
0000
0000
0010
0000
0000
0000
0000
0000
0000
0000
0000
0000
0000
0100
0000
0000
0000
0000
0000
0000
0000
0000
0000
0000
0000
0000
0000
0000
0000
0000
0000
0000
0000
0000
,
2000
3000
0000
0000
0000
0000
0000
0000
0000
0000
0000
0000
0000
0000
0000
0000
0200
0300
0000
0000
0000
0000
0000
0000
0000
0000
0000
0000
0000
0000
0000
0000
0020
0030
0000
0000
0000
0000
0000
0000
0000
0000
0000
0000
0000
0000
0000
0000
0002
0003
0000
0000
0000
0000
0000
0000
0000
0000
0000
0000
0000
0000
0000
0000
,
0020
0030
0000
0000
0000
0000
0000
0000
0000
0000
0000
0000
0000
0000
0000
0000
0200
0300
0000
0000
0000
0000
0000
0000
0000
0000
0000
0000
0000
0000
0000
0000
1000
0000
0000
0000
0000
0000
0000
0000
0000
0000
0000
0000
0000
0000
0000
0000
0001
0000
0000
0000
0000
0000
0000
0000
0000
0000
0000
0000
0000
0000
0000
0000
,
2000
3000
0000
0000
0000
0000
0000
0000
0000
0000
0000
0000
0000
0000
0000
0000
0020
0030
0000
0000
0000
0000
0000
0000
0000
0000
0000
0000
0000
0000
0000
0000
0200
0300
0000
0000
0000
0000
0000
0000
0000
0000
0000
0000
0000
0000
0000
0000
0002
0003
0000
0000
0000
0000
0000
0000
0000
0000
0000
0000
0000
0000
0000
0000
,
1000
0001
0010
0100
,
1000
0100
0010
0001
1000
0010
1000
0001
0010
0001
1000
0010
0100
0001
1000
0100
,
1000
0001
0100
0001
1000
0100
0010
0001
1000
0010
1000
0001
0010
0001
1000
0010
,
0100
0001
1000
0100
1000
0001
0100
0001
1000
0100
0010
0001
1000
0010
1000
0001
,
0010
0001
1000
0010
0100
0001
1000
0100
1000
0001
0100
0001
1000
0100
0010
0001
,
2000
3000
0000
0000
0000
0000
0000
0000
0000
0000
0000
0000
0000
0000
0000
0000
0020
0030
0000
0000
0000
0000
0000
0000
0000
0000
0000
0000
0000
0000
0000
0000
0201
0300
0000
0000
0000
0000
0000
0000
0000
0000
0000
0000
0000
0000
0000
0000
0020
0030
0000
0000
0000
0000
0000
0000
0000
0000
0000
0000
0000
0000
0000
0000
,
2100
3000
0000
0000
0000
0000
0000
0000
0000
0000
0000
0000
0000
0000
0000
0000
0020
0030
0000
0000
0000
0000
0000
0000
0000
0000
0000
0000
0000
0000
0000
0000
1001
0000
0000
0000
0000
0000
0000
0000
0000
0000
0000
0000
0000
0000
0000
0000
0100
0000
0000
0000
0000
0000
0000
0000
0000
0000
0000
0000
0000
0000
0000
0000
,
0012
0003
0000
0000
0000
0000
0000
0000
0000
0000
0000
0000
0000
0000
0000
0000
0200
0300
0000
0000
0000
0000
0000
0000
0000
0000
0000
0000
0000
0000
0000
0000
2001
3000
0000
0000
0000
0000
0000
0000
0000
0000
0000
0000
0000
0000
0000
0000
0200
0300
0000
0000
0000
0000
0000
0000
0000
0000
0000
0000
0000
0000
0000
0000
,
1010
0110
0101
1001
,
1200
0300
0000
0000
0000
0000
0000
0000
0000
0000
0000
0000
0000
0000
0000
0000
0001
0000
0000
0000
0000
0000
0000
0000
0000
0000
0000
0000
0000
0000
0000
0000
1020
0030
0000
0000
0000
0000
0000
0000
0000
0000
0000
0000
0000
0000
0000
0000
0001
0000
0000
0000
0000
0000
0000
0000
0000
0000
0000
0000
0000
0000
0000
0000
,
0210
0300
0000
0000
0000
0000
0000
0000
0000
0000
0000
0000
0000
0000
0000
0000
2000
3000
0000
0000
0000
0000
0000
0000
0000
0000
0000
0000
0000
0000
0000
0000
0011
0000
0000
0000
0000
0000
0000
0000
0000
0000
0000
0000
0000
0000
0000
0000
2000
3000
0000
0000
0000
0000
0000
0000
0000
0000
0000
0000
0000
0000
0000
0000
,
0110
0001
0101
0010
,
1001
0000
0000
0000
0000
0000
0000
0000
0000
0000
0000
0000
0000
0000
0000
0000
0010
0000
0000
0000
0000
0000
0000
0000
0000
0100
0000
0000
0000
0000
0000
0000
0000
0000
0000
0000
0000
0000
0000
0010
0000
0000
0000
0000
0000
0000
0000
0000
1000
0000
0000
0000
0000
0000
0000
0000
0000
0000
0000
0000
0000
0000
0000
0000
,
1001
0000
1100
0000
,
0011
0000
0101
0001
,
1001
0000
1100
0000
,
0011
0000
0101
0000
,
1001
0000
1010
0000
,
0101
0000
0011
0001
,
1000
0100
0010
0001
1000
0001
1000
0100
0010
0001
1000
0001
1000
0100
0010
0001
,
1000
0000
0000
0000
0001
0100
0010
1000
0001
0000
0000
0000
0000
0000
0000
0000
,
1000
0010
0100
0001
0100
0001
1000
0010
0100
0001
0100
0001
1000
0010
0100
0001
,
1000
0100
0010
0001
0010
0001
1000
0100
0010
0001
0010
0001
1000
0100
0010
0001
,
1000
0010
0100
0010
0100
0001
1000
0010
0100
0010
0100
0001
1000
0010
0100
0001
,
1000
0100
0010
0001
1000
0001
1000
0100
0010
0001
1000
0001
1000
0100
0010
0001
,
1000
0100
1000
0001
0100
0001
1000
0010
1000
0001
0010
0001
1000
0100
1000
0001
,
0010
0001
1000
0010
1000
0001
0100
0001
1000
0100
1000
0001
0010
0001
1000
0010
,
0200
0000
0000
0000
,
0000
0000
0300
0001
1000
0010
1000
0001
1000
0001
0010
0001
1000
0001
1000
0100
,
1000
0001
1000
0001
0100
0001
1000
0004
0000
0000
0000
0000
0000
0000
0000
0003
,
1000
0010
1000
0001
0100
0001
1000
0100
1000
0001
0010
0001
1000
0010
1000
0001
,
0100
0001
1000
0100
1000
0001
0010
0001
2000
0000
0000
0000
3002
0000
0000
0000
,
1003
0000
0100
0000
0010
0000
0001
0000
0010
0000
0100
0000
,
1000
0000
0010
0000
0100
0000
0001
0000
0100
0000
0010
0000
,
1000
0000
1001
0000
,
0001
0010
0100
1000
,
1001
0000
1001
0000
,
1001
0000
1001
0000
,
0001
0100
0001
1000
0010
1000
0001
0010
0001
1000
0100
1000
0001
0100
0001
1000
,
0010
1000
0001
0010
0001
1000
0100
1000
0001
0100
0001
1000
0010
1000
0001
0010
,
0001
0000
0100
0000
0010
0000
1000
0000
0010
0000
0100
0000
,
0001
0000
0010
0000
0100
0000
1000
0000
0100
0000
0010
0000
,
0001
0000
1001
0000
,
1000
0100
0000
0010
,
0011
0000
0110
0000
,
1100
0000
0000
0000
;
