#TITLE:blessing #1;
#SUBTITLE:;
#ARTIST:LaLa;
#TITLETRANSLIT:;
#SUBTITLETRANSLIT:;
#ARTISTTRANSLIT:;
#CREDIT:;
#BANNER:blessing1.png;
#BACKGROUND:blessing1-bg.png;
#LYRICSPATH:;
#CDTITLE:;
#MUSIC:blessing1.mp3;
#OFFSET:-6.517;
#SAMPLESTART:43.120;
#SAMPLELENGTH:12.000;
#SELECTABLE:YES;
#BPMS:0.000=118.020,24.000=59.010,46.500=118.020,73.500=59.010,96.000=118.020;
#STOPS:;
#BGCHANGES:;
// cache tags:
#FIRSTBEAT:0.000;
#LASTBEAT:147.000;
#SONGFILENAME:Songs/new encore/blessing1/blessing1.sm;
#HASMUSIC:1;
#HASBANNER:1;
#MUSICLENGTH:106.117;
// end cache tags

//---------------dance-single - ----------------
#NOTES:
     dance-single:
     :
     Easy:
     5:
     0.284,0.260,0.245,0.075,0.000,177.000,26.000,8.000,0.000,0.000:  // measure 1
0110
1000
0100
0011
,  // measure 2
0100
0010
1001
0100
,  // measure 3
0010
1100
0010
0001
,  // measure 4
0110
1000
0100
0011
,  // measure 5
0001
0100
0110
1000
,  // measure 6
0100
0110
0001
0110
,  // measure 7
1000
0001
0001
0100
0000
0010
1000
0100
,  // measure 8
1000
0010
0000
0100
0001
1000
0100
1000
,  // measure 9
0000
0010
0010
0000
0100
0001
0000
0001
,  // measure 10
0010
0100
0100
1000
0000
0100
0010
0001
,  // measure 11
0100
0010
0000
0010
1000
0100
1000
0010
,  // measure 12
0000
0100
0001
0100
0001
0010
0000
0010
,  // measure 13
0000
0010
0000
1100
0000
0001
0000
0100
,  // measure 14
0000
0110
0000
1000
0000
0001
0000
0110
,  // measure 15
0000
1000
0000
0100
0000
1100
0000
0001
,  // measure 16
0000
0010
0000
1100
0000
0010
0000
0001
,  // measure 17
0000
0011
0000
0100
0000
0010
0000
0110
,  // measure 18
0000
1000
0000
0001
0000
0101
0000
0010
,  // measure 19
0000
0100
0000
1100
0010
0001
0100
0000
,  // measure 20
0100
0010
1000
0100
1000
0000
1000
0010
,  // measure 21
0100
0001
0010
0000
0010
0100
0000
0100
,  // measure 22
1000
0000
1000
0010
0100
0001
0100
0000
,  // measure 23
0100
0010
1000
0001
1000
0000
0100
0010
,  // measure 24
0001
0100
0010
0000
0010
1000
0100
1000
,  // measure 25
0010
0010
0010
0100
,  // measure 26
0001
2000
3010
0100
,  // measure 27
0002
0013
0100
2000
,  // measure 28
3010
0100
0002
1003
,  // measure 29
0100
0020
0031
0100
,  // measure 30
0020
1030
0100
0020
,  // measure 31
0031
0100
0020
1030
,  // measure 32
0001
1000
0110
0001
,  // measure 33
0100
0011
1000
0100
,  // measure 34
0110
0001
1000
0101
,  // measure 35
0010
1000
0110
1000
,  // measure 36
0001
0011
0100
1000
,  // measure 37
0110
0100
0001
0110
;

//---------------dance-single - ----------------
#NOTES:
     dance-single:
     :
     Medium:
     6:
     0.316,0.293,0.123,0.047,0.024,217.000,13.000,5.000,0.000,0.000:  // measure 1
1001
0000
0010
0000
1000
0001
0100
0000
,  // measure 2
0010
0000
1000
0100
0010
0000
0001
0000
,  // measure 3
0010
0100
1000
0000
0010
0000
0100
0001
,  // measure 4
0100
0000
0010
0000
1000
0001
0010
0000
,  // measure 5
0100
0000
0010
0001
1000
0000
0010
0000
,  // measure 6
0100
0001
1000
0000
1000
0000
0110
0000
,  // measure 7
0001
0000
0100
0010
0100
0010
1000
0000
0100
0000
0010
0000
0100
0000
1000
0000
,  // measure 8
0010
0100
0000
0001
0010
0100
0010
0001
,  // measure 9
0000
0100
0010
1000
0100
0010
0000
0010
,  // measure 10
0001
0000
1000
0100
1000
0100
0010
0000
0001
0000
0100
0000
0010
0000
1000
0000
,  // measure 11
0100
0010
0000
0010
0001
0100
0010
1000
,  // measure 12
0000
1000
0001
0100
0010
1000
0000
1000
,  // measure 13
0000
0001
0000
0110
0000
1000
0000
0010
,  // measure 14
0100
0001
0000
0010
0000
0001
0100
0010
,  // measure 15
0000
1000
0000
0100
0010
0001
0000
0100
,  // measure 16
0000
0010
1000
0100
0000
0010
0000
0001
,  // measure 17
1000
0001
0000
0100
0000
0010
1000
0100
,  // measure 18
0000
1000
0000
0010
0100
0001
0000
0010
,  // measure 19
0000
0000
0100
0000
1000
0000
0010
0000
0010
0000
0100
0001
0100
0000
0000
0000
,  // measure 20
0010
1000
0100
1000
0010
0000
0010
0100
,  // measure 21
0001
1000
0100
0000
0100
1000
0010
0100
,  // measure 22
0001
0000
0010
0010
0100
1000
0010
0000
,  // measure 23
0010
0100
0001
1000
0100
0000
0100
0010
,  // measure 24
0001
1000
0100
0000
0100
0010
0001
1000
,  // measure 25
0010
0000
0010
0000
0100
0000
0001
1000
,  // measure 26
0001
0000
0110
0000
1000
0010
1000
0000
,  // measure 27
0101
0000
1000
0001
1000
0000
0110
0000
,  // measure 28
1000
0100
0010
0000
0011
0000
0100
0010
,  // measure 29
1000
0000
0101
0000
0010
0100
1000
0000
,  // measure 30
0101
0000
0010
0001
0100
0000
0110
0000
,  // measure 31
1000
0001
1000
0000
0110
0000
0100
0000
,  // measure 32
0001
1000
0002
0000
0103
0000
0010
1000
,  // measure 33
0020
0000
0130
0000
0001
0010
0002
0000
,  // measure 34
0103
0000
0010
1000
0100
0000
0110
0000
,  // measure 35
0010
0001
0200
0000
0310
0000
1000
0001
,  // measure 36
0020
0000
0130
0000
1000
0010
1000
0000
,  // measure 37
0001
0000
0010
0100
1000
0110
0000
0000
;

//---------------dance-single - ----------------
#NOTES:
     dance-single:
     :
     Hard:
     9:
     0.603,0.709,0.245,0.641,0.749,354.000,26.000,68.000,0.000,0.000:  // measure 1
2001
0000
0000
0001
0000
0000
3100
0000
0010
0000
0001
0000
1002
0000
0000
1000
,  // measure 2
0000
0000
0103
0000
0010
0000
1000
0000
2001
0000
0000
0001
0000
0000
3010
0000
,  // measure 3
0100
0000
0001
0000
1002
0000
0000
1000
0000
0000
0013
0000
0100
0000
0010
0000
,  // measure 4
0120
0000
0000
0001
0000
0000
0031
0000
1000
0000
0100
0000
0210
0000
0000
1000
,  // measure 5
0000
0000
1300
0000
0001
0000
0010
0000
0120
0000
0000
0001
0000
0000
0031
0000
,  // measure 6
0100
0000
0010
0000
1001
0000
0100
0000
1001
0000
0000
0000
1000
0000
0001
0100
,  // measure 7
0001
0000
0000
1000
0010
0000
0001
0000
0010
0000
1000
0000
0200
0000
0000
0010
0000
0000
0310
0000
0001
0000
0100
0010
0200
0000
0000
0302
0000
0000
2003
0000
,  // measure 8
0000
3100
0010
0100
0010
0000
0000
0001
0000
0000
0100
0000
0010
0000
1000
0000
0020
0000
0000
0230
0000
0000
0302
0000
0000
0023
0000
0000
0230
0000
0000
2300
,  // measure 9
0000
0000
0000
0000
3010
0100
0010
0000
2000
0000
0000
3100
0000
0000
0010
0000
0001
0000
0010
0000
0200
0000
0000
1300
0000
0000
0010
0000
0100
0000
0010
0000
,  // measure 10
1000
0000
0000
0001
0010
0000
1000
0000
0010
0000
0100
0000
2000
0000
0000
0010
0000
0000
3010
0000
0100
0000
0001
0010
0002
0000
0000
0203
0000
0000
0320
0000
,  // measure 11
0000
1030
0100
1000
0100
0000
0000
0010
0000
0000
0001
0000
0100
0010
0100
0010
2000
0000
0000
3200
0000
0000
0320
0000
0000
0032
0000
0000
2003
0000
0000
3020
,  // measure 12
0000
0000
0000
0000
0130
0000
0001
0000
0200
0000
0000
0310
0000
0000
1000
0000
0100
0000
0001
0000
0100
0000
0000
0000
1000
0000
0000
0000
0100
0000
0000
0000
,  // measure 13
0010
0000
0001
0000
0100
0010
0200
0000
0000
1000
0000
0000
0310
0000
1000
0000
,  // measure 14
0100
0000
0210
0000
0000
0001
0000
0000
1300
0000
0001
0000
0010
0000
0120
0000
,  // measure 15
0000
1000
0000
0000
0031
0000
1000
0000
0010
0000
0120
0000
0000
0001
0000
0000
,  // measure 16
1030
0000
0100
0000
1000
0001
2000
0000
0000
0010
0000
0000
3100
0000
0010
0000
,  // measure 17
0001
0000
1002
0000
0000
0100
0000
0000
0013
0000
0100
0000
1000
0000
2001
0000
,  // measure 18
0000
0100
0000
0000
3010
0000
0100
0000
0001
0000
1002
0000
0000
0100
0000
0000
,  // measure 19
0013
0000
0000
0000
0100
0000
0000
0000
1000
0000
0000
0000
0001
0000
0000
0100
0010
0000
0001
0000
0010
0000
0100
0000
0002
0000
0000
0010
0000
0000
0013
0000
,  // measure 20
0100
0000
1000
0010
2000
0000
0000
3200
0000
0000
0302
0000
0000
0103
1000
0100
0020
0000
0000
0001
0000
0000
0031
0000
0100
0000
0010
0000
2000
0000
0000
3002
,  // measure 21
0000
0000
0203
0000
0000
0320
0000
0000
2030
0000
0000
3200
0000
0000
0000
0000
0310
0001
0010
0000
0200
0000
0000
1300
0000
0000
0010
0000
0100
0000
0001
0000
,  // measure 22
0020
0000
0000
0130
0000
0000
1000
0000
0010
0000
0100
0000
1000
0000
0000
0100
0001
0000
0010
0000
0100
0000
0001
0000
0200
0000
0000
1000
0000
0000
1300
0000
,  // measure 23
0010
0000
0100
0001
2000
0000
0000
3020
0000
0000
0032
0000
0000
0013
1000
0010
0200
0000
0000
0001
0000
0000
0301
0000
0010
0000
0100
1000
0200
0000
0000
0320
,  // measure 24
0000
0000
0032
0000
0000
0203
0000
0000
0320
0000
0000
2030
0000
0000
0000
0000
0001
0000
3001
0000
0020
0000
0000
0130
0000
0000
1000
0000
0001
0000
1000
0000
,  // measure 25
0110
0000
0001
0000
0110
0000
0000
0000
1000
0000
0001
0100
0001
0000
0010
0000
,  // measure 26
0100
1000
0000
1000
0000
0000
0010
0000
0110
0000
0001
0000
1000
0100
0000
0100
,  // measure 27
0000
0000
0010
0000
0011
0000
0100
0000
0010
1000
0000
1000
0000
0001
0000
0000
,  // measure 28
0110
0000
1000
0000
0100
0010
0000
0001
0000
0000
0100
0010
0100
0000
0001
0000
,  // measure 29
1000
0100
0000
0100
0000
0000
0010
0000
0110
0000
1000
0000
0001
0010
0000
0010
,  // measure 30
0000
0000
0100
0000
1100
0000
0010
0000
0001
0100
0000
0100
0000
0010
0000
0000
,  // measure 31
1001
0000
0100
0000
0010
1000
0000
0001
0000
0000
1000
0100
1000
0000
0010
0000
,  // measure 32
0100
0001
0000
0020
0000
0000
0100
0000
0130
0000
1000
0000
0001
0100
0000
0020
,  // measure 33
0000
0000
1000
0000
1030
0000
0001
0000
0100
0010
0000
1000
0000
0200
0000
0000
,  // measure 34
0310
0000
0001
0000
1000
0100
0000
0010
0000
0000
0100
1000
0100
0000
1000
0000
,  // measure 35
0010
0001
0000
0020
0000
0000
1030
0000
1100
0000
0010
0000
1000
0010
0000
0002
,  // measure 36
0000
0000
0103
0000
0110
0000
0001
1000
0000
0000
0010
0000
1000
0000
0100
0000
,  // measure 37
0110
0000
1000
0001
0000
0000
0100
0000
0010
0000
0001
0010
0000
0000
0000
0000
;
