#TITLE:B-minor;
#SUBTITLE:Leahy;
#ARTIST:Leahy;
#TITLETRANSLIT:;
#SUBTITLETRANSLIT:;
#ARTISTTRANSLIT:;
#CREDIT:;
#BANNER:;
#BACKGROUND:;
#LYRICSPATH:;
#CDTITLE:;
#MUSIC:01 - Leahy - B Minor.mp3;
#OFFSET:0.020;
#SAMPLESTART:100.000;
#SAMPLELENGTH:12.000;
#SELECTABLE:YES;
#BPMS:0.000=132.020,33.000=129.000,80.000=133.000,97.000=130.000,128.000=133.000,129.000=132.000,152.000=150.000,153.000=133.000,161.000=131.000,177.000=131.500,209.000=131.000,220.000=132.000,222.000=132.000,224.000=143.000,225.000=131.500,241.000=132.500,257.000=133.500,321.000=136.500,353.000=135.000,396.000=137.000,409.000=139.000,417.000=134.000,449.000=138.000,461.000=139.000,481.000=134.000,496.000=136.000;
#STOPS:32.000=0.040
,224.000=0.040
,257.000=0.020
;
#BGCHANGES:;
// cache tags:
#FIRSTBEAT:1.000;
#LASTBEAT:516.000;
#SONGFILENAME:Songs/toune 6/b minor/01 - Leahy - B Minor.sm;
#HASMUSIC:1;
#HASBANNER:0;
#MUSICLENGTH:239.313;
// end cache tags

//---------------dance-single - ----------------
#NOTES:
     dance-single:
     :
     Hard:
     12:
     1.000,1.000,1.000,1.000,1.000,2121.000,288.000,295.000,0.000,121.000:
0000
0000
0000
0000
1000
0100
0010
0001
2200
3300
0010
0001
1000
0100
2002
3003
,
2020
3030
0022
0033
1000
0100
0010
0001
0220
0330
0001
1000
0010
1000
0100
1000
,
0010
1000
0001
1000
0022
0133
1000
0010
0100
0001
2020
3130
0010
0001
0100
0010
,
1000
0001
0100
0010
2002
3013
0100
0001
1000
0100
0022
0100
1033
0100
0010
0001
,
2200
3310
2002
3013
1100
0010
0001
1100
0010
0001
0110
1000
0110
0001
0010
1100
,
0001
0010
1100
0010
1001
0100
1000
0011
0100
1000
0011
0100
0011
0100
0010
1100
,
0010
0100
0011
0100
0011
1000
1000
0110
0001
0001
0110
1000
0011
0100
0100
1001
,
0010
0010
1001
0100
0011
1000
1000
0101
0010
0010
1100
0010
1100
0010
0001
0010
,
2002
0000
0000
0000
0000
0000
3013
0000
1001
0000
0010
0000
0010
0001
0010
0000
1000
0000
0100
0000
0100
0000
0010
0000
0001
0000
0010
0000
0001
0000
1000
0000
,
0100
0001
0010
0100
1010
0100
1000
0100
1000
0100
0010
0100
1001
0100
0010
0100
,
0001
0000
0000
0000
0000
0000
0000
0000
0010
0000
0000
0000
0000
0000
0000
0000
0100
0000
0000
0000
0000
0000
0000
0000
0001
0000
0000
0000
0000
0000
0000
0000
0000
0000
0000
0000
1000
0000
0000
0000
0000
0000
0000
0000
0000
0000
0000
0000
0011
0000
0000
0000
0000
0000
0000
0000
0000
0000
0000
0000
0100
0000
0000
0000
0000
0000
0000
0000
0000
0000
0000
0000
0100
0000
0000
0000
0000
0000
1000
0000
0000
0000
0000
0000
0100
0000
0000
0000
0000
0000
0000
0000
0000
0000
0000
0000
0010
0000
0000
0000
0000
0000
0000
0000
0000
0000
0000
0000
0001
0000
0000
0000
0000
0000
0000
0000
0000
0000
0000
0000
1000
0000
0000
0000
0000
0000
0000
0000
0000
0000
0000
0000
1000
0000
0000
0000
0000
0000
0000
0000
0000
0000
0000
0000
0100
0000
0000
0000
0000
0000
0000
0000
0000
0000
0000
0000
0001
0000
0000
0000
0000
0000
0000
0000
0000
0000
0000
0000
0010
0000
0000
0000
0000
0000
0000
0000
0000
0000
0000
0000
0001
0000
0000
0000
0000
0000
0000
0000
0000
0000
0000
0000
,
0100
0000
0100
0000
1000
0000
0001
0000
1000
0000
0220
0000
0000
0000
0331
0000
2200
0000
0000
0000
0001
0000
3301
0010
0100
0000
1000
0000
0100
0010
0001
0000
,
2200
0000
0000
0000
0000
0000
3010
0000
1301
0000
0010
0000
0100
0010
0100
0000
1000
0000
0010
0000
0001
0000
0010
0000
1100
0000
1100
0000
0010
0000
0101
0000
,
0101
0000
0000
0010
0000
0000
1000
0000
0000
0100
0000
0000
0001
0010
0100
1000
0000
0000
0010
0000
0000
0100
0000
0000
0010
0000
0000
1000
0000
0000
0100
0000
0000
0010
0000
0000
1000
0000
0000
1000
0000
0000
0100
0000
0000
0010
0000
0000
,
0001
0000
0000
0000
0000
0000
0000
0000
0100
0000
0000
0000
0000
0000
0000
0000
0010
0000
0000
0000
0000
0000
0000
0000
1000
0000
0000
0000
0000
0000
0000
0000
0000
0000
0000
0000
0100
0000
0000
0000
0000
0000
0000
0000
0000
0000
0000
0000
0011
0000
0000
0000
0000
0000
0000
0000
0000
0000
0000
0000
0100
0000
0000
0000
0000
0000
0000
0000
0000
0000
0000
0000
1000
0000
0000
0000
0000
0000
0100
0000
0000
0000
0000
0000
0010
0000
0000
0000
0000
0000
0000
0000
0000
0000
0000
0000
1000
0000
0000
0000
0000
0000
0000
0000
0000
0000
0000
0000
0001
0000
0000
0000
0000
0000
0000
0000
0000
0000
0000
0000
0010
0000
0000
0000
0000
0000
0000
0000
0000
0000
0000
0000
0001
0000
0000
0000
0000
0000
0000
0000
0000
0000
0000
0000
1000
0000
0000
0000
0000
0000
0000
0000
0000
0000
0000
0000
1000
0000
0000
0000
0000
0000
0000
0000
0000
0000
0000
0000
1000
0000
0000
0000
0000
0000
0000
0000
0000
0000
0000
0000
0010
0000
0000
0000
0000
0000
0000
0000
0000
0000
0000
0000
,
0001
0000
0100
0000
0010
0000
1000
0000
1000
0000
0220
0000
0000
0000
0331
0000
2200
0000
0000
0000
0001
0000
3301
0010
0100
0000
1000
0000
0100
0010
0001
0000
,
2200
0000
0000
0000
0000
0000
3010
0000
0301
0000
0010
0000
0100
0000
1000
0001
1000
0000
0001
0000
0010
0000
0001
0000
0001
0000
1000
0000
0100
0000
1000
0000
,
0001
0000
0010
0000
0001
0000
2000
0000
0200
0000
3301
0000
0010
0000
0100
0000
0010
0000
0100
0000
0001
0010
0100
0000
0010
0000
1000
0000
0100
0000
1000
0000
,
0010
0001
0010
1000
0011
0100
1000
0001
0110
1000
0100
0010
1100
0001
0010
0001
,
0110
0000
1000
0000
0100
0000
0010
0000
0001
0100
0010
0000
1000
0000
0010
0000
0100
0000
0100
0000
1010
0000
0001
0000
0001
0000
1001
0000
0100
0000
0100
0000
,
0022
0000
0000
0000
0033
0000
0100
0000
1001
0000
0010
0000
0100
0000
1000
0000
0100
0010
0001
0000
0100
0000
1000
0000
0100
0000
0010
0000
0001
0000
0010
0000
,
1000
0100
1000
0011
0011
1100
0011
1100
0011
1100
0011
1100
0011
1100
0011
1100
,
0022
0000
0000
2033
0002
0000
3223
0000
0331
0010
0001
1000
0100
1000
0010
0001
,
0100
0000
1000
0000
0010
0000
0001
0000
1000
0001
1000
0000
0010
0000
0001
0000
0001
0000
0100
0000
0100
0000
0010
0000
0100
0000
1000
0000
0110
0000
1001
0000
,
0110
0000
1001
0000
0110
0000
1001
0000
0220
0000
0331
0000
1000
0100
1000
0000
0001
0000
0001
0000
0100
0000
0010
0000
0001
0000
0100
0000
0010
0000
0200
0000
,
2300
3200
2300
3010
0100
1000
0010
0001
0100
1000
0010
0001
0100
1000
0001
0010
,
0100
0010
0001
0000
0010
0000
0100
0000
1000
0000
1000
0000
0100
0010
0100
0000
0001
0000
0010
0000
0001
0000
0100
0000
0100
0000
1000
0000
0100
0000
1000
0000
,
0001
0000
0010
0000
0001
0000
0010
0000
1100
0000
0022
0000
0030
0000
0113
0000
2002
0000
0000
0000
3013
0000
0001
0010
0001
0000
0100
0000
1000
0100
1000
0000
,
0220
0000
0000
0000
0330
0000
0010
0000
0100
0000
0010
0000
0100
0010
0001
0000
0100
0000
1000
0000
1000
0000
0010
0000
0010
0000
0100
0000
1000
0000
0020
0000
,
0032
0023
0032
0103
0100
0001
0010
0100
1000
0010
0100
1000
0100
1000
0010
0100
,
1000
0100
0010
0000
0001
0000
0010
0000
1001
0000
0100
0000
0010
0100
1000
0000
0010
0000
0001
0000
0001
0000
1000
0000
0100
0000
1000
0000
0010
0000
1000
0000
,
0001
0000
1000
0000
0100
0000
0001
0000
1100
0000
0022
0000
0030
0000
0113
0000
2002
0000
0000
0000
3013
0000
0001
0010
0001
0000
0100
0000
1000
0100
1000
0000
,
0220
0000
0000
0000
0000
0000
0000
0000
0331
0000
0010
0000
0100
0000
1000
0000
0100
0010
0001
0000
1000
0000
0100
0000
0010
0000
0001
0000
0010
0000
0001
0000
,
0010
0100
1000
0200
2000
3310
0100
1000
0100
0010
0001
1000
1000
0001
0010
0100
,
0010
0001
1000
0100
0001
0110
0001
0100
0010
1100
0010
0100
1000
0110
0001
0010
,
0001
1100
0010
0100
1000
0011
0100
1000
0010
0100
1000
0001
0100
0001
0010
0001
,
1000
0000
1000
0000
0100
0000
0010
0000
0001
0000
0010
0000
0100
0000
0100
0000
0001
0010
0100
0000
1000
0000
0001
0000
0010
0000
0100
0000
1000
0000
0001
0000
,
0010
0100
1000
0001
0110
0110
0011
0011
1100
1100
1001
1001
0110
0110
0011
0011
,
2200
0000
0000
0010
3302
0000
2000
0000
3103
0010
0001
0100
0001
0010
0001
1000
,
0100
0000
0010
0000
0010
0000
1000
0000
0100
0010
0100
0000
0001
0000
0010
0000
0100
0000
0010
0000
1000
0000
0100
0000
0010
0000
0001
0000
0010
0000
0100
0000
,
1000
0000
0100
0000
0010
0000
0100
0000
2002
0000
0000
0000
0000
0000
3103
0000
0010
0100
1000
0000
0001
0000
0010
0000
0100
0000
0010
0000
0001
0010
0100
0000
,
1000
0000
1000
0000
0100
0000
0100
0000
2002
0000
0000
0000
0000
0000
3013
0000
0100
0010
0001
0000
1000
0000
0100
0000
0010
0000
0100
0000
0001
0010
0001
0000
,
1000
0000
0000
0100
0000
0000
0010
0000
0000
0001
0000
0000
2002
0000
0000
0000
0003
0000
0001
0000
0100
3000
0010
0000
2000
0000
0000
0000
0000
0000
0001
0000
0100
3000
0010
0000
2000
0000
0000
0000
0000
0000
0001
0000
0100
3000
0010
0000
,
2000
0000
0000
0000
0000
0000
0001
0000
0100
3000
0010
0000
1000
0000
0001
0000
0010
0000
0100
0000
0001
0000
0010
0000
0100
0000
0001
0000
0010
0000
0100
0000
0001
0000
0010
0000
0100
0000
0001
0000
0010
0000
0100
0000
0001
0000
0010
0000
,
0200
0000
0000
0000
2000
0000
0000
0000
3311
0000
0100
0000
0010
0001
1000
0000
0220
0000
0000
0000
0000
0000
0331
0000
1100
0000
0010
0000
0001
0000
0100
0000
,
0011
0000
0100
0000
1000
0000
0100
0000
0011
0000
0100
0000
1000
0100
0010
0000
2000
0000
0000
0000
3100
0000
0010
0000
0001
0000
0100
0000
0010
0000
0001
0000
,
1000
0000
0010
0000
0100
0000
1000
0000
0011
0000
0100
0000
0010
0100
1000
0000
0110
0000
0001
0000
0010
0000
0100
0000
0011
0000
1000
0000
0100
0000
0010
0000
,
1100
0000
0000
0000
0000
0000
0000
0000
0000
0000
0000
0000
0001
0000
0000
0000
0000
0000
0000
0000
0000
0000
0000
0000
0010
0000
0000
0000
0000
0000
0000
0000
0000
0000
0000
0000
0100
0000
0000
0000
0000
0000
0000
0000
0000
0000
0000
0000
0002
0000
0000
0000
0000
0000
0000
0000
0000
0000
0000
0000
1003
0000
0000
0000
0000
0000
0000
0000
0000
0000
0000
0000
0100
0000
0000
0000
0000
0000
0010
0000
0000
0000
0000
0000
0100
0000
0000
0000
0000
0000
0000
0000
0000
0000
0000
0000
0001
0000
0000
0000
0000
0000
0000
0000
0000
0000
0000
0000
1000
0000
0000
0000
0000
0000
0000
0000
0000
0000
0000
0000
0100
0000
0000
0000
0000
0000
0000
0000
0000
0000
0000
0000
0010
0000
0000
0000
0000
0000
0000
0000
0000
0000
0000
0000
0100
0000
0000
0000
0000
0000
0000
0000
0000
0000
0000
0000
0010
0000
0000
0000
0000
0000
0000
0000
0000
0000
0000
0000
0001
0000
0000
0000
0000
0000
0000
0000
0010
0000
0000
0000
0000
0000
0000
0000
0100
0000
0000
0000
0000
0000
0000
0000
,
1000
0100
1000
0100
0011
0001
1000
0001
0100
0001
0010
0001
1000
0100
0010
0100
,
0010
0001
0010
0100
0001
0001
1000
0001
0100
0001
0010
0001
0100
0010
0100
1000
,
0010
0001
0010
0100
1000
1000
0001
1000
0010
1000
0100
1000
0001
0010
0001
1000
,
0100
0000
1000
0000
0100
0000
1000
0000
0001
1000
0001
0000
1000
0000
1000
0000
0001
0000
1000
0000
0010
0000
1000
0000
0100
0000
1000
0000
0100
0000
0010
0000
,
0001
0000
1000
0000
0100
0000
0010
0000
2002
0000
0000
0000
0000
0000
3103
0000
0010
0100
1000
0000
0001
0000
0010
0000
0100
0000
0010
0000
0001
0010
0100
0000
,
1000
0000
1000
0000
0100
0000
0100
0000
2002
0000
0000
0000
0000
0000
3013
0000
0100
0010
0001
0000
1000
0000
0100
0000
0010
0000
0100
0000
0001
0010
0001
0000
,
1000
0000
0000
0100
0000
0000
0010
0000
0000
0001
0000
0000
0002
0000
0000
0000
0000
0000
1000
0000
0010
0003
0100
0000
0002
0000
0000
0000
0000
0000
1000
0000
0013
0000
0100
0000
0002
0000
0000
0000
0000
0000
1000
0000
0013
0000
0100
0000
,
0002
0000
0000
1000
0013
0100
0001
1000
0100
0010
1000
0100
0010
1000
0100
0010
1000
0100
0010
1000
0100
0010
1000
0100
,
0020
0000
0000
0000
0002
0000
0000
0000
1133
0000
0100
0000
0010
0001
1000
0000
0220
0000
0000
0000
0000
0000
0331
0000
1100
0000
0010
0000
0001
0000
0100
0000
,
0011
0000
0100
0000
1000
0000
0100
0000
0011
0000
0100
0000
1000
0100
0010
0000
2000
0000
0000
0000
3100
0000
0010
0000
0001
0000
0100
0000
0010
0000
0001
0000
,
1000
0000
0010
0000
0100
0000
1000
0000
0011
0000
0100
0000
0010
0100
1000
0000
0110
0000
0001
0000
0010
0000
0100
0000
0011
0000
1000
0000
0100
0000
0010
0000
,
1100
0000
0000
0000
0000
0000
0000
0000
0000
0000
0000
0000
0001
0000
0000
0000
0000
0000
0000
0000
0000
0000
0000
0000
0010
0000
0000
0000
0000
0000
0000
0000
0000
0000
0000
0000
0100
0000
0000
0000
0000
0000
0000
0000
0000
0000
0000
0000
0002
0000
0000
0000
0000
0000
0000
0000
0000
0000
0000
0000
1003
0000
0000
0000
0000
0000
0000
0000
0000
0000
0000
0000
0100
0000
0000
0000
0000
0000
0010
0000
0000
0000
0000
0000
0100
0000
0000
0000
0000
0000
0000
0000
0000
0000
0000
0000
0001
0000
0000
0000
0000
0000
0000
0000
0000
0000
0000
0000
1000
0000
0000
0000
0000
0000
0000
0000
0000
0000
0000
0000
0100
0000
0000
0000
0000
0000
0000
0000
0000
0000
0000
0000
0010
0000
0000
0000
0000
0000
0000
0000
0000
0000
0000
0000
0100
0000
0000
0000
0000
0000
0000
0000
0000
0000
0000
0000
0010
0000
0000
0000
0000
0000
0000
0000
0000
0000
0000
0000
0001
0000
0000
0000
0000
0000
0000
0000
0010
0000
0000
0000
0000
0000
0000
0000
0100
0000
0000
0000
0000
0000
0000
0000
,
1000
0100
1000
0100
0011
0001
1000
0001
0100
0001
0010
0001
1000
0100
0010
0100
,
0010
0001
0010
0100
0001
0001
1000
0001
0100
0001
0010
0001
0100
0010
0100
1000
,
0010
0001
0010
0100
1000
1000
0001
1000
0010
1000
0100
1000
0001
0010
0001
1000
,
0100
0000
1000
0000
0100
0000
1000
0000
0001
1000
0001
0000
1000
0000
1000
0000
0001
0000
1000
0000
0010
0000
1000
0000
0100
0000
1000
0000
0100
0000
0010
0000
,
0001
1000
0220
0000
2332
0000
0000
0000
0000
0000
0000
0003
3202
0000
0000
0000
,
0000
0000
0000
0300
0223
0000
0000
0000
0000
0000
0000
0330
2002
0000
3213
0300
,
0001
0000
2002
0000
0000
0000
3003
0000
0210
0000
0001
0000
0010
0001
0010
0000
0001
0000
0010
0000
0001
0000
0310
0000
1002
0000
0010
0000
0100
0010
0100
0000
,
0010
0000
1000
0000
0100
0000
0013
0000
2100
0000
0010
0000
0001
0010
0100
0000
0010
0000
0010
0000
0001
0000
3100
0000
0022
0000
1033
0000
0220
0000
0331
0000
,
0010
2200
3310
0100
2002
3103
0010
0001
0010
0202
0313
0001
2020
0100
3031
0220
,
1000
0331
2020
3031
0220
0331
0010
0100
1000
0010
0100
1000
0011
0100
1000
0001
,
0010
0100
0010
0100
1001
0100
0010
1001
0010
0100
0011
0100
1000
0101
0010
0001
,
0110
1000
0001
1100
0010
0001
0010
0100
1000
0100
0010
0001
0010
0100
1000
0100
,
0010
0000
0001
0000
2200
0000
0300
0000
3220
0000
0001
1000
0331
0000
1000
0010
1000
0000
0100
0010
0100
0000
0001
0010
0100
0000
1000
0100
1000
0000
0010
0001
,
0010
0000
0000
0000
0000
0000
0000
0000
0000
0000
0000
0000
1000
0000
0000
0000
0000
0000
0100
0000
0000
0000
0000
0000
0010
0000
0000
0000
0000
0000
0000
0000
0000
0000
0000
0000
0001
0000
0000
0000
0000
0000
0010
0000
0000
0000
0000
0000
0100
0000
0000
0000
0000
0000
0000
0000
0000
0000
0000
0000
0100
0000
0000
0000
0000
0000
0000
0000
0000
0000
0000
0000
0011
0000
0000
0000
0000
0000
0000
0000
0000
0000
0000
0000
0100
0000
0000
0000
0000
0000
0000
0000
0000
0000
0000
0000
1000
0000
0000
0000
0000
0000
0000
0000
0000
0000
0000
0000
0100
0000
0000
0000
0000
0000
0000
0000
0000
0000
0000
0000
0001
0000
0000
0000
0000
0000
0000
0000
0010
0000
0000
0000
0000
0000
0000
0000
0100
0000
0000
0000
0000
0000
0000
0000
1000
0000
0000
0000
0000
0000
0000
0000
0000
0000
0000
0000
1000
0000
0000
0000
0000
0000
0000
0000
0000
0000
0000
0000
0110
0000
0000
0000
0000
0000
0000
0000
0000
0000
0000
0000
0001
0000
0000
0000
0000
0000
0000
0000
0000
0000
0000
0000
,
0010
0000
0000
0000
0000
0000
0000
0000
0000
0000
0000
0000
0100
0000
0000
0000
0000
0000
0000
0000
0000
0000
0000
0000
1000
0000
0000
0000
0000
0000
0000
0000
0100
0000
0000
0000
0000
0000
0000
0000
0010
0000
0000
0000
0000
0000
0000
0000
1001
0000
0000
0000
0000
0000
0000
0000
0000
0000
0000
0000
0100
0000
0000
0000
0000
0000
0010
0000
0000
0000
0000
0000
0100
0000
0000
0000
0000
0000
0000
0000
0000
0000
0000
0000
0001
0000
0000
0000
0000
0000
0010
0000
0000
0000
0000
0000
0001
0000
0000
0000
0000
0000
0000
0000
0000
0000
0000
0000
1000
0000
0000
0000
0000
0000
0100
0000
0000
0000
0000
0000
1000
0000
0000
0000
0000
0000
0000
0000
0000
0000
0000
0000
0010
0000
0000
0000
0000
0000
0100
0000
0000
0000
0000
0000
1000
0000
0000
0000
0000
0000
0000
0000
0000
0000
0000
0000
0001
0000
0000
0000
0000
0000
0010
0000
0000
0000
0000
0000
0100
0000
0000
0000
0000
0000
0000
0000
0000
0000
0000
0000
0010
0000
0000
0000
0000
0000
0100
0000
0000
0000
0000
0000
,
1000
0000
0001
0010
0100
0000
1000
0100
0022
0000
0030
0000
0100
0000
0010
0000
0100
0000
1000
0000
0220
0000
1033
0000
0010
0000
0301
0000
2020
0000
3030
0000
,
0022
0000
0000
0000
2200
0000
0333
0000
3220
0000
0001
1000
0331
0000
1000
0010
1000
0000
0100
0010
0100
0000
0001
0010
0100
0000
1000
0100
1000
0000
0010
0001
,
0010
0000
0000
0000
0000
0000
0000
0000
0000
0000
0000
0000
1000
0000
0000
0000
0000
0000
0100
0000
0000
0000
0000
0000
0010
0000
0000
0000
0000
0000
0000
0000
0000
0000
0000
0000
0001
0000
0000
0000
0000
0000
0010
0000
0000
0000
0000
0000
0100
0000
0000
0000
0000
0000
0000
0000
0000
0000
0000
0000
0100
0000
0000
0000
0000
0000
0000
0000
0000
0000
0000
0000
0011
0000
0000
0000
0000
0000
0000
0000
0000
0000
0000
0000
0100
0000
0000
0000
0000
0000
0000
0000
0000
0000
0000
0000
1000
0000
0000
0000
0000
0000
0000
0000
0000
0000
0000
0000
0100
0000
0000
0000
0000
0000
0000
0000
0000
0000
0000
0000
0001
0000
0000
0000
0000
0000
0000
0000
0010
0000
0000
0000
0000
0000
0000
0000
0100
0000
0000
0000
0000
0000
0000
0000
1000
0000
0000
0000
0000
0000
0000
0000
0000
0000
0000
0000
1000
0000
0000
0000
0000
0000
0000
0000
0000
0000
0000
0000
0110
0000
0000
0000
0000
0000
0000
0000
0000
0000
0000
0000
0001
0000
0000
0000
0000
0000
0000
0000
0000
0000
0000
0000
,
0010
0000
0000
0000
0000
0000
0000
0000
0000
0000
0000
0000
0100
0000
0000
0000
0000
0000
0000
0000
0000
0000
0000
0000
1000
0000
0000
0000
0000
0000
0000
0000
0100
0000
0000
0000
0000
0000
0000
0000
0010
0000
0000
0000
0000
0000
0000
0000
1001
0000
0000
0000
0000
0000
0000
0000
0000
0000
0000
0000
0100
0000
0000
0000
0000
0000
0010
0000
0000
0000
0000
0000
0100
0000
0000
0000
0000
0000
0000
0000
0000
0000
0000
0000
0001
0000
0000
0000
0000
0000
0010
0000
0000
0000
0000
0000
0001
0000
0000
0000
0000
0000
0000
0000
0000
0000
0000
0000
1000
0000
0000
0000
0000
0000
0100
0000
0000
0000
0000
0000
1000
0000
0000
0000
0000
0000
0000
0000
0000
0000
0000
0000
0010
0000
0000
0000
0000
0000
0100
0000
0000
0000
0000
0000
1000
0000
0000
0000
0000
0000
0000
0000
0000
0000
0000
0000
0001
0000
0000
0000
0000
0000
0010
0000
0000
0000
0000
0000
0100
0000
0000
0000
0000
0000
0000
0000
0000
0000
0000
0000
0010
0000
0000
0000
0000
0000
0100
0000
0000
0000
0000
0000
,
1000
0000
0001
0010
0100
0000
1000
0100
0022
0000
0030
0000
0100
0000
0010
0000
0100
0000
1000
0000
0220
0000
1033
0000
0010
0000
0301
0000
2020
0000
3030
0000
,
0022
0000
2200
0333
3001
0010
0100
0010
1000
0001
0100
0001
0010
0001
0100
1000
,
0100
0010
0100
1000
0001
0010
0100
0010
1000
0100
0010
0001
0010
0001
0100
0010
,
0100
0010
0100
1000
0100
1000
0100
0010
0001
0010
0001
0100
0010
0001
0010
0100
,
1000
0001
0010
0100
0010
0100
1000
0100
0010
0001
0100
0010
0100
0010
0001
0100
,
1000
0100
0022
0000
2233
0010
3301
0100
0001
0010
0001
0010
2200
3310
0001
0100
,
0010
0100
1000
0010
0202
0313
0100
1000
0100
0001
0010
0100
2002
3103
0010
0001
,
0010
0001
1000
0001
0220
1330
0001
1000
0001
0010
0100
0010
2200
3310
0001
0010
,
0001
0100
1000
0100
0022
0133
0010
0001
0010
1000
0001
0010
2002
3013
0100
0010
,
0001
0010
0100
1000
0022
0000
0000
0000
2233
0000
3001
1000
0301
0000
1000
0010
1000
0000
0100
0010
0100
0000
0001
0010
0100
0000
1000
0100
1000
0000
0010
0001
,
0010
0000
0000
0000
0000
0000
0000
0000
0000
0000
0000
0000
1000
0000
0000
0000
0000
0000
0100
0000
0000
0000
0000
0000
0010
0000
0000
0000
0000
0000
0000
0000
0000
0000
0000
0000
0001
0000
0000
0000
0000
0000
0010
0000
0000
0000
0000
0000
0100
0000
0000
0000
0000
0000
0000
0000
0000
0000
0000
0000
0100
0000
0000
0000
0000
0000
0000
0000
0000
0000
0000
0000
0011
0000
0000
0000
0000
0000
0000
0000
0000
0000
0000
0000
0100
0000
0000
0000
0000
0000
0000
0000
0000
0000
0000
0000
1000
0000
0000
0000
0000
0000
0000
0000
0000
0000
0000
0000
0100
0000
0000
0000
0000
0000
0000
0000
0000
0000
0000
0000
0001
0000
0000
0000
0000
0000
0000
0000
0010
0000
0000
0000
0000
0000
0000
0000
0100
0000
0000
0000
0000
0000
0000
0000
1000
0000
0000
0000
0000
0000
0000
0000
0000
0000
0000
0000
1000
0000
0000
0000
0000
0000
0000
0000
0000
0000
0000
0000
0110
0000
0000
0000
0000
0000
0000
0000
0000
0000
0000
0000
0001
0000
0000
0000
0000
0000
0000
0000
0000
0000
0000
0000
,
0010
0000
0000
0000
0000
0000
0000
0000
0000
0000
0000
0000
0100
0000
0000
0000
0000
0000
0000
0000
0000
0000
0000
0000
1000
0000
0000
0000
0000
0000
0000
0000
0100
0000
0000
0000
0000
0000
0000
0000
0010
0000
0000
0000
0000
0000
0000
0000
1001
0000
0000
0000
0000
0000
0000
0000
0000
0000
0000
0000
0100
0000
0000
0000
0000
0000
0010
0000
0000
0000
0000
0000
0100
0000
0000
0000
0000
0000
0000
0000
0000
0000
0000
0000
0001
0000
0000
0000
0000
0000
0010
0000
0000
0000
0000
0000
0001
0000
0000
0000
0000
0000
0000
0000
0000
0000
0000
0000
1000
0000
0000
0000
0000
0000
0100
0000
0000
0000
0000
0000
1000
0000
0000
0000
0000
0000
0000
0000
0000
0000
0000
0000
0010
0000
0000
0000
0000
0000
0100
0000
0000
0000
0000
0000
1000
0000
0000
0000
0000
0000
0000
0000
0000
0000
0000
0000
0001
0000
0000
0000
0000
0000
0010
0000
0000
0000
0000
0000
0100
0000
0000
0000
0000
0000
0000
0000
0000
0000
0000
0000
0010
0000
0000
0000
0000
0000
0100
0000
0000
0000
0000
0000
,
1000
0000
0001
0010
0100
0000
1000
0100
0022
0000
0030
0000
0100
0000
0010
0000
0100
0000
1000
0000
0220
0000
1033
0000
0010
0000
0301
0000
2020
0000
3030
0000
,
0022
0000
0000
0000
2200
0000
0333
0000
3220
0000
0001
1000
0331
0000
1000
0010
1000
0000
0100
0010
0100
0000
0001
0010
0100
0000
1000
0100
1000
0000
0010
0001
,
0010
0000
0000
0000
0000
0000
0000
0000
0000
0000
0000
0000
1000
0000
0000
0000
0000
0000
0100
0000
0000
0000
0000
0000
0010
0000
0000
0000
0000
0000
0000
0000
0000
0000
0000
0000
0001
0000
0000
0000
0000
0000
0010
0000
0000
0000
0000
0000
0100
0000
0000
0000
0000
0000
0000
0000
0000
0000
0000
0000
0100
0000
0000
0000
0000
0000
0000
0000
0000
0000
0000
0000
0011
0000
0000
0000
0000
0000
0000
0000
0000
0000
0000
0000
0100
0000
0000
0000
0000
0000
0000
0000
0000
0000
0000
0000
1000
0000
0000
0000
0000
0000
0000
0000
0000
0000
0000
0000
0100
0000
0000
0000
0000
0000
0000
0000
0000
0000
0000
0000
0001
0000
0000
0000
0000
0000
0000
0000
0010
0000
0000
0000
0000
0000
0000
0000
0100
0000
0000
0000
0000
0000
0000
0000
1000
0000
0000
0000
0000
0000
0000
0000
0000
0000
0000
0000
1000
0000
0000
0000
0000
0000
0000
0000
0000
0000
0000
0000
0110
0000
0000
0000
0000
0000
0000
0000
0000
0000
0000
0000
0001
0000
0000
0000
0000
0000
0000
0000
0000
0000
0000
0000
,
0010
0000
0000
0000
0000
0000
0000
0000
0000
0000
0000
0000
0100
0000
0000
0000
0000
0000
0000
0000
0000
0000
0000
0000
1000
0000
0000
0000
0000
0000
0000
0000
0100
0000
0000
0000
0000
0000
0000
0000
0010
0000
0000
0000
0000
0000
0000
0000
1001
0000
0000
0000
0000
0000
0000
0000
0000
0000
0000
0000
0100
0000
0000
0000
0000
0000
0010
0000
0000
0000
0000
0000
0100
0000
0000
0000
0000
0000
0000
0000
0000
0000
0000
0000
0001
0000
0000
0000
0000
0000
0010
0000
0000
0000
0000
0000
0001
0000
0000
0000
0000
0000
0000
0000
0000
0000
0000
0000
1000
0000
0000
0000
0000
0000
0100
0000
0000
0000
0000
0000
1000
0000
0000
0000
0000
0000
0000
0000
0000
0000
0000
0000
0010
0000
0000
0000
0000
0000
0100
0000
0000
0000
0000
0000
1000
0000
0000
0000
0000
0000
0000
0000
0000
0000
0000
0000
0001
0000
0000
0000
0000
0000
0010
0000
0000
0000
0000
0000
0100
0000
0000
0000
0000
0000
0000
0000
0000
0000
0000
0000
0010
0000
0000
0000
0000
0000
0100
0000
0000
0000
0000
0000
,
1000
0000
0001
0010
0100
0000
1000
0100
0022
0000
0030
0000
0100
0000
0010
0000
0100
0000
1000
0000
0220
0000
1033
0000
0010
0000
0301
0000
2020
0000
3030
0000
,
0022
0000
2200
0333
3001
0002
0100
0013
2200
0310
0100
0001
3010
0020
0100
0031
,
2200
0000
0000
3010
0000
0000
0001
0000
0000
0310
0000
0000
1000
0000
0000
2000
0000
0000
0001
0000
0000
0010
0000
0000
3202
0000
0000
1300
0000
0000
0010
0000
0100
0003
1000
0000
0100
0000
0000
0100
0000
0000
0011
0000
0000
0011
0000
0000
,
1000
1000
0011
0011
2000
3002
0010
0100
0013
0200
0010
0001
2300
3002
0010
0100
,
1003
0100
1000
0100
0010
0100
0010
0001
0010
0001
1100
1100
0010
0010
1100
1100
,
0001
0001
0110
0110
1000
1000
1000
1000
0001
0001
0001
0001
0010
0010
0010
0010
,
0100
0100
0100
0100
1000
0001
0010
0001
0100
0001
0010
0001
1000
1000
0011
0011
,
0100
1010
0100
0010
0001
0110
1000
0110
0001
0110
1000
0110
0001
0110
1000
0110
,
0001
0000
0000
0110
0000
0000
1000
0000
0000
0110
0000
0000
0001
0000
0000
0110
0000
0000
1000
0000
0000
0110
0000
0000
0001
0000
0000
0110
0000
0000
1000
0000
0000
0110
0000
0000
0001
0000
0000
0110
0000
0000
0001
0000
0100
0000
0010
0000
,
2000
0000
0000
0000
0000
0000
0000
0000
0000
0000
0000
0000
0000
0000
0000
0000
0000
0000
0000
0000
0000
0000
0000
0000
0001
0000
0000
0000
0000
0000
0010
0000
0000
0000
0000
0000
0100
0000
0000
0000
3000
0000
1000
0000
0000
0000
0000
0000
0022
0000
0000
0000
0000
0000
0000
0000
0033
0000
0000
0000
1000
0000
0000
0000
0000
0000
0001
0000
0000
0000
0000
0000
1000
0000
0000
0000
0000
0000
0000
0000
0000
0000
0000
0000
0001
0000
0000
0000
0000
0000
0010
0000
0000
0000
0000
0000
0001
0000
0000
0000
0000
0000
0000
0000
0000
0000
0000
0000
0100
0000
0000
0000
0000
0000
0010
0000
0000
0000
0000
0000
0100
0000
0000
0000
0000
0000
0000
0000
0000
0000
0000
0000
0001
0000
0000
0000
0000
0000
0010
0000
0000
0000
0000
0000
0100
0000
0000
0000
0000
0000
0000
0000
0000
0000
0000
0000
1000
0000
0000
0000
0000
0000
0100
0000
0000
0000
0000
0000
1000
0000
0000
0000
0000
0000
0000
0000
0000
0000
0000
0000
0010
0000
0000
0000
0000
0000
0001
0000
0000
0000
0000
0000
,
0010
0000
0000
0000
0000
0000
0000
0000
0000
0000
0000
0000
1000
0000
0000
0000
0000
0000
0100
0000
0000
0000
0000
0000
0010
0000
0000
0000
0000
0000
0000
0000
0000
0000
0000
0000
0001
0000
0000
0000
0000
0000
0010
0000
0000
0000
0000
0000
0100
0000
0000
0000
0000
0000
0000
0000
0000
0000
0000
0000
0100
0000
0000
0000
0000
0000
0000
0000
0000
0000
0000
0000
0011
0000
0000
0000
0000
0000
0000
0000
0000
0000
0000
0000
0100
0000
0000
0000
0000
0000
0000
0000
0000
0000
0000
0000
1000
0000
0000
0000
0000
0000
0000
0000
0000
0000
0000
0000
0100
0000
0000
0000
0000
0000
0000
0000
0000
0000
0000
0000
0001
0000
0000
0000
0000
0000
0000
0000
0010
0000
0000
0000
0000
0000
0000
0000
0100
0000
0000
0000
0000
0000
0000
0000
1000
0000
0000
0000
0000
0000
0000
0000
0000
0000
0000
0000
1000
0000
0000
0000
0000
0000
0000
0000
0000
0000
0000
0000
0110
0000
0000
0000
0000
0000
0000
0000
0000
0000
0000
0000
0001
0000
0000
0000
0000
0000
0000
0000
0000
0000
0000
0000
,
0010
0000
0000
0000
0000
0000
0000
0000
0000
0000
0000
0000
0100
0000
0000
0000
0000
0000
0000
0000
0000
0000
0000
0000
1000
0000
0000
0000
0000
0000
0000
0000
0100
0000
0000
0000
0000
0000
0000
0000
0010
0000
0000
0000
0000
0000
0000
0000
1001
0000
0000
0000
0000
0000
0000
0000
0000
0000
0000
0000
0100
0000
0000
0000
0000
0000
0010
0000
0000
0000
0000
0000
0100
0000
0000
0000
0000
0000
0000
0000
0000
0000
0000
0000
0001
0000
0000
0000
0000
0000
0010
0000
0000
0000
0000
0000
0001
0000
0000
0000
0000
0000
0000
0000
0000
0000
0000
0000
1000
0000
0000
0000
0000
0000
0100
0000
0000
0000
0000
0000
1000
0000
0000
0000
0000
0000
0000
0000
0000
0000
0000
0000
0010
0000
0000
0000
0000
0000
0100
0000
0000
0000
0000
0000
1000
0000
0000
0000
0000
0000
0000
0000
0000
0000
0000
0000
0001
0000
0000
0000
0000
0000
0010
0000
0000
0000
0000
0000
0100
0000
0000
0000
0000
0000
0000
0000
0000
0000
0000
0000
0010
0000
0000
0000
0000
0000
0100
0000
0000
0000
0000
0000
,
1000
0000
0001
0010
0100
0000
1000
0100
0022
0000
0030
0000
0100
0000
0010
0000
0100
0000
1000
0000
0220
0000
1033
0000
0010
0000
0301
0000
2020
0000
3030
0000
,
0022
0000
0000
0000
2200
0000
0333
0000
3220
0000
0001
1000
0331
0000
1000
0010
1000
0000
0100
0010
0100
0000
0001
0010
0100
0000
1000
0100
1000
0000
0010
0001
,
0010
0000
0000
0000
0000
0000
0000
0000
0000
0000
0000
0000
1000
0000
0000
0000
0000
0000
0100
0000
0000
0000
0000
0000
0010
0000
0000
0000
0000
0000
0000
0000
0000
0000
0000
0000
0001
0000
0000
0000
0000
0000
0010
0000
0000
0000
0000
0000
0100
0000
0000
0000
0000
0000
0000
0000
0000
0000
0000
0000
0100
0000
0000
0000
0000
0000
0000
0000
0000
0000
0000
0000
0011
0000
0000
0000
0000
0000
0000
0000
0000
0000
0000
0000
0100
0000
0000
0000
0000
0000
0000
0000
0000
0000
0000
0000
1000
0000
0000
0000
0000
0000
0000
0000
0000
0000
0000
0000
0100
0000
0000
0000
0000
0000
0000
0000
0000
0000
0000
0000
0001
0000
0000
0000
0000
0000
0000
0000
0010
0000
0000
0000
0000
0000
0000
0000
0100
0000
0000
0000
0000
0000
0000
0000
1000
0000
0000
0000
0000
0000
0000
0000
0000
0000
0000
0000
1000
0000
0000
0000
0000
0000
0000
0000
0000
0000
0000
0000
0110
0000
0000
0000
0000
0000
0000
0000
0000
0000
0000
0000
0001
0000
0000
0000
0000
0000
0000
0000
0000
0000
0000
0000
,
0010
0000
0000
0000
0000
0000
0000
0000
0000
0000
0000
0000
0100
0000
0000
0000
0000
0000
0000
0000
0000
0000
0000
0000
1000
0000
0000
0000
0000
0000
0000
0000
0100
0000
0000
0000
0000
0000
0000
0000
0010
0000
0000
0000
0000
0000
0000
0000
1001
0000
0000
0000
0000
0000
0000
0000
0000
0000
0000
0000
0100
0000
0000
0000
0000
0000
0010
0000
0000
0000
0000
0000
0100
0000
0000
0000
0000
0000
0000
0000
0000
0000
0000
0000
0001
0000
0000
0000
0000
0000
0010
0000
0000
0000
0000
0000
0001
0000
0000
0000
0000
0000
0000
0000
0000
0000
0000
0000
1000
0000
0000
0000
0000
0000
0100
0000
0000
0000
0000
0000
1000
0000
0000
0000
0000
0000
0000
0000
0000
0000
0000
0000
0010
0000
0000
0000
0000
0000
0100
0000
0000
0000
0000
0000
1000
0000
0000
0000
0000
0000
0000
0000
0000
0000
0000
0000
0001
0000
0000
0000
0000
0000
0010
0000
0000
0000
0000
0000
0100
0000
0000
0000
0000
0000
0000
0000
0000
0000
0000
0000
0010
0000
0000
0000
0000
0000
0100
0000
0000
0000
0000
0000
,
1000
0000
0001
0010
0100
0000
1000
0100
0022
0000
0030
0000
0100
0000
0010
0000
0100
0000
1000
0000
0220
0000
1033
0000
0010
0000
0301
0000
2020
0000
3030
0000
,
0022
0000
2200
0333
3001
0002
0100
0013
2200
0310
0100
0001
3010
0020
0100
0031
,
2200
0000
0000
3010
0000
0000
0001
0000
0000
0310
0000
0000
1000
0000
0000
2000
0000
0000
0001
0000
0000
0010
0000
0000
3202
0000
0000
1300
0000
0000
0010
0000
0100
0003
1000
0000
0100
0000
0000
0100
0000
0000
0011
0000
0000
0011
0000
0000
,
1000
0000
1000
0000
0011
0000
0011
0000
1000
0000
0001
0010
0001
0000
0100
0000
0001
0010
0001
0000
1000
0000
0001
0010
0001
0000
0100
0000
0001
0010
0001
0000
,
1000
0000
0010
0100
1000
0100
0010
0001
2000
0000
0000
0000
0002
0000
0000
0000
3000
0000
0010
0000
0103
0000
1000
0000
0001
0000
0001
0000
0110
0000
0110
0000
,
1000
1000
0110
0110
1001
2002
0000
0000
3223
0000
0000
0330
0011
0022
0000
0030
,
2023
0000
0000
0000
0000
0000
0000
0000
3130
1000
0100
0010
0001
0000
0010
0000
0100
0000
0010
0000
0001
0000
0010
0000
0100
0000
0010
0000
1001
0000
1001
0000
,
0010
0100
1001
1001
0010
0010
1000
1000
0001
0001
0100
0100
0010
0010
0100
0100
,
0001
0001
0010
0010
1000
1000
0100
0100
0010
0010
0001
0001
0010
0010
0100
0100
,
2000
0000
0000
0000
0001
0010
3100
1000
0220
0000
0001
1000
0331
0000
1000
0010
1000
0000
0100
0010
0100
0000
0001
0010
0100
0000
1000
0100
1000
0000
0010
0001
,
0010
0000
0000
0000
0000
0000
0000
0000
0000
0000
0000
0000
1000
0000
0000
0000
0000
0000
0100
0000
0000
0000
0000
0000
0010
0000
0000
0000
0000
0000
0000
0000
0000
0000
0000
0000
0001
0000
0000
0000
0000
0000
0010
0000
0000
0000
0000
0000
0100
0000
0000
0000
0000
0000
0000
0000
0000
0000
0000
0000
0100
0000
0000
0000
0000
0000
0000
0000
0000
0000
0000
0000
0011
0000
0000
0000
0000
0000
0000
0000
0000
0000
0000
0000
0100
0000
0000
0000
0000
0000
0000
0000
0000
0000
0000
0000
1000
0000
0000
0000
0000
0000
0000
0000
0000
0000
0000
0000
0100
0000
0000
0000
0000
0000
0000
0000
0000
0000
0000
0000
0001
0000
0000
0000
0000
0000
0000
0000
0010
0000
0000
0000
0000
0000
0000
0000
0100
0000
0000
0000
0000
0000
0000
0000
1000
0000
0000
0000
0000
0000
0000
0000
0000
0000
0000
0000
1000
0000
0000
0000
0000
0000
0000
0000
0000
0000
0000
0000
0110
0000
0000
0000
0000
0000
0000
0000
0000
0000
0000
0000
0001
0000
0000
0000
0000
0000
0000
0000
0000
0000
0000
0000
,
0010
0000
0000
0000
0000
0000
0000
0000
0000
0000
0000
0000
0100
0000
0000
0000
0000
0000
0000
0000
0000
0000
0000
0000
1000
0000
0000
0000
0000
0000
0000
0000
0100
0000
0000
0000
0000
0000
0000
0000
0010
0000
0000
0000
0000
0000
0000
0000
1001
0000
0000
0000
0000
0000
0000
0000
0000
0000
0000
0000
0100
0000
0000
0000
0000
0000
0010
0000
0000
0000
0000
0000
0100
0000
0000
0000
0000
0000
0000
0000
0000
0000
0000
0000
0001
0000
0000
0000
0000
0000
0010
0000
0000
0000
0000
0000
0001
0000
0000
0000
0000
0000
0000
0000
0000
0000
0000
0000
1000
0000
0000
0000
0000
0000
0100
0000
0000
0000
0000
0000
1000
0000
0000
0000
0000
0000
0000
0000
0000
0000
0000
0000
0010
0000
0000
0000
0000
0000
0100
0000
0000
0000
0000
0000
1000
0000
0000
0000
0000
0000
0000
0000
0000
0000
0000
0000
0001
0000
0000
0000
0000
0000
0010
0000
0000
0000
0000
0000
0100
0000
0000
0000
0000
0000
0000
0000
0000
0000
0000
0000
0010
0000
0000
0000
0000
0000
0100
0000
0000
0000
0000
0000
,
1000
0000
0001
0010
0100
0000
1000
0100
0022
0000
0030
0000
0100
0000
0010
0000
0100
0000
1000
0000
0220
0000
1033
0000
0010
0000
0301
0000
2020
0000
3030
0000
,
0022
0000
0000
0000
2200
0000
0333
0000
3001
0000
1000
0100
1000
0000
0001
0010
0100
0000
1000
0000
0100
0000
0022
0000
1033
0000
0100
0000
0022
0000
1033
0000
,
0100
0000
2002
0000
3103
0000
0010
0000
1000
0100
0010
0001
2000
0000
0000
0000
3020
0000
0000
0000
0000
0000
0000
0000
0032
0000
0000
0000
1000
0100
0013
0100
,
1000
0000
0000
2000
0000
0000
0000
0000
0000
0000
0000
0000
3002
0000
0000
0000
0000
0000
0000
0000
0000
0000
0000
0000
0023
0000
0000
0000
0000
0000
0000
0000
0000
0000
2000
0000
3230
0000
0000
0000
0000
0000
0000
0000
0000
0000
0000
0000
,
2300
0000
0000
0000
0000
0000
0000
0000
0000
0000
0000
0000
0000
0000
0000
0000
0000
0000
0000
0000
0000
0000
0000
0000
0000
0000
0000
0000
0000
0000
0000
0000
0000
0000
0000
0000
0100
0000
0000
0000
0000
0000
0010
0000
0000
0000
0000
0000
3001
0000
0000
0000
0000
0000
0000
0000
0000
0000
0000
0000
0010
0000
0000
0000
0000
0000
0000
0000
0000
0000
0000
0000
0100
0000
0000
0000
0000
0000
0000
0000
0000
0000
0000
0000
1000
0000
0000
0000
0000
0000
0000
0000
0000
0000
0000
0000
0100
0000
0000
0000
0000
0000
0000
0000
0000
0000
0000
0000
0010
0000
0000
0000
0000
0000
0000
0000
0000
0000
0000
0000
0001
0000
0000
0000
0000
0000
0000
0000
0000
0000
0000
0000
0010
0000
0000
0000
0000
0000
0000
0000
0000
0000
0000
0000
1000
0000
0000
0000
0000
0000
0000
0000
0100
0000
0000
0000
0000
0000
0000
0000
0010
0000
0000
0000
0000
0000
0000
0000
0001
0000
0000
0000
0000
0000
0000
0000
0000
0000
0000
0000
0010
0000
0000
0000
0000
0000
0000
0000
0000
0000
0000
0000
,
2200
0000
0000
0000
,
3300
0000
0000
0000
;
