#TITLE:Operation Ground And Pound v3;
#SUBTITLE:;
#ARTIST:Dragonforce;
#TITLETRANSLIT:;
#SUBTITLETRANSLIT:;
#ARTISTTRANSLIT:;
#CREDIT:Dog_E;
#BANNER:banner.PNG;
#BACKGROUND:bg.png;
#LYRICSPATH:;
#CDTITLE:DogEtitle.PNG;
#MUSIC:Operation Ground And Pound.mp3;
#OFFSET:-0.375;
#SAMPLESTART:44.040;
#SAMPLELENGTH:28.220;
#SELECTABLE:YES;
#BPMS:0.000=120.000,80.000=240.000,96.000=200.000;
#STOPS:;
#BGCHANGES:;
// cache tags:
#FIRSTBEAT:0.000;
#LASTBEAT:1485.500;
#SONGFILENAME:Songs/toune 4/Operation Ground And Pound v3 (Dog_E)/Operation Ground And Pound v2 (Dog_E).sm;
#HASMUSIC:1;
#HASBANNER:1;
#MUSICLENGTH:464.822;
// end cache tags

//---------------dance-single - Blank----------------
#NOTES:
     dance-single:
     Blank:
     Challenge:
     13:
     1.000,1.000,1.000,1.000,1.000,3897.000,821.000,540.000,2.000,34.000:

1010
0001
0010
0100
0020
0030
0100
1000
0010
0001
0010
0100
0010
0001
0100
0001
,
0010
0001
0010
0100
0020
0030
0100
1000
0010
0001
0010
0100
0010
0001
0100
1000
,
0101
0010
0100
1000
0200
0300
0010
0001
0100
0010
0100
1000
0100
0010
0100
0010
,
1001
0100
1000
0001
2000
3000
0010
0100
0001
1000
0100
1000
0001
1000
0100
0001
,
1010
0001
0010
0100
0020
0030
0100
1000
0010
0001
0010
0100
0010
0001
0100
0001
,
1010
0001
0010
0100
0020
0030
0100
1000
0010
0001
0010
0100
0010
0001
0100
1000
,
0101
0010
0100
1000
0200
0300
0010
0001
0100
0010
0100
1000
0100
0010
0100
0010
,
1001
0100
1000
0001
2000
3000
0010
0100
0001
1000
0100
1000
0001
1000
0100
0001
,
1010
1000
0100
1000
0011
0000
1000
1000
0100
0100
1000
1000
0110
0010
0100
1000
,
1010
1000
0100
1000
0011
0000
1000
1000
0100
0100
1000
1000
0110
0010
0100
1000
,
1010
1000
0100
1000
0011
0000
1000
1000
0100
0100
1000
1000
0110
0010
0100
1000
,
1010
0000
1000
0000
0100
0000
1000
0000
0011
0000
0000
0000
1000
0000
1000
0000
0010
0100
0010
0000
1000
0000
1000
0000
0001
0000
0001
0000
0100
0000
0100
0000
,
0101
0001
0010
0001
1100
0000
0001
0001
0010
0010
0001
0001
0110
0100
0010
0001
,
0101
0001
0010
0001
1100
0000
0001
0001
0010
0010
0001
0001
0110
0100
0010
0001
,
0101
0001
0010
0001
1100
0000
0001
0001
0010
0010
0001
0001
0110
0100
0010
0001
,
0101
0001
0010
0001
1100
0000
0001
0001
0010
1000
0100
0010
0001
0100
0010
0100
,
2020
0000
0000
0000
0000
0000
3030
0110
,
2002
0000
0000
0000
0000
0000
0000
0000
0003
0000
0000
0002
0003
0000
0200
3300
,
0022
0000
0000
0000
0000
0000
0000
0000
0000
0000
0000
0000
0000
0033
1000
M100
,
0M20
0030
0000
0020
0030
0000
0200
0300
0002
0003
0000
2000
3000
0000
0200
0300
,
2022
0000
0000
0000
,
0000
0000
0000
0000
,
0000
0003
0200
0000
0000
0000
0000
0000
,
0000
0000
0000
0000
0000
0000
0000
3330
,
0001
0010
0100
1000
0100
1000
0001
0010
0100
1000
0100
1000
0001
0100
0010
1000
,
0100
1000
0010
0100
0010
1000
0001
0000
1001
0000
1001
0000
0011
0000
0000
0000
,
0110
0000
1001
0000
0100
0010
0100
0000
0011
0000
1100
0000
0001
0010
0001
0000
,
1100
0000
1010
0000
0100
0010
0100
0000
1010
0000
0101
0000
0001
1000
0001
0000
,
0110
0000
1001
0000
0100
0010
0100
0000
1000
0000
1000
0000
0100
0000
0100
0000
,
0001
0010
0100
1000
0100
0000
0010
0000
0101
0000
0110
0000
0012
0000
0023
0030
,
1000
0100
1000
0100
1000
0100
1000
0100
0010
0100
1000
0100
1000
0100
1000
0100
,
1000
0010
1000
0010
1000
0010
1000
0010
0100
0010
1000
0010
1000
0010
1000
0010
,
1001
0000
0000
0102
0000
0000
0000
0000
0000
1003
0000
0000
0100
0000
0000
0020
0030
0000
0001
0000
0000
0100
0000
0000
,
0001
1000
0001
1000
0100
0010
0001
1000
0001
1000
0100
0010
0001
0100
0010
1000
,
0110
0120
0030
0101
0110
0120
0030
0101
,
0110
0120
0030
0110
0011
0101
1100
1001
,
1001
0000
1001
0000
1000
0100
0010
0000
1001
0000
1001
0000
0001
0010
0100
0000
,
1001
0000
1001
0000
0010
0100
0010
0000
1001
0000
1001
0000
0100
0010
0100
0000
,
0011
0000
1000
0000
0100
0010
0001
0000
1100
0000
0001
0000
0010
0100
1000
0000
,
0021
1030
0021
1030
0210
0301
0210
0301
,
1000
0100
0010
0100
1000
0001
0010
0100
0010
0001
1000
0010
0100
0010
1000
0001
,
0100
0010
0100
0001
1000
0001
0010
0001
1000
0100
1000
0010
0100
0010
0100
0001
,
1010
0000
0000
0100
0000
0000
0001
0000
0000
0100
0000
0000
1010
0000
0000
0001
0000
0000
0100
0000
0000
0001
0000
0000
0010
0000
0000
0000
1000
0000
0110
0000
0001
0000
0000
0000
1000
0000
0000
0000
0001
0000
0110
0000
0000
0000
0000
0000
,
1010
0000
0000
0000
1010
0000
0000
0000
0001
0010
0100
0010
0001
0000
0000
0000
,
1000
0010
0100
0010
1000
0010
1000
0100
0010
0100
1000
0100
0010
0000
0000
0202
0000
0000
0303
0000
0000
0022
0000
0000
,
0000
0000
1033
0000
,
0220
0330
1000
0100
0010
0001
0100
0010
1000
0001
0010
0100
1000
0001
0100
0010
,
1001
0022
0033
0011
1001
0022
0033
0011
,
2020
3030
0100
0001
1000
0010
0100
0001
0010
0100
1000
0100
0010
0001
1000
0010
,
1001
2020
3030
1010
1001
2020
3030
1010
,
0101
0000
0101
0000
1001
0000
1010
0000
1100
0000
0110
0000
1001
0100
0010
0000
,
1001
0000
1001
0000
0101
0000
0011
0000
0110
0000
1010
0000
1100
0010
0001
0000
,
1010
0000
1010
0000
1000
0100
0010
0000
0101
0000
0101
0000
0010
0000
1000
0000
,
0110
0110
0110
0110
0110
0110
0110
0110
,
0220
0330
1000
0100
0010
0001
0100
0010
1000
0001
0010
0100
1000
0001
0100
0010
,
1001
0022
0033
0011
1001
0022
0033
0011
,
2020
3030
0100
0001
1000
0010
0100
0001
0010
0100
1000
0100
0010
0001
1000
0010
,
1001
2020
3030
1010
1001
2020
3030
1010
,
0101
0000
0101
0000
1001
0000
1010
0000
1100
0000
0110
0000
1001
0100
0010
0000
,
1001
0000
1001
0000
0101
0000
0011
0000
0110
0000
1010
0000
1002
0000
0000
0003
,
1000
0100
0010
0001
0010
0001
1000
0100
0010
0001
0010
0001
1000
0010
0100
0001
,
1000
0100
1000
0100
0010
0001
0010
0001
1000
0010
1000
0010
0201
0300
0000
0000
,
1001
0010
0100
1000
0011
1000
0100
0010
1001
0100
0010
0100
1010
0001
0010
0100
,
1001
0100
0010
1000
0110
0001
0010
0100
1001
0100
0010
0001
1100
0010
0001
0010
,
1000
0100
0010
0000
0010
0100
1000
0000
1000
0001
0010
0000
0100
1000
0010
0000
,
0001
0100
0010
1000
0100
1000
0001
0100
0010
1000
0001
0010
0001
0010
0100
0010
,
1001
0100
0010
0000
0001
0100
0010
0000
0010
0100
0001
0000
0001
1000
0100
0000
,
0100
1000
0010
0000
0010
0100
0001
0000
0001
1000
0100
0000
0100
1000
0010
0000
,
1001
0000
0010
0000
0100
0000
1001
0000
0100
0000
0010
0000
,
1100
1100
1100
1100
0000
1100
0000
0010
,
1001
0000
0110
0000
1000
0010
1000
0000
0101
0000
0110
0000
0001
0010
0001
0000
,
1100
0000
0110
0000
1000
0001
1000
0000
0101
0000
0110
0000
0001
0010
0001
0000
,
1100
0000
0110
0000
0001
1000
0001
0000
1010
0000
0101
0000
0010
0100
0010
0000
,
1100
0010
1000
0000
0020
0000
0032
0003
1100
0010
1000
0000
0020
0000
0032
0003
,
0010
0001
0010
0100
1000
0001
1000
0001
1000
0100
1000
0100
1000
0010
1000
0010
,
1000
0001
0100
0001
0010
0001
0100
0010
1000
0100
1000
0010
0100
0010
1000
0100
,
0010
0001
0010
0100
0010
0001
1000
0010
0100
0010
1000
0001
1000
0010
0100
0010
,
1000
0100
0010
0001
1000
0100
0010
0001
1000
0100
0010
0001
1000
0100
0010
0001
,
2000
3100
0010
0101
0010
0100
1010
0001
,
0101
1000
0100
0010
0110
1000
0101
0000
,
0101
1000
0101
0110
0001
1000
0011
0100
,
2010
0100
0001
3210
0001
0010
1300
0010
,
0011
0011
0101
0101
1001
1001
1100
1100
,
1001
1001
1100
1100
1010
1010
0101
0101
,
0001
0000
0100
0000
0010
0000
1000
0000
0000
0100
0000
0000
0010
0000
0000
0001
0000
0000
1000
0000
0010
0000
0100
0000
0001
0000
0000
0010
0000
0000
0100
0000
0000
1000
0000
0000
0001
0000
0010
0000
0100
0000
1000
0000
0100
0000
0010
0000
,
0001
1000
0100
1000
0100
1000
0011
1100
0001
0100
0010
1000
0011
1100
0001
0100
,
2020
0000
0000
0000
0000
0000
0000
0000
0000
0000
0000
3030
,
0202
0000
0303
1000
0000
0000
0022
0000
0033
0100
0000
0000
2002
0000
3003
0010
0000
0000
2200
0000
3300
0001
0000
0000
,
0110
0000
1001
0000
0100
0010
0100
0000
0011
0000
0110
0000
1000
0100
1000
0000
,
0001
0010
0100
1000
0001
0100
0010
1000
0001
0010
0100
1000
0001
0100
0010
1000
,
0202
0000
0000
0000
0000
0000
0000
0000
0000
0000
0000
0303
,
1010
0000
0101
0000
1000
0010
1000
0000
0101
0000
0011
0000
1000
0001
1000
0000
,
1010
0100
0001
0100
0010
1000
0101
0010
1000
0100
0010
0001
1100
0010
1000
0010
,
1001
0100
0010
0001
1000
0100
0010
0001
1000
0100
0010
0001
1000
0100
0010
0001
,
1100
0010
0100
0001
0010
0001
0100
0010
1000
0001
0100
0010
1000
0001
0010
0100
,
1000
0010
0100
0001
1000
0010
0100
0010
1000
0001
0010
0001
1000
0100
0010
0100
,
1001
0010
0100
0001
0010
0100
1000
0001
0100
0010
1000
0001
0100
0010
1000
0100
,
0011
1000
0001
1000
0010
0100
0001
1000
0010
0100
0001
1000
0010
0100
0010
0100
,
2002
0000
0000
0000
0000
0000
0000
0000
0000
0000
0000
0000
0000
0000
0000
3003
,
0110
0000
0011
0000
1000
0100
0010
0000
1100
0000
0101
0000
0010
0100
0001
0000
,
2200
0000
0000
0000
0000
0000
0000
0000
0000
0000
0000
0000
0000
0000
0000
3300
,
0011
0000
1010
0000
0100
0010
0001
0000
0110
0000
0101
0000
0010
0100
1000
0000
,
0010
0100
0001
0100
0010
1000
0100
0010
0001
0010
0100
1000
0001
0100
0010
0100
,
0001
0100
0010
1000
0001
0100
0010
1000
0001
0100
0010
1000
0001
0100
0010
1000
,
0110
0000
0000
0000
,
0000
0000
0000
0000
,
1100
0010
0001
1000
0001
0100
0010
1000
0001
0010
0100
0010
0001
0100
0010
0100
,
0010
1000
0100
0010
0001
0100
0010
1000
0001
0010
0100
1000
0001
0100
0010
0100
,
1001
0100
0010
0001
0100
0010
1100
0001
0010
0100
1000
0001
0110
1000
0100
0010
,
1100
0011
1100
0011
0100
1000
0100
0010
0001
0010
1100
0011
1100
0011
0100
1000
,
2001
0000
0000
0000
0000
3000
0200
0000
0000
0000
0000
0300
0020
0000
0000
0030
,
0002
0000
0000
0000
0000
0003
0020
0000
0000
0000
0000
0030
0200
0000
0000
0300
,
1001
0100
0010
1000
0001
0100
0010
0100
1000
0100
0010
1000
0001
0100
0010
0100
,
0022
0003
0000
0000
0030
0000
2200
0300
0000
0000
3000
0000
,
2020
0000
3030
0000
2020
0000
3030
0000
0000
0000
0000
0000
2020
0000
3030
0000
0222
0000
0000
0000
0030
0000
0000
0000
0000
0300
0000
0000
0000
0000
0003
0000
,
0110
0000
1001
0000
0100
0010
0100
0000
0011
0000
1100
0000
0001
0010
0001
0000
,
1100
0000
1010
0000
0100
0010
0100
0000
1010
0000
0101
0000
0001
1000
0001
0000
,
0110
0000
1001
0000
0100
0010
0100
0000
0001
0000
0100
0000
0010
0000
0100
0000
,
0022
0033
0022
0033
0022
0033
0220
0330
0220
0330
0220
0330
2200
3300
2200
3300
,
0001
0100
0010
0100
0001
1000
0100
1000
0001
0100
0010
0100
0001
1000
0100
1000
,
0001
0100
0010
0100
0001
1000
0100
1000
0001
0100
0010
0100
0001
1000
0100
1000
,
1001
0000
0000
0102
0000
0000
0000
0000
0000
1003
0000
0000
0100
0000
0000
0020
0030
0000
0001
0000
0000
0100
0000
0000
,
0001
0010
0100
1000
0001
0100
0010
1000
0100
0010
0001
1000
0010
0100
0001
1000
,
0011
0000
0012
0000
0003
0000
1010
0000
0011
0000
0012
0003
0000
0000
1010
0000
,
0011
0000
0012
0003
0000
0000
0110
0000
0011
0000
0101
0000
1100
0000
1001
0000
,
0102
0000
0000
0000
0000
0003
1100
0000
0120
0000
0000
0000
0000
0000
0000
0000
,
0000
0000
0030
0000
2000
0000
3000
0000
0001
0100
0010
1000
0220
0330
0000
0000
,
0021
0130
0021
1030
0000
2001
0000
3000
,
0210
0000
1300
0000
0002
0000
0000
0003
0210
0000
0301
0000
0210
0000
0301
0000
,
1000
0001
1000
0001
0100
0010
0100
0001
0100
0001
0100
0001
1000
0010
0100
0010
,
1000
0010
0100
0010
0100
0001
1000
0010
1000
0010
0100
0010
0100
0001
1000
0010
,
1001
0000
0000
0000
0000
0000
1001
0000
0000
0000
0000
0000
0010
0000
1000
0110
0000
0000
1000
0000
0000
0110
0000
0000
,
1010
0000
0000
0000
1010
0000
0000
0000
0100
0010
0001
0010
2000
0000
3000
0000
,
0001
0010
0100
1000
0100
0010
0001
1000
0010
1000
0202
0000
0303
0000
0012
0000
,
0000
0000
0000
0000
0010
0100
1000
0100
0010
0100
1000
0100
1010
0000
0000
0000
,
1103
0010
0001
1000
0010
0100
0001
1000
0001
0100
0010
0100
0010
1000
0100
0010
,
0100
1000
0001
1000
0100
1000
0010
0100
0001
1000
0100
0010
0001
0100
0010
0100
,
1001
0000
0011
0000
0100
0010
0100
0000
1100
0000
0110
0000
0001
1000
0001
0000
,
0110
0000
1100
0000
0001
0010
0001
0000
0110
0000
1010
0000
0100
0001
0100
0000
,
1001
0100
0010
0100
1000
0001
0100
0010
0100
0001
0010
0100
1000
0100
0010
0001
,
1000
0010
0100
0010
1000
0100
0010
0100
1000
0001
0100
0010
1000
0010
1000
0100
,
0022
0000
0000
0000
0000
0000
0000
0033
,
1001
0000
0000
0000
0110
0000
0110
0000
0011
0000
0011
0000
2100
0000
0100
3000
,
1001
0010
0100
1000
0100
0010
0100
0010
0100
0001
1000
0010
0100
0010
1000
0001
,
0100
0010
1000
0100
0010
0001
0100
0010
0100
0001
0010
0100
1000
0001
1000
0100
,
0010
0001
0100
0010
0100
0001
0010
0001
1000
0001
0100
0010
0100
0001
1000
0100
,
0010
0100
1000
0001
0010
0100
1000
0010
0100
0001
0010
0100
0010
0001
1000
0100
,
0010
0001
0100
0010
0100
0001
0100
0010
1000
0001
1000
0001
0100
0010
0100
0001
,
0010
0100
0010
0001
0010
0001
0010
0100
0010
0100
1000
0001
0200
0000
0000
0300
,
1001
0100
0011
0101
0010
1000
0110
1000
,
0001
0010
0100
1000
0001
1000
0100
0010
0001
0010
0100
1000
0001
1000
0100
0010
,
2002
3003
0000
0000
0010
0000
0000
0000
0220
0330
0000
0000
0022
0033
0000
0000
0100
0000
0000
0000
1000
0000
0000
0000
0022
0033
0000
0000
0100
0000
0000
0000
,
2002
3003
0000
0000
0010
0000
0000
0000
2200
3300
0000
0000
2200
3300
0000
0000
0001
0000
0000
0000
0100
0000
0000
0000
2020
3030
0000
0000
0001
0000
0000
0000
,
0220
0330
0000
0000
0100
0000
0000
0000
2002
3003
0000
0000
2002
3003
0000
0000
0010
0000
0000
0000
1000
0000
0000
0000
0202
0303
0000
0000
1000
0000
0000
0000
,
0011
1000
0100
1000
0011
0100
0010
0100
0011
1000
0100
1000
0011
0100
0010
0100
,
1010
0000
0000
0000
0000
0000
0000
0000
0000
0000
0000
0001
0000
0000
0000
0000
1100
0000
0000
0000
0000
0000
0000
0000
0010
0000
0000
0000
0000
0000
0000
0000
1001
0000
0000
0000
0000
0000
0000
0000
0000
0000
0000
0100
0000
0000
0000
0000
0011
0000
0000
0000
0000
0000
0000
0000
1000
0000
0000
0000
0000
0000
0000
0000
,
0101
0000
0000
0000
0000
0000
0000
0000
0000
0000
0000
0010
0000
0000
0000
0000
1100
0000
0000
0000
0000
0000
0000
0000
0010
0000
0000
0000
0000
0000
0000
0000
1001
0000
0000
0000
0000
0000
0000
0000
0000
0000
0000
0100
0000
0000
0000
0000
0011
0000
0000
0000
0000
0000
0000
0000
0100
0000
0000
0000
0000
0000
0000
0000
,
2002
3003
0220
0330
2002
3003
2200
3300
0022
0033
2200
3300
,
0111
0111
0000
0111
0000
0111
0000
0111
,
1001
0000
0110
0000
0001
0100
0001
0000
1010
0000
0110
0000
1000
0100
1000
0000
,
0011
0000
0110
0000
0001
1000
0001
0000
1010
0000
0110
0000
1000
0100
1000
0000
,
0011
0000
0110
0000
1000
0001
1000
0000
0101
0000
1010
0000
0100
0010
0100
0000
,
1100
0010
1000
0000
0020
0000
0032
0003
1100
0010
1000
0000
0020
0000
0032
0003
,
0010
0001
0010
0100
0010
0100
1000
0100
0010
0100
1000
0010
0100
0010
1000
0001
,
0010
0001
0100
0010
0100
0001
0010
0100
1000
0001
1000
0100
1000
0100
1000
0001
,
0010
0100
0010
0001
1000
0001
0100
0010
0100
0001
0010
0100
0010
0001
0100
0010
,
1000
0100
0010
0001
1000
0100
0010
0001
1000
0100
0010
0001
1000
0100
0010
0001
,
2000
3010
0100
1010
0100
0010
0101
1000
,
1010
0001
0010
0100
0110
0001
1010
0000
,
1010
0001
1010
0110
1000
0001
1100
0010
,
0102
0010
1000
0123
1000
0100
0031
0100
,
1100
1100
1010
1010
1001
1001
0011
0011
,
1001
1001
0011
0011
0101
0101
1010
1010
,
1000
0000
0010
0000
0100
0000
0001
0000
0000
0010
0000
0000
0100
0000
0000
1000
0000
0000
0001
0000
0100
0000
0010
0000
1000
0000
0000
0100
0000
0000
0010
0000
0000
0001
0000
0000
1000
0000
0100
0000
0010
0000
0001
0000
0010
0000
0100
0000
,
1000
0001
0010
0001
0010
0001
1100
0011
1000
0010
0100
0001
1100
0011
1000
0010
,
0202
0000
0000
0000
0000
0000
0000
0000
0000
0000
0000
0303
,
2020
0000
3030
0001
0000
0000
2200
0000
3300
0010
0000
0000
2002
0000
3003
0100
0000
0000
0022
0000
0033
1000
0000
0000
,
0110
0000
1001
0000
0010
0100
0010
0000
1100
0000
0110
0000
0001
0010
0001
0000
,
1000
0100
0010
0001
1000
0010
0100
0001
1000
0100
0010
0001
1000
0010
0100
0001
,
2020
0000
0000
0000
0000
0000
0000
0000
0000
0000
0000
3030
,
0101
0000
1010
0000
0001
0100
0001
0000
1010
0000
1100
0000
0001
1000
0001
0000
,
1010
0100
0001
0100
0010
1000
0101
0010
1000
0100
0010
0001
1100
0010
1000
0010
,
1000
0001
1000
0001
0100
0010
0100
0010
1000
0001
1000
0001
0100
0010
1000
0100
,
0011
0100
0010
1000
0100
1000
0010
0100
0001
1000
0010
0100
0001
1000
0100
0010
,
0001
0100
0010
1000
0001
0100
0010
0100
0001
1000
0100
1000
0001
0010
0100
0010
,
1001
0100
0010
1000
0100
0010
0001
1000
0010
0100
0001
1000
0010
0100
0001
0010
,
1100
0001
1000
0001
0100
0010
1000
0001
0100
0010
1000
0001
0100
0010
0100
0010
,
2002
0000
0000
0000
0000
0000
0000
0000
0000
0000
0000
0000
0000
0000
0000
3003
,
0110
0000
1100
0000
0001
0010
0100
0000
0011
0000
1010
0000
0100
0010
1000
0000
,
0022
0000
0000
0000
0000
0000
0000
0000
0000
0000
0000
0000
0000
0000
0000
0033
,
1100
0000
0101
0000
0010
0100
1000
0000
0110
0000
1010
0000
0100
0010
0001
0000
,
1000
0100
0010
0001
0010
0100
1000
0010
0100
0001
0100
0010
1000
0100
0010
0001
,
1000
0010
0100
0001
0100
0010
1000
0100
0010
0001
0010
0100
1000
0001
1000
0001
,
0110
0000
0000
0000
,
0000
0000
0000
0000
,
0011
0100
1000
0001
1000
0010
0100
0001
1000
0100
0010
0100
1000
0010
0100
0010
,
0100
0001
0010
0100
1000
0010
0100
0001
1000
0100
0010
0001
1000
0010
0100
0010
,
1001
0010
0100
1000
0010
0100
0011
1000
0100
0010
0001
1000
0110
0001
0010
0100
,
0001
0010
0100
1000
0001
0010
0100
1000
0001
0010
0100
1000
0001
0010
0100
1000
,
1002
0000
0000
0000
0000
0003
0020
0000
0000
0000
0000
0030
0200
0000
0000
0300
,
2000
0000
0000
0000
0000
3000
0200
0000
0000
0000
0000
0300
0020
0000
0000
0030
,
1001
0100
0010
0100
0001
0100
1000
0100
0001
0100
0010
0100
0001
0100
1000
0100
,
0044
0000
0000
0000
0000
0000
0000
0000
0000
0000
0000
0000
2033
3200
0300
2000
3200
0300
2000
3200
0300
2000
3200
0300
,
0001
0010
0100
1000
0001
0010
0100
1000
0001
0010
0100
1000
0020
0000
0000
0000
0000
0000
0000
0000
0000
0000
0030
0000
,
2200
3300
1100
1100
1100
1010
0102
1003
,
1100
1100
1100
1010
1010
1100
0110
0101
,
2200
3300
1100
1100
1100
1010
0120
1030
,
1100
0201
0310
1100
0021
0130
2001
3100
,
2200
3300
1100
1100
1100
1010
0102
1003
,
1100
1100
1100
1010
1010
1100
0110
0101
,
2200
3300
1100
1100
1100
1010
0120
1030
,
0110
0000
0000
1201
0300
0000
0000
0000
0000
1201
0300
0000
0000
0000
0000
1001
0000
0000
0100
0000
0000
1001
0000
0000
,
2100
0000
0000
3200
0010
0000
0320
0000
,
0032
0000
0000
0023
0100
0000
2030
0000
,
3200
0300
0000
0200
0010
0000
2300
0000
,
3020
0000
0000
1000
0001
0000
0100
0000
,
2030
0000
0000
3200
0010
0000
0320
0000
,
0230
0000
0000
0320
0100
0000
0032
0000
,
0023
0000
0000
0230
0010
0000
2300
0000
,
3200
0000
0000
1000
0011
0000
0011
0300
,
0200
0000
0000
0320
0100
0000
2030
0000
,
3002
0000
0000
0023
0100
0000
2030
0000
,
3020
0000
0000
0230
0010
0000
0302
0003
,
0002
0000
0000
1000
0010
0000
0100
0000
,
2003
0000
0000
3200
0010
0000
0320
0000
,
0032
0000
0000
0203
0010
0000
2300
0000
,
3002
0000
0000
0023
0100
0000
0230
0300
,
0001
0100
0010
1000
0001
0010
0100
1000
0001
0100
0010
1000
0001
0010
0100
1000
,
0011
0011
0101
0101
0110
0110
1100
1001
,
0011
0011
0101
0101
0110
0110
1100
1001
,
0011
0011
1100
1001
0011
0011
0110
0101
,
1001
0000
1001
0000
1100
0000
1010
0000
0110
0001
1000
0001
1100
0000
1001
0000
,
0011
0011
0101
0110
1001
1001
1010
0101
,
0011
0011
0101
0110
1001
1001
1010
0101
,
0011
0011
0101
1001
0110
0110
1001
1010
,
0110
0110
1100
1010
0110
0110
0101
0110
,
0011
0011
0101
0101
0110
0110
1100
1001
,
0011
0011
0101
0101
0110
0110
1100
1001
,
0011
0011
1100
1001
0011
0011
0110
0101
,
1001
1001
1100
1010
0110
0110
1100
1001
,
0011
0011
0101
0110
1001
1001
1010
0101
,
0011
0011
0101
0110
1001
1001
1010
0101
,
0011
0011
0101
1001
0110
0110
1001
1010
,
0110
0000
0110
0000
1100
0000
1010
0000
0110
0000
0110
1000
0101
0000
0110
0000
,
0011
1101
0000
0111
0000
1011
0000
1110
,
0000
0011
0101
0110
1100
0101
0110
1001
,
0001
0010
0100
1000
0100
0010
0001
0010
0100
1000
0100
0010
0001
0010
0100
1000
0100
0010
0001
0010
0100
1000
0100
0010
,
2000
3000
0200
0300
0020
0030
0002
0003
2000
3000
0200
0300
0020
0030
0002
0003
2000
3000
0200
0300
0020
0030
0002
0003
2000
3000
0200
0300
0020
0030
0002
0003
,
0110
0010
0100
1000
0010
1000
0100
0010
0001
1000
0100
0010
0100
0010
0001
0010
,
0100
1000
0100
0010
0001
1000
0100
0010
0100
0010
0001
0100
0010
1000
0010
0000
,
0001
0010
0100
1000
0202
0303
0020
0000
0031
0100
0010
1000
0200
0302
0203
0302
,
0013
0100
1000
0100
0020
0000
0031
0000
0010
0100
1000
0100
0020
2030
3020
2030
,
3100
0001
1000
0020
1030
0100
0001
0100
0010
0010
0010
0100
0010
1000
0100
0010
,
0001
0010
0100
0010
0100
0010
0100
0001
0220
0330
0220
0330
0220
0330
0220
0330
,
0001
0010
0100
1000
0001
0010
0100
1000
0001
0010
0100
1000
0001
0010
0100
1000
0001
0010
0100
1000
0100
0010
0001
0010
,
1000
0100
0010
0001
1000
0100
0010
0001
1000
0100
0010
0001
1000
0100
0010
0001
1000
0100
0010
0001
1000
0100
0010
1000
,
0102
0000
0000
0000
0000
0003
0020
0000
0000
0000
0000
0030
0200
0000
0000
0300
,
0020
0030
0200
0300
2000
3000
0200
0300
0020
0030
0200
0300
0002
0003
0020
0030
,
2000
3000
0200
0000
0000
0300
0020
0000
0000
0000
0000
0030
0002
0000
0000
0003
,
0020
0030
0200
0300
2000
3000
0200
0300
0002
0000
0000
0003
0040
0000
0000
0030
,
0001
0010
0100
1000
0010
1000
0100
0010
0001
0100
0010
0100
0001
0010
0100
0010
,
0100
1000
0010
0100
2000
0000
3010
0100
0001
0010
0100
0010
0002
0100
0020
0033
,
1000
0000
0000
0100
0000
0000
0010
0000
0000
0001
0000
0000
1000
0000
0000
0100
0000
0000
0010
0000
0001
0000
0010
0000
0100
0000
0000
1000
0000
0000
0100
0000
0000
0010
0000
0000
0001
0000
0010
0000
0100
0000
1000
0000
0100
0000
0010
0000
,
0001
0000
0000
0010
0000
0000
0100
0000
0000
1000
0000
0000
0001
0000
0000
0010
0000
0000
2200
0000
0000
0000
0000
0000
0000
0000
0000
0000
0000
0000
0000
0000
0000
0000
0000
0000
0000
0000
0000
0000
0000
0000
0000
0000
3300
0000
0000
0000
,
1001
1000
0200
1300
1001
1000
0020
1030
,
1001
1000
0100
0020
1001
0000
0230
0300
,
0001
0010
0100
0001
0010
0100
0001
0010
0100
0001
0010
0100
0001
0010
0100
0001
0010
0100
0001
0010
0100
0001
0010
0100
,
1000
0100
0010
1000
0100
0010
1000
0100
0010
1000
0100
0010
1000
0100
0010
1000
0100
0010
1000
0100
0010
1000
0100
0010
,
1001
0000
0010
0000
0100
0000
0010
0000
0100
0000
1000
0000
1001
0000
0010
0000
0100
0000
1000
0000
0001
0010
0100
0000
,
1001
0010
0100
0010
1000
0100
1001
0100
0010
0002
0000
0003
,
0110
0110
0110
1100
0101
0101
0101
1010
,
1101
0000
0000
0000
0000
0000
1011
0000
0000
0000
0000
0000
0011
0000
0000
1100
0000
0000
1100
0000
0000
0000
0000
0100
,
0020
0000
0000
0000
0000
0000
0000
0000
0030
2000
0000
0000
0000
0000
0000
0000
0000
0000
3002
0000
0000
0003
0000
0000
,
0020
0000
0030
0100
0000
0000
0000
0000
0000
2001
3000
0000
0000
0000
0000
0102
0000
0000
0000
0000
0000
0003
0000
0000
,
0001
0010
0100
1000
0001
0010
0100
1000
0001
0010
0100
1000
0001
0010
0100
1000
0001
0010
0100
1000
0001
0010
0100
1000
,
0120
0000
1030
0100
0010
0100
1000
0001
0100
0010
0100
0001
0010
0100
0010
0001
,
1000
0100
0010
0001
1000
0010
0100
0001
1000
0010
0100
0010
1000
0001
0010
0100
,
0010
0100
1000
0001
0100
0010
0100
0010
2004
3000
2000
3000
2000
3000
2000
3003
,
0100
0010
1000
0010
1000
0100
0010
0100
1000
0010
0100
0001
1000
0010
0100
0010
,
0001
0000
0010
0000
0100
0000
1000
0000
0000
0100
0000
0000
0010
0000
0000
0001
0000
0000
0100
0000
0010
0000
1000
0000
0100
0000
0010
0000
0001
0000
1000
0000
0100
0000
0010
0000
0001
0000
0000
0100
0000
0000
0010
0000
0000
0100
0000
0000
,
0020
0000
0000
0000
0000
0030
2000
0000
0000
0000
0000
3000
0200
0000
0300
0000
,
0020
0000
0031
0000
0000
0000
0201
0300
0000
0000
2001
0000
0000
0000
0000
3000
,
0021
0130
0000
1010
0000
0110
0000
2100
,
0000
3000
0100
0000
0010
0000
0001
0000
0000
0000
0020
0000
0000
0000
0000
0030
,
0100
0100
1000
1000
0020
0032
0023
0032
0103
0100
0010
0010
2000
3200
2300
3200
,
1300
0100
0010
1000
0100
0010
1000
0100
0010
1000
0100
0010
1000
0100
0010
1000
0100
0010
1000
0100
0010
1000
0100
0010
,
0001
0010
0100
1000
0001
0100
0010
0100
0001
0010
0100
1000
0010
0100
0010
1000
,
0022
0000
0033
0000
0202
0303
0000
0000
2200
3300
0000
0000
2002
0000
0000
0000
0000
0000
0000
0000
3003
0000
0000
0000
,
0002
0000
0100
0000
0010
0100
2003
0000
0100
0000
0001
0000
3020
0100
1000
0000
,
0230
0000
0010
0000
0001
0010
2300
0000
0010
0000
0001
0000
3200
0010
0001
0000
,
0320
0000
0100
0000
1000
0100
0032
0000
0100
0000
1003
0000
0020
0100
0031
0000
,
1100
0000
0010
0000
1000
0100
1000
0000
0011
0000
1000
0000
0001
0100
0001
0000
,
0020
0000
1000
0000
0001
1000
0230
0000
0001
0000
0010
0000
2300
0010
0100
0000
,
3002
0000
0100
0000
1000
0100
0023
0000
1000
0000
0031
0000
0200
0010
1300
0000
,
0001
1000
0001
1000
0010
0100
1000
0100
0001
1000
0001
1000
0010
0100
0001
0100
,
0001
0010
0100
1000
0100
1000
0001
0100
0010
0100
0001
1000
0001
0100
0010
0100
,
1000
0100
0010
0001
0010
0100
1000
0001
0100
0010
0100
0001
0010
0100
0010
0001
,
1000
0010
1000
0010
1000
0100
1000
0001
0100
0010
0100
0001
0100
0001
0100
0010
,
1000
0100
0010
0100
0010
0001
1000
0001
0010
0100
1000
0010
0100
0001
0100
0010
,
2200
3300
1100
0000
0110
0000
0101
0000
2200
3300
1100
0000
0110
0000
0101
0000
,
0010
0100
1000
0001
0100
0010
1000
0010
0100
0001
0010
0100
1000
0010
0100
0010
,
1000
0001
1000
0001
0100
0010
1000
0010
0100
0001
0100
0001
0010
0001
0100
0010
,
2200
3300
1100
0000
0110
0000
0011
0000
2200
3300
1100
0000
0110
0000
0011
0000
,
2200
3300
1100
0000
0110
0000
0110
0000
2200
3300
1100
0000
0110
0000
0011
0000
,
1000
1000
0100
0010
0001
1000
0010
0100
0001
0100
0010
0100
1000
0100
0010
0001
,
1001
0100
0010
0001
1000
0010
0100
0001
0010
0001
0100
0010
0100
0001
0010
0100
,
1001
0000
0011
0000
1000
0100
1000
0000
0110
0000
0011
0000
0100
0010
0100
0000
,
1001
0000
0110
0000
1000
0100
1000
0000
0022
0000
0000
0000
0033
0000
0000
0000
,
0210
0000
0000
0000
0000
0000
0300
0000
0000
2001
0000
0000
0000
0000
0000
3000
0000
0000
0201
0000
0000
0300
0000
0000
0000
0000
0000
0000
0021
0000
0000
0000
0000
0000
0000
0000
0000
0000
0030
0000
0000
0000
0000
0000
0000
0000
0100
0000
,
0002
0000
0003
0010
0000
0000
0100
0000
0000
2010
0000
0000
0000
0000
0000
0000
0000
0000
0000
0000
0000
0000
0000
0000
,
0000
3000
0000
0000
0000
0000
0000
0000
0100
0000
0000
0000
0000
0000
0000
1000
0002
0000
0000
0000
0000
0000
0003
0000
0010
0000
0000
0000
0000
0000
0000
0000
,
0200
0000
0010
0000
0001
0000
0320
0000
1000
0000
0100
0000
2030
0000
0001
3000
,
0010
0000
0000
0400
0000
0000
0000
0000
0000
0000
0000
0000
0000
0000
0000
0300
,
2000
3200
0320
0230
0320
0230
0320
0230
0320
0230
0320
0230
0320
0230
0320
0230
,
0301
0000
0000
0010
0000
0000
0100
0000
0000
1000
0000
0000
0010
0000
0100
0000
0001
0000
1000
0000
0100
0000
0010
0000
0100
0000
0000
1000
0000
0000
0100
0000
0000
0010
0000
0000
0001
0000
0010
0000
0100
0000
1000
0000
0001
0000
0010
0000
,
0100
0000
0000
1000
0000
0000
0010
0000
0000
0100
0000
0000
0001
0000
0100
0000
0010
0000
1000
0000
0001
0000
0100
0000
0010
0000
0000
1000
0000
0000
0001
0000
0000
1000
0000
0000
0100
0000
0010
0000
0001
0000
0010
0000
0100
0000
1000
0000
,
0001
0010
0100
0001
0010
0100
0010
0100
1000
0010
0100
1000
0001
0100
0010
0100
,
0010
0000
0000
1000
0000
0000
0001
0000
0000
1000
0000
0000
0100
0000
0000
0010
0000
0000
0001
0000
0000
0100
0000
0000
1000
0000
0000
0000
0100
0000
0000
0000
0010
0000
0000
0000
0002
0000
0000
0000
0000
0000
0000
0000
0000
0003
0000
0000
,
2020
3030
2200
3300
2020
3030
2200
3300
0022
0033
0022
0033
0022
0033
1001
0000
,
0220
0330
0220
0330
0220
0330
0202
0303
1002
2000
3003
0000
0020
0000
0000
0030
,
0102
0000
0000
0003
0102
0003
0102
0003
2001
0000
0000
3000
0020
0000
1030
0000
,
0001
0000
0000
0000
0010
0000
0000
0000
0100
0000
0000
0000
1000
0000
0000
0000
0022
0000
0000
0033
0022
0000
0000
0033
0022
0000
0000
0033
0022
0000
0000
0033
,
1000
1000
0100
0010
0001
0100
0010
0100
0001
0010
0100
1000
0100
0010
0001
1000
,
0010
0100
0001
1000
0100
0010
0001
0010
0100
0010
0100
1000
0200
0000
0000
0300
,
1000
0100
0010
0100
0010
0001
0100
0010
0100
0001
1000
0100
0010
0001
1000
0010
,
0100
0010
1000
0100
0010
0001
1000
0010
0100
0001
0100
0010
0100
0010
1000
0001
,
0200
0000
0000
0000
,
0000
0000
0000
0000
,
0310
0000
0000
0000
,
0000
0000
0000
0000
,
0010
0000
0000
1000
0010
0000
1000
0000
0010
0000
1000
0000
0010
0000
1000
0000
,
0010
0000
0000
1000
0010
0000
1000
0000
0010
0000
1000
0000
0010
0000
1000
0000
,
0001
0010
0001
0010
0001
0010
0001
1000
0001
1000
0001
1000
0100
1000
0100
1000
,
0022
0033
0202
0303
2200
3300
2020
3030
1001
0000
0000
0000
1001
0000
0000
0000
,
0202
0000
0000
0000
0000
0000
0000
0000
0000
0000
0000
0303
,
2020
0000
3030
0001
0000
0000
2200
0000
3300
0010
0000
0000
2002
0000
3003
0100
0000
0000
0022
0000
0033
1000
0000
0000
,
0110
0000
1001
0000
0010
0100
0010
0000
1100
0000
0110
0000
0001
0010
0001
0000
,
1000
0100
0010
0001
1000
0010
0100
0001
1000
0100
0010
0001
1000
0010
0100
0001
,
2020
0000
0000
0000
0000
0000
0000
0000
0000
0000
0000
3030
,
0101
0000
1010
0000
0001
0100
0001
0000
1010
0000
1100
0000
0001
1000
0001
0000
,
1010
0100
0001
0100
0010
1000
0101
0010
1000
0100
0010
0001
1100
0010
1000
0010
,
1000
0001
1000
0001
0100
0010
0100
0010
1000
0001
1000
0001
0100
0010
1000
0100
,
0011
0100
0010
1000
0100
1000
0010
0100
0001
1000
0010
0100
0001
1000
0100
0010
,
0001
0100
0010
1000
0001
0100
0010
0100
0001
1000
0100
1000
0001
0010
0100
0010
,
1001
0100
0010
1000
0100
0010
0001
1000
0010
0100
0001
1000
0010
0100
0001
0010
,
1100
0001
1000
0001
0100
0010
1000
0001
0100
0010
1000
0001
0100
0010
0100
0010
,
2002
0000
0000
0000
0000
0000
0000
0000
0000
0000
0000
0000
0000
0000
0000
3003
,
0110
0000
1100
0000
0001
0010
0100
0000
0011
0000
1010
0000
0100
0010
1000
0000
,
0022
0000
0000
0000
0000
0000
0000
0000
0000
0000
0000
0000
0000
0000
0000
0033
,
1100
0000
0101
0000
0010
0100
1000
0000
0110
0000
1010
0000
0100
0010
0001
0000
,
2100
0000
0000
0000
,
3100
0010
0100
0010
1001
0000
0101
0000
0100
0010
0100
0010
1001
0000
1100
0000
,
0011
0100
1000
0010
0100
0001
1000
0001
1100
0010
0001
0100
0010
0100
0001
0010
,
1001
0100
0010
0100
0010
1000
0010
1000
0001
0100
0001
0100
0010
0100
0001
0010
,
1001
0100
0010
0100
0001
0100
0010
0100
0001
0100
0010
0100
0001
0100
0010
0100
,
0001
0010
0100
1000
0001
0100
0010
1000
0001
0010
0100
0010
0001
0010
0100
1000
,
0101
0010
0100
1000
0100
0010
0001
1000
0001
0010
0100
0010
0001
1000
0100
1000
,
0010
0100
0010
0100
0001
1000
0001
1000
0010
0100
0001
1000
0001
1000
0001
0100
,
2010
0000
0000
3200
0000
0000
0320
0000
,
0132
0000
0000
0023
0000
0000
0230
0000
,
1301
0100
0010
0001
1000
0100
0010
0001
1000
0100
0010
0001
1000
0100
0010
0001
1000
0100
0010
0001
1000
0100
0010
0001
,
1000
1100
1110
1111
,
0002
0023
0032
0023
0032
0023
0032
0023
0032
0023
0032
0023
0032
0023
0032
0023
,
2032
0013
0002
0103
0002
0013
3002
0103
,
0010
0000
0100
1000
0001
0010
0100
1000
0010
0100
0001
0010
0100
1000
0001
1000
,
1010
0001
0100
0000
0011
0000
0100
0000
1001
0000
0100
0000
0011
0000
0100
0000
,
0010
0000
0000
0000
0000
0000
1100
0000
0000
0000
0000
0000
0001
0000
0000
0000
0000
0000
0110
0000
0000
0000
0000
0000
0001
0000
0000
0000
0000
0000
1000
0000
0000
0000
0000
0000
0001
0000
0000
0100
0000
0000
0001
0000
0100
0000
0001
0000
,
0100
0000
0001
0000
0100
0000
0010
0000
0000
1000
0000
0000
0010
0000
0000
1000
0000
0000
0001
0000
0000
0100
0000
0000
0010
0000
0000
0100
0000
0000
0001
0000
0000
1000
0000
0000
0001
0000
0000
0010
0000
0000
0001
0000
0000
0010
0000
0000
,
1000
0100
0010
0001
0100
0010
1000
0100
0010
0100
1000
0001
0010
0001
0100
0010
,
1202
0303
0000
0000
2021
3030
0000
0000
,
0220
0330
0110
0000
1100
0000
0101
0000
2002
0000
0000
0000
0000
0000
0000
0000
,
0000
0000
0000
0000
0000
0000
0000
0000
0000
0000
0000
0000
0000
0000
0000
0000
0000
0000
0000
0000
0000
0000
0000
0000
0003
0000
0000
0000
0000
0000
0000
0000
0000
0000
0000
0000
0000
0000
0000
0000
0001
0000
0000
0000
0000
0000
0000
0000
0010
0000
0000
0000
0000
0000
0000
0000
3100
0000
0000
0000
0000
0000
0000
0000
0000
0000
2000
0000
0000
0000
0000
0000
3000
0000
0000
0000
0000
0000
0000
0000
0000
0000
0000
0000
0000
0000
0000
0000
0000
0000
0000
0000
0000
0000
0000
0000
0000
0000
0000
0000
0000
0000
0000
0000
0000
0000
0000
0000
0000
0000
0000
0000
0000
0000
0000
0000
0000
0000
0000
0000
0000
0000
0000
0000
0000
0000
0000
0000
0000
0000
0000
0000
0000
0000
0000
0000
0000
0000
0000
0000
0000
0000
0000
0000
0000
0000
0000
0000
0000
0000
0000
0000
0000
0000
0000
0000
0000
0000
0000
0000
0000
0000
0000
0000
0000
0000
0000
0000
0000
0000
0000
0000
0000
0000
0000
0000
0000
0000
0000
0000
0000
0000
0000
0000
0000
0000
0000
0000
0000
0000
0000
0000
;
