#TITLE:Seapong;
#SUBTITLE:Anime Gabba It!;
#ARTIST:DJ Sharpnel;
#TITLETRANSLIT:Seapong;
#SUBTITLETRANSLIT:;
#ARTISTTRANSLIT:DJ Sharpnel;
#CREDIT:Steps by DeTaiL;
#BANNER:Seapong.jpg;
#BACKGROUND:Seapong-bg.jpg;
#LYRICSPATH:;
#CDTITLE:detail - icon.png;
#MUSIC:Seapong.ogg;
#OFFSET:-0.220;
#SAMPLESTART:65.420;
#SAMPLELENGTH:12.000;
#SELECTABLE:YES;
#BPMS:0.000=180.000;
#STOPS:;
#BGCHANGES:;
// cache tags:
#FIRSTBEAT:0.000;
#LASTBEAT:371.750;
#SONGFILENAME:Songs/cedric step/(DeTaiL) Seapong/Seapong.sm;
#HASMUSIC:1;
#HASBANNER:1;
#MUSICLENGTH:130.623;
// end cache tags

//---------------dance-single - ----------------
#NOTES:
     dance-single:
     :
     Hard:
     10:
     0.806,0.961,0.750,0.138,0.440,621.000,98.000,18.000,0.000,0.000:
1001
0010
0000
0010
0000
0010
0000
0100
,
0100
0000
0001
0000
1000
1000
0100
0100
,
0001
0000
0001
0000
0001
0001
0010
0010
,
1000
0000
1000
0000
0010
0010
0010
0100
,
0000
0100
0000
0100
0000
0100
0000
0010
,
0010
0000
1000
0000
0001
0001
0010
0010
,
1000
0000
1000
0000
1000
1000
0100
0100
,
0001
0000
0001
0000
0100
0100
0100
0010
,
0000
1000
0000
1000
0000
1000
0000
0001
,
0001
0000
0010
0000
0100
0100
0001
0001
,
0010
0000
0010
0000
0010
0010
1000
1000
,
0100
0000
0100
0000
1000
1000
1000
0001
,
0000
0001
0000
0001
0000
0001
0000
1000
,
1000
0000
0100
0000
0010
0010
1000
1000
,
0100
0000
0100
0000
0100
0100
0001
0001
,
0010
0000
0010
0000
0001
0001
0001
1000
,
2002
0000
0000
3003
0110
0011
1010
0101
,
1100
0000
0000
0000
1100
0000
0000
0000
1000
0100
0010
0001
0010
0001
0000
0000
,
0011
0000
0000
0110
0000
0000
0100
0000
0001
0010
0100
1000
0100
0010
0000
0000
,
0011
0000
0000
0000
0011
0000
0000
0000
0001
0010
0100
1000
0100
1000
0000
0000
,
1100
0000
0000
0110
0000
0000
0010
0000
1000
0100
0010
0001
0010
0100
0000
0000
,
1010
0000
0000
0000
1010
0000
0000
0000
1000
0100
1000
0001
0010
0100
0000
0000
,
0110
0000
0000
1001
0000
0000
1000
0000
0100
0010
0100
0010
0001
0010
0000
0000
,
0101
0000
0000
0000
0101
0000
0000
0000
0001
0010
0001
1000
0100
0010
0000
0000
,
0110
0000
0000
1001
0000
0000
0001
0000
0010
0100
0010
0100
1000
0100
0000
0000
,
0011
0000
0000
0000
0011
0000
0000
0000
1000
0100
1000
0010
1000
0001
0000
0000
,
1001
0000
0000
0110
0000
0000
1000
0000
0001
0010
0100
1000
0100
1000
0000
0000
,
1100
0000
0000
0000
1100
0000
0000
0000
0001
0010
0001
0100
0001
1000
0000
0000
,
1001
0000
0000
0110
0000
0000
0001
0000
1000
0100
0010
0001
0010
0001
0000
0000
,
1001
0000
0000
0000
1001
0000
0000
0000
0001
0010
0100
0001
0010
0100
0000
0000
,
0110
0000
0000
0110
0000
0000
0001
0000
1000
0100
0010
1000
0100
0010
0000
0000
,
1001
0000
0000
0000
1001
0000
0000
0000
1000
0100
0010
1000
0100
0010
0000
0000
,
1000
0000
0000
0100
0000
0000
0010
0000
0010
0000
0010
0000
0010
0000
0000
0000
,
1100
0000
1000
0000
0100
0000
0100
0000
0010
0000
0000
0010
0000
0000
0100
0000
,
0000
0000
0001
0000
0010
0000
0100
0000
0001
0000
1000
0100
0000
0001
0010
0000
,
0001
0000
0001
0000
0010
0000
0010
0000
0100
0000
0000
0100
0000
0000
0010
0000
,
0000
1000
1000
0100
0001
0010
1000
0000
,
0001
0000
0001
0000
0010
0000
0010
0000
0100
0000
0000
0100
0000
0000
0010
0000
,
0000
0000
1000
0000
0100
0000
0010
0000
1000
0000
0001
0010
0000
1000
0100
0000
,
1000
0000
1000
0000
0100
0000
0100
0000
0010
0000
0000
0010
0000
0000
0100
0000
,
0000
0001
0001
0010
1000
0100
0001
0000
,
1100
0000
0100
0000
0001
0000
0001
0000
1000
0000
0000
1000
0000
0000
0001
0000
,
0000
0000
0010
0000
1000
0000
0001
0000
0010
0000
0100
0001
0000
0010
1000
0000
,
0010
0000
0010
0000
1000
0000
1000
0000
0001
0000
0000
0001
0000
0000
1000
0000
,
0000
0100
0100
0001
0010
1000
0100
0000
,
0010
0000
0010
0000
1000
0000
1000
0000
0001
0000
0000
0001
0000
0000
1000
0000
,
0000
0000
0100
0000
0001
0000
1000
0000
0100
0000
0010
1000
0000
0100
0001
0000
,
0100
0000
0100
0000
0001
0000
0001
0000
1000
0000
0000
1000
0000
0000
0001
0000
,
0110
0000
0010
0000
0010
0000
1000
0000
1000
0010
0100
0001
1100
0000
0110
0000
,
1001
0001
0001
0010
,
0010
0100
0100
1000
,
1000
0001
0010
0100
,
1000
0001
0010
0100
,
1000
0000
0100
0000
0001
0000
0010
0000
1000
0100
1000
0100
0010
0000
0010
0000
,
0001
0000
0010
0000
1000
0000
0100
0000
0001
0010
0001
0010
0100
0000
0100
0000
,
0100
0000
0001
0000
0010
0000
1000
0000
0100
0010
0100
0010
1000
0000
1000
0000
,
0000
0001
0001
0001
0010
0010
0100
0000
,
1100
0000
0010
0000
1100
0000
0001
0000
1000
0100
1000
0100
0010
0000
0001
0000
,
1010
0000
0100
0000
1010
0000
0100
0000
0010
0000
1000
0100
0000
0001
0010
0000
,
1100
0000
0001
0000
0110
0000
0001
0000
1000
0100
1000
0100
0010
0000
0001
0000
,
0110
1000
0110
0001
2000
3200
0320
0030
,
0011
0000
0100
0000
0011
0000
1000
0000
0001
0010
0001
0010
0100
0000
1000
0000
,
0101
0000
0010
0000
0101
0000
0010
0000
0100
0000
0001
0010
0000
1000
0100
0000
,
0011
0000
1000
0000
0110
0000
1000
0000
0001
0010
0001
0010
0100
0000
1000
0000
,
0110
0001
0110
1000
0002
0023
0230
0300
,
0011
0000
0100
0000
0011
0000
1000
0000
0001
0010
0001
0010
0100
0010
0001
0000
,
1100
0000
0100
0000
0101
0000
0100
0000
0100
0000
0001
0010
0000
1000
0100
0000
,
0011
0000
0010
0000
0110
0000
0010
0000
1000
0100
1000
0100
0010
0000
0001
0000
,
1100
0100
0110
0100
0002
0023
0230
0300
,
1100
0000
0010
0000
1100
0000
0001
0000
1000
0100
1000
0100
0010
0100
1000
0000
,
0011
0000
0010
0000
1010
0000
0010
0000
0010
0000
1000
0100
0000
0001
0010
0000
,
1100
0000
0100
0000
0110
0000
0100
0000
0001
0010
0001
0010
0100
0000
1000
0000
,
0011
0010
0110
0010
2000
3200
0320
0030
,
1001
0000
0010
0000
,
0100
0000
0000
0000
0100
0000
0000
0000
1000
0000
0001
0001
0001
0000
0010
0000
,
0010
0000
0100
0000
,
1000
0000
0000
0000
1000
0000
0000
0000
0001
0000
0010
0010
0010
0000
0100
0000
,
1100
0000
1000
0000
,
0001
0000
0000
0000
0001
0000
0000
0000
0010
0000
0100
0100
0100
0000
1000
0000
,
1000
0000
0001
0000
,
0010
0000
0000
0000
0010
0000
0000
0000
0100
0000
1000
1000
1000
0000
0001
0000
,
0011
0000
1100
0000
,
0101
0000
0000
0000
1010
0000
0000
0000
0101
0000
0010
0010
0010
0000
0100
0000
,
1100
0000
0011
0000
,
1010
0000
0000
0000
0101
0000
0000
0000
1010
0000
0100
0100
0100
0000
0000
0000
,
0011
0000
1100
0000
,
0101
0000
0000
0000
1010
0000
0000
0000
0101
0000
0010
0010
0010
0000
0100
0000
,
1100
0000
0011
0000
,
1010
0000
0000
0000
0101
0000
0000
0000
1010
0000
0100
0100
0100
0000
0000
0000
,
0022
0000
0000
0000
,
0033
0000
0000
0000
,
0000
0000
0000
0000
,
2002
0000
0000
0000
0000
0000
3003
0000
0001
0010
0001
0010
0100
1000
0100
1000
;
