#TITLE:MaxX WipEout;
#SUBTITLE:;
#ARTIST:W1p3out;
#TITLETRANSLIT:;
#SUBTITLETRANSLIT:;
#ARTISTTRANSLIT:;
#CREDIT:;
#BANNER:MaxX WipEoutv2.png;
#BACKGROUND:MaxX WipEoutv2-bg.png;
#LYRICSPATH:;
#CDTITLE:;
#MUSIC:MaxX WipEout.mp3;
#OFFSET:-6.120;
#SAMPLESTART:53.760;
#SAMPLELENGTH:12.940;
#SELECTABLE:YES;
#DISPLAYBPM:*;
#BPMS:0.000=300.000,161.500=599.996,167.500=300.000,169.500=150.000,170.500=75.000,179.000=150.000,192.000=300.000,376.000=287.580,376.500=268.760,377.000=236.340,377.500=198.700,378.000=160.880,378.250=146.860,378.500=120.840,378.750=107.620,379.000=89.000,379.250=76.580,379.500=58.560,379.750=46.940,380.000=26.520,380.250=150.000;
#STOPS:170.500=0.820
;
#BGCHANGES:;
// cache tags:
#FIRSTBEAT:0.000;
#LASTBEAT:380.125;
#SONGFILENAME:Songs/maxxx/MaxX WipEout v2/MaxX WipEout v2.sm;
#HASMUSIC:1;
#HASBANNER:1;
#MUSICLENGTH:98.070;
// end cache tags

//---------------dance-single - ----------------
#NOTES:
     dance-single:
     :
     Hard:
     10:
     0.739,0.872,0.377,0.122,0.010,458.000,37.000,12.000,0.000,0.000:
0100
0010
0001
1000
0000
0001
0000
0000
,
0000
0001
0000
0000
0000
0010
0000
0000
,
0000
1000
0000
0100
0000
1000
0000
0010
,
0000
0000
0000
1001
0000
0000
0000
0010
,
0100
1000
0000
1000
0000
1000
0000
0000
,
0000
0001
0000
0000
0000
0001
0000
0101
,
0000
0100
0000
0010
0000
1000
0000
0100
,
0010
0001
1000
0010
0100
0001
0010
0100
,
1000
0010
0100
0002
0000
1000
0000
0000
,
0000
1003
0100
0010
0000
0010
0000
0000
,
0000
1000
0001
1000
0000
0100
0000
0000
,
0000
1000
0001
1000
0000
0010
0000
1000
,
0000
0001
0000
0100
0000
0110
0000
0000
,
0000
0010
1000
0001
0000
1000
0000
0000
,
0000
0010
1000
0001
0000
1000
0000
0000
,
0000
0100
0010
0100
0000
0001
0000
0001
,
0000
1000
0000
1001
0000
0001
0000
0000
,
0000
0001
0010
0001
0000
0100
0000
0000
,
0000
0010
1000
0010
0000
0100
0000
0000
,
0000
1000
0100
1000
0000
0100
0000
0010
,
0000
0001
0000
0100
0000
0001
0000
0010
,
0000
0100
0000
1000
0001
1000
0000
0010
,
0000
0100
0000
0001
0000
1000
0000
0010
,
1000
0010
1000
0010
0100
0001
0100
0001
,
0100
0001
1000
0010
0000
0020
0000
0000
,
0000
0130
0000
0100
0000
0200
0000
0001
,
0000
0301
0000
0002
0000
1000
0000
1003
,
0000
0000
0000
1000
0100
0010
0000
0001
,
0010
0100
0000
1000
0001
2000
0000
0100
,
0000
3200
0000
0010
0000
0320
0000
0001
,
0000
0031
0000
0010
0100
0010
0000
0010
,
0001
1000
0000
1000
0001
0100
0010
1000
,
0001
0100
0010
0200
0000
0310
0000
0110
,
0000
0000
0000
1000
0100
1000
0000
0100
,
0000
0010
0001
0010
0000
0100
0000
1000
,
0001
1000
0000
1000
0000
0001
1000
0001
,
0000
0001
0000
0010
0000
0100
0000
1000
,
0000
0010
0000
0100
0001
1000
0000
0010
,
0000
0010
0000
1000
0000
0001
0000
1000
,
0000
1000
0001
1000
0100
1000
0010
1000
,
0001
1000
0000
2002
0000
0000
0000
0000
,
0000
0000
0000
0000
,
0000
0000
0000
0000
0000
3003
1100
0100
,
0101
0000
0001
0000
1001
0000
1000
0001
0100
0000
0010
0000
0101
0000
0001
0000
,
0011
0000
0010
0000
0110
0000
0100
1000
0010
0000
0100
0000
1001
0000
0000
0000
,
0100
1001
0010
0110
,
1000
0000
0110
0001
0101
0000
1001
0000
,
0010
0000
1001
0100
1100
0000
1010
0000
,
1000
0100
0010
0001
1000
0010
0100
0001
,
1000
0100
1000
0001
0010
0000
0001
0000
,
0000
0000
1000
0100
1000
0000
1100
0000
,
0000
0000
0001
0100
0001
0000
0101
0000
,
0000
0000
1000
0001
1000
0000
1001
0000
,
1000
0010
0100
0001
,
1000
0000
1000
0000
0100
0010
0100
0000
,
0010
0000
0010
0000
0001
1000
0001
0000
,
1000
0000
0001
0100
0001
0010
0001
1000
,
0100
1000
0010
1000
0001
0000
0011
0000
,
0000
0000
1000
0010
0100
0000
0101
0000
,
0000
0000
0001
0100
0010
0000
1010
0000
,
0000
0000
1000
0100
0010
0000
0001
0000
,
0001
0000
0010
0100
1000
0000
0100
0000
,
1000
0000
0010
0000
0100
0001
0010
0000
,
0010
0000
0100
0000
1000
0100
1000
0100
,
0010
0001
0010
0001
0100
0001
0100
0001
,
1000
0100
1000
0100
1000
0000
1100
0000
,
0000
0000
0010
1000
0001
0000
0001
1000
,
0100
0000
0100
1000
0010
0000
0010
1000
,
0100
0000
0100
0010
0001
0000
0100
0000
,
0001
1000
0010
0010
,
1000
0100
0010
0000
0010
0001
0100
0000
,
0100
0010
1000
0000
1000
0010
0100
0000
,
0100
0001
0010
0000
0010
0100
1000
0010
,
0100
0001
1000
0000
1001
0000
0000
0000
,
0010
0100
0010
0000
0100
0010
0100
0000
,
0001
1000
0001
0000
1000
0001
1000
0000
,
1000
0100
0010
0000
0001
0010
0100
0000
,
1000
0000
0001
0000
0100
0010
0100
0000
,
0010
1000
0001
0000
0010
0001
1000
0000
,
0100
0000
0110
0000
,
0010
0100
0010
0001
1000
0010
0100
0001
,
1000
0100
0010
0001
1000
0000
0010
0000
,
0000
0000
0010
0100
0010
0000
1000
0000
,
0001
0000
0100
0010
1000
0000
0001
0000
,
0001
0000
1000
0010
0100
0000
0100
0000
,
0010
0100
0001
0000
0001
0000
0010
0100
,
1000
0000
0001
0000
0010
0100
1000
0000
,
0001
0010
0100
0000
0010
0001
0100
0000
,
0010
1000
0100
0000
1000
0000
0100
0000
,
0010
0001
1001
0000
,
0110
0000
1010
1001
,
0101
0000
1001
0000
,
1000
0100
1000
0010
1000
0001
0010
0001
,
0100
0001
1000
0000
2002
0000
0000
0000
,
0000
0000
0000
0000
,
0000
3003
0000
0000
0000
0000
0000
0000
0000
0000
0000
0000
0000
0000
0000
0000
0000
0000
0000
0000
0000
0000
0000
0000
0000
0000
0000
0000
0000
0000
0000
0000
;

//---------------dance-single - ----------------
#NOTES:
     dance-single:
     :
     Easy:
     6:
     0.399,0.630,0.367,0.061,0.000,232.000,36.000,6.000,0.000,0.000:
0000
1000
0000
0100
0000
0010
0000
0000
,
0000
0001
0000
0000
0000
0100
0000
0000
,
0000
0001
0000
1000
0000
0001
0000
1000
,
0000
0000
0000
0100
0000
0000
0000
0010
,
0000
0100
0000
0010
0000
0000
0000
0001
,
0000
0000
0000
1000
0000
0010
0000
1000
,
0000
0000
0000
1000
0000
0000
0000
0100
,
0000
0010
0000
0100
0000
0010
0000
0001
,
0000
1000
0000
1001
0000
0000
0000
1001
,
0000
0000
0000
0100
0000
0000
0000
0100
,
0000
0000
0000
0010
0000
0000
0000
0010
,
0000
0000
0000
1000
0000
0000
0000
1000
,
0000
0000
0000
0001
0000
0000
0000
0001
,
0000
0000
0000
0100
0000
0000
0000
0010
,
0000
0000
0000
1000
0000
0000
0000
0001
,
0000
0000
0000
1100
0000
0000
0000
0101
,
0000
0000
0000
1001
0000
0000
0000
1001
,
0000
0000
0000
0001
0000
0000
0000
0001
,
0000
0000
0000
1000
0000
0000
0000
1000
,
0000
0000
0000
0100
0000
0000
0000
0100
,
0000
0000
0000
0010
0000
0000
0000
0010
,
0000
0000
0000
0100
0000
0010
0000
0100
,
0000
0000
0000
0010
0000
0000
0000
0010
,
0000
0000
0000
0011
0000
0000
0000
1010
,
0000
0000
0000
1001
0000
0000
0000
1000
,
0000
0000
0000
0100
0000
0000
0000
0100
,
0000
0000
0000
0010
0000
0000
0000
0001
,
0000
0000
0000
0001
0000
1000
0000
0010
,
0000
0100
0000
0001
0000
1000
0000
0001
,
0000
0000
0000
1000
0000
0000
0000
0010
,
0000
0000
0000
0100
0000
0000
0000
0001
,
0000
0100
0000
0001
0000
1000
0000
0010
,
0000
1000
0000
0001
0000
1001
0000
0000
,
0000
0001
0000
0000
0000
0001
0000
0000
,
0000
1000
0000
0000
0000
0010
0000
0000
,
0000
0010
0000
0100
0000
0010
0000
0100
,
0000
0010
0000
0100
0000
0000
0000
1000
,
0000
0000
0000
0001
0000
1000
0000
0001
,
0000
0000
0000
0010
0000
0001
0000
0010
,
0000
0001
0000
1000
0000
0100
0000
1000
,
0000
0100
0000
0220
0000
0000
0000
0000
,
0000
0000
0000
0000
,
0000
0000
0000
0000
0000
0330
1000
0000
,
0100
0001
0000
0001
,
0010
1000
0000
1001
,
0100
0001
0100
1001
,
0010
1000
0010
1001
,
0100
1001
0010
0101
,
1100
0000
1100
0000
,
0101
0000
1001
0000
,
1001
0000
0100
0000
,
0100
0000
0010
0000
,
0010
0000
1000
0000
,
1000
0000
0001
0000
,
0001
0000
0100
0010
,
0100
0000
1000
0000
,
0001
0000
1100
0000
,
0101
0000
1001
0000
,
1100
0000
0100
0000
,
1000
0000
0001
0000
,
1000
0000
0100
0000
,
0010
0000
0100
0000
,
1000
0000
0001
0100
,
0001
0000
0010
0000
,
0100
0000
1100
0000
,
0101
0000
1001
0000
,
1001
0000
0100
0100
,
0000
0000
0010
0010
,
0000
0000
1000
0000
,
0100
0000
0001
0000
,
0010
0000
0100
0100
,
0000
0000
0010
0010
,
0000
0000
1000
0001
,
1000
0001
1001
0000
,
0110
0000
0001
0001
,
0000
0000
1000
1000
,
0000
0000
0100
0000
,
0001
0000
0010
0000
,
1000
0000
1000
0100
,
0001
0000
1001
0000
,
0100
0000
1000
0010
,
0100
0001
1001
0000
,
1000
0000
0100
0000
,
0010
0000
0002
0000
,
0010
0000
0010
0010
,
0010
0010
0010
0000
,
2003
0000
0100
0100
,
0100
0000
0001
0001
,
0001
0000
0010
0010
,
0010
3010
1010
0000
,
1001
0000
0001
0100
,
1000
0000
0100
0000
,
0001
0100
1000
0100
,
0001
0100
0220
0000
,
0000
0000
0000
0000
,
0330
0000
0000
0000
;

//---------------dance-single - ----------------
#NOTES:
     dance-single:
     :
     Medium:
     8:
     0.607,0.630,0.418,0.367,0.000,340.000,41.000,36.000,0.000,0.000:
0000
0001
0000
1000
0000
0002
0000
0003
,
0000
0200
0000
0300
0000
0020
0000
0030
,
0000
1000
0000
0100
0000
0010
0000
0001
,
0000
0000
0000
1100
0000
0000
0000
0001
,
0000
0010
0000
0100
0000
1000
0000
0001
,
0000
2000
0000
3000
0000
0001
0000
0200
,
0000
0300
0000
0200
0000
0300
0000
0010
,
0000
1000
0001
1000
0001
0100
0010
0100
,
0010
0100
0001
2000
0000
0001
0000
0000
,
0000
3010
0000
1000
0000
0001
0000
0100
,
0000
0010
0000
1000
0000
0010
0000
1000
,
0000
0001
0000
0100
0000
0001
0000
0100
,
0000
0010
0000
0010
0000
0020
0000
0030
,
0000
1000
0000
0100
0000
2000
0000
3000
,
0000
0001
0000
1000
0000
2000
0000
3000
,
0000
0001
0000
0002
0000
0203
0000
0320
,
0000
1030
0000
2002
0000
3003
0000
0001
,
0000
0010
0000
0100
0000
1000
0000
0100
,
0000
0010
0000
0001
0000
1000
0000
0010
,
0000
0100
0000
0001
0000
0100
0000
0010
,
0000
1000
0000
1100
0000
0000
0000
0011
,
0000
0000
0000
0010
0000
0100
0000
2000
,
0000
3000
0000
2002
0000
3003
0000
1000
,
0000
0100
0000
0010
0001
1000
0100
0010
,
0001
1000
0100
0010
0000
0002
0000
0003
,
0000
0100
0000
0001
0000
0101
0000
0000
,
0000
0100
0000
1000
0000
1100
0000
0000
,
0000
1000
0000
0010
0000
0010
0000
1000
,
0000
0001
0000
0010
0000
0011
0000
0000
,
0000
0010
0000
1000
0000
1010
0000
0000
,
0000
0001
0000
0010
0000
0100
0000
1000
,
0000
0001
0000
1000
0000
0001
0000
0010
,
0100
0010
0100
0010
0000
0100
0000
0000
,
0000
0100
0000
0010
0000
1010
0000
0000
,
0000
0010
0000
0100
0000
0101
0000
0000
,
0000
0001
0000
0010
0000
0100
0000
1000
,
0000
0100
0000
0001
0000
0010
0000
0100
,
0000
1000
0000
0001
0000
0100
0000
1000
,
0000
0010
0000
0100
0000
0001
0000
1000
,
0000
0100
0000
0010
0000
0001
1000
0001
,
1000
0001
0000
2002
0000
0000
0000
0000
,
0000
0000
0000
0000
,
0000
0000
0000
0000
0000
3003
1100
0000
,
0101
1001
0100
1010
,
0011
1001
0010
1001
,
0100
0001
0010
1000
,
0100
0001
0010
0001
,
0100
1000
0010
0001
,
0100
0010
1000
0010
,
1000
0100
0010
0001
1000
0000
2000
0000
,
3000
0001
0001
0002
,
0003
1000
0100
2200
,
3300
0010
0001
0010
,
0100
1000
0010
0100
,
0001
0010
0100
1000
,
0001
0100
0001
0100
,
0010
0000
1000
0000
0010
1000
0010
0000
,
1000
0100
0100
0200
,
0300
0010
0010
0020
,
0030
0100
0010
0220
,
0330
0100
0001
0100
,
0001
1000
0010
0100
,
0001
0100
0010
1000
,
0001
1000
0001
0100
,
0010
0000
1000
0000
0010
0000
0100
0001
,
0100
0000
0010
0000
0010
1000
0000
0000
,
1010
0000
0000
0000
0100
0001
0000
0000
,
0101
0000
0000
0000
0001
1000
0000
0000
,
1001
0000
1000
0100
,
0010
0000
0001
0000
0001
0010
0000
0000
,
0011
0000
0000
0000
1000
0100
0000
0000
,
1100
0000
1001
0000
,
0010
0100
0010
0100
0010
0100
0010
0000
,
0100
0001
1001
1001
,
0000
0000
0010
0100
0000
0000
1010
0000
,
0000
0000
0100
0010
0000
0000
0101
0000
,
0000
0000
0010
0100
0000
0000
1010
0000
,
0010
0100
0001
0010
,
0100
1000
0100
0100
,
0010
0010
0002
0003
,
1000
0010
0100
0001
,
0100
0010
1010
2020
,
3030
0000
0010
1000
0000
0000
0101
0000
,
0000
0000
0001
0010
0000
0000
2100
0000
,
0100
0000
0010
0010
,
0010
0000
0001
0001
,
3001
0001
0010
0010
,
0001
1000
0100
0100
,
1000
0002
0100
0100
,
0100
0103
0101
0000
,
1001
0000
1010
0100
,
0001
0000
0011
0000
,
1000
0000
0100
0000
0010
0001
1000
0100
,
0010
0001
1000
0000
2002
0000
0000
0000
,
0000
0000
0000
0000
,
3003
0000
0000
0000
;

//---------------dance-single - ----------------
#NOTES:
     dance-single:
     :
     Beginner:
     3:
     0.178,0.238,0.133,0.000,0.000,109.000,13.000,0.000,0.000,0.000:
0000
1000
0000
0000
0000
0000
0000
0000
,
0000
1000
0000
0000
0000
0000
0000
0000
,
0000
0001
0000
0000
0000
0000
0000
0000
,
0000
0001
0000
0000
0000
0000
0000
0100
,
0000
0000
0000
0000
0000
0000
0000
0100
,
0000
0000
0000
0000
0000
0000
0000
0010
,
0000
0000
0000
0000
0000
0000
0000
0010
,
0000
0000
0000
0000
0000
0000
0000
0100
,
0000
0000
0000
1001
0000
0000
0000
0100
,
0000
0000
0000
0000
0000
0000
0000
0001
,
0000
0000
0000
0000
0000
0000
0000
0100
,
0000
0000
0000
0000
0000
0000
0000
0100
,
0000
0000
0000
0000
0000
0000
0000
1000
,
0000
0000
0000
0000
0000
0001
0000
0000
,
0000
0000
0000
0000
0000
0001
0000
0000
,
0000
0000
0000
0000
0000
0100
0000
0000
,
0000
0000
0000
1001
0000
0000
0000
0000
,
0000
0100
0000
0000
0000
0000
0000
0000
,
0000
1000
0000
0000
0000
0000
0000
0000
,
0000
0010
0000
0000
0000
0000
0000
0000
,
0000
0010
0000
0000
0000
0000
0000
0010
,
0000
0000
0000
0000
0000
0000
0000
1000
,
0000
0000
0000
0000
0000
0000
0000
0010
,
0000
0000
0000
0000
0000
0000
0000
0100
,
0000
0000
0000
1001
0000
0000
0000
0000
,
0000
1000
0000
0000
0000
0000
0000
0000
,
0000
0010
0000
0000
0000
0000
0000
0000
,
0000
0001
0000
0000
0000
0000
0000
0000
,
0000
1000
0000
0000
0000
0000
0000
0010
,
0000
0000
0000
0000
0000
0000
0000
0010
,
0000
0000
0000
0000
0000
0000
0000
0001
,
0000
0000
0000
0000
0000
0000
0000
0100
,
0000
0000
0000
1001
0000
0000
0000
0000
,
0000
1000
0000
0000
0000
0000
0000
0000
,
0000
0100
0000
0000
0000
0000
0000
0000
,
0000
1000
0000
0000
0000
0000
0000
0000
,
0000
0010
0000
0000
0000
0000
0000
0010
,
0000
0000
0000
0000
0000
0000
0000
0001
,
0000
0000
0000
0000
0000
0000
0000
0010
,
0000
0000
0000
0000
0000
0000
0000
0001
,
0000
0000
0000
1001
0000
0000
0000
0000
,
0000
0000
0000
0000
,
0000
0000
0000
1000
,
0001
1000
0000
0010
,
0100
0010
0000
1000
,
0000
1000
0000
0001
,
0000
0001
0000
0100
,
0000
0100
0000
0010
,
0000
0000
0010
0000
,
0000
0000
1001
0000
,
0000
0000
1000
0000
,
0000
0000
0010
0000
,
0000
0000
0100
0000
,
0000
0000
0001
0000
,
0000
0000
1000
0000
,
0000
0000
0001
0000
,
0000
0000
1000
0000
,
0000
0000
1001
0000
,
0000
0000
0010
0000
,
0000
0000
0100
0000
,
0000
0000
0010
0000
,
0000
0000
1000
0000
,
0000
0000
0001
0000
,
0000
0000
1000
0000
,
0000
0000
0001
0000
,
0000
0000
1001
0000
,
0000
0000
0010
0000
,
0000
0000
0010
0000
,
0000
0000
1000
0000
,
0000
0000
0001
0000
,
0000
0000
1000
0000
,
0000
0000
0001
0000
,
0000
0000
0010
0000
,
0010
0000
0110
0000
,
0000
0000
0100
0000
,
0000
0000
0010
0000
,
0000
0000
1000
0000
,
0000
0000
0001
0000
,
0000
0000
1000
0000
,
1000
0000
1000
0000
,
0000
0000
0001
0000
,
0000
0000
1001
0000
,
0000
0000
0010
0000
,
0000
0000
0100
0000
,
0000
0000
0100
0000
,
0010
0000
0010
0000
,
1000
0000
0000
0000
,
0001
0000
0000
0000
,
1000
0000
0000
0000
,
0001
0000
1001
0000
,
0000
0000
1001
0000
,
0000
0000
1000
0000
,
0000
0000
0001
0000
,
0000
0000
1001
0000
;
