#TITLE:Fly Away;
#SUBTITLE:;
#ARTIST:Vincent De Moor;
#TITLETRANSLIT:;
#SUBTITLETRANSLIT:;
#ARTISTTRANSLIT:;
#CREDIT:;
#BANNER:fly away-banner.png;
#BACKGROUND:fly away-bg.png;
#LYRICSPATH:;
#CDTITLE:cdtitle.png;
#MUSIC:fly away.mp3;
#OFFSET:-0.300;
#SAMPLESTART:42.372;
#SAMPLELENGTH:12.000;
#SELECTABLE:YES;
#BPMS:0.000=138.000;
#STOPS:125.250=1.300
;
#BGCHANGES:;
// cache tags:
#FIRSTBEAT:1.000;
#LASTBEAT:259.500;
#SONGFILENAME:Songs/Ace Megapack/Fly Away/flyaway.sm;
#HASMUSIC:1;
#HASBANNER:1;
#MUSICLENGTH:117.167;
// end cache tags

//---------------dance-single - ----------------
#NOTES:
     dance-single:
     :
     Challenge:
     10:
     0.863,0.747,0.145,0.026,1.000,688.000,17.000,3.000,0.000,0.000:
0000
0000
0000
0000
0002
0000
0010
0003
0000
0100
1000
0010
1000
0000
0001
0000
,
0000
0010
0100
0010
0001
0000
0020
0030
0000
0010
0100
0010
0100
0000
1000
0000
,
0000
0001
0000
0100
0001
0100
0000
0001
0000
0100
0010
0000
0100
0001
0010
0100
,
0000
0010
0001
0000
0010
0100
0010
0001
0000
1000
0010
0000
1000
0010
1000
0010
,
0000
1000
0001
0000
0010
0001
0010
0001
0000
0010
0100
0000
0010
0100
0010
0100
,
0000
0010
0001
0000
1000
0001
1000
0001
0000
1000
0010
0000
1000
0010
1000
0010
,
0000
1000
0001
0000
0010
0001
0010
0001
0000
0010
0100
0000
1000
0100
1000
0100
,
0000
1000
0010
0000
1000
0001
1000
0001
0000
1000
0100
0000
1000
0001
0010
0100
,
0000
1000
0001
0000
0010
0100
1000
0001
0000
1000
0010
0000
0100
0001
0010
0100
,
0000
1000
0001
0000
1000
0010
1000
0010
0000
0100
0001
0000
0010
0001
0010
0001
,
0000
0010
0100
0000
1000
0010
1000
0010
0000
1000
0001
0000
0100
0010
0100
0010
,
0000
0100
0001
0000
1000
0001
1000
0100
0000
0010
0001
0000
1000
0100
0010
0001
,
0000
1000
0100
0000
1000
0001
0100
0010
0000
1000
0001
0000
0100
0010
1000
0100
,
0000
1000
0001
0000
0010
0001
1000
0100
0010
0001
1000
0100
0010
0001
1000
0100
,
0010
0001
1000
0100
0010
0000
0000
0010
0100
0000
1000
0000
0001
0000
0100
0010
,
0000
1000
0100
0000
0010
0000
0001
0100
0000
0010
1000
0000
0100
0000
0010
0001
,
0000
0100
0010
0000
1000
0000
1000
0100
0000
0100
0010
0000
0010
0000
0001
0100
,
0000
0100
0010
0000
1000
0000
1000
0001
0000
0001
0010
0000
0100
0000
1000
0010
,
0000
0010
0100
0000
0001
0000
0010
0100
0000
1000
0010
0000
0100
0000
0100
0001
,
0000
0001
0010
0000
0100
0000
1000
0010
0000
0010
1000
0000
0001
0000
0100
0010
,
0000
1000
0000
0001
0010
0000
0010
0100
0000
1000
0000
1000
0010
0000
0010
0100
,
0000
0100
0000
0001
0010
0000
0010
0001
0000
1000
0000
0001
1000
0000
0001
1000
,
0000
0100
0000
1000
0001
0000
0100
0010
0000
1000
0001
0000
0010
0000
0100
1000
,
0000
1000
0001
0000
0001
0000
0010
0100
0000
1000
0010
0000
0100
0000
0001
0010
,
0000
0010
0100
0000
1000
0000
1000
0001
0000
0001
0100
0000
0010
0000
1000
0100
,
0000
0010
0001
0000
0100
0000
0010
1000
0000
0001
1000
0000
0100
0000
1000
0001
,
0000
0100
1000
0000
0001
0000
0010
0100
0000
1000
0010
0000
0100
0000
0001
0010
,
0000
0100
1000
0000
0010
0000
0100
0001
0000
0001
1000
0000
0100
0000
0000
0010
,
0000
0001
0000
1000
0010
0000
0100
0001
0000
0010
0000
0000
0100
0000
1000
0010
,
0000
0010
0100
0000
0001
0000
0001
0010
0000
0010
0001
0000
0010
0000
0100
1000
,
0000
1000
0000
0010
0100
0010
0001
0010
0100
1000
0001
0010
0100
1000
0001
0010
,
0100
1000
0001
1000
0010
0000
0000
0000
0001
0010
0100
0010
0000
0001
1000
0000
,
0010
0100
0010
0100
0000
0001
0010
0000
0100
0010
0100
0010
0000
0001
0010
0000
,
0001
1000
0001
1000
0000
0010
1000
0000
0001
0100
0001
0100
0000
0010
0100
0000
,
0001
0010
0001
0010
0000
0100
1000
0000
0010
1000
0010
1000
0000
0001
0100
0000
,
0010
1000
0010
1000
0000
0001
0010
0000
0100
1000
0001
0010
0000
0100
1000
0000
,
0001
0010
0100
1000
0000
0001
1000
0000
0010
0100
0001
0010
0000
0100
1000
0000
,
0001
1000
0010
0100
0000
0001
0010
0000
0001
0010
0100
1000
0000
0010
1000
0000
,
0001
1000
0100
0010
0000
0001
0010
0000
0100
1000
0010
1000
0000
0001
0100
0000
,
0010
0100
0010
0100
0000
0001
0010
0000
0100
0010
0001
0010
0100
0010
0001
1000
,
0100
0010
0001
1000
0100
0010
0001
1000
0100
0000
0010
1000
0000
1001
0000
0000
,
1100
0000
0000
1010
0000
0000
1010
0000
1010
0000
0000
1001
0000
0000
1001
0000
,
1001
0000
0000
1100
0000
0000
0001
0000
0010
0000
0100
1000
0000
1000
0010
0000
,
0100
0000
0001
0010
0000
0010
0100
0000
1000
0000
1000
0010
0000
0010
0100
0000
,
0001
0000
0010
0100
0000
0100
1000
0000
0001
0000
1000
0010
0000
1000
0001
0000
,
0010
0000
0100
1000
0000
0001
0010
0000
0100
0000
1000
0010
0000
0010
0100
0000
,
0001
0000
0010
0100
0000
0100
0000
1000
0001
0000
1000
0010
0000
0100
0000
0000
,
0001
0000
0010
0100
0000
1000
0001
0000
1000
0000
0010
0100
0000
0001
0010
0000
,
0100
0000
1000
0010
0000
0100
0000
0001
0010
0000
0001
0010
0000
0100
0000
0000
,
0010
0000
0000
1010
0000
0000
1001
0000
1100
0000
0001
0010
0000
0010
0100
0000
,
1000
0000
0010
1000
0000
1000
0001
0000
0100
0000
0010
1000
0000
1000
0100
0000
,
0010
0000
0010
0001
0000
0001
0100
0000
0100
0000
0100
0010
0000
0010
1000
0000
,
1000
0000
1000
0001
0000
0001
0010
0000
0100
0000
0010
0001
0000
0001
1000
0000
,
1000
0000
0010
0100
0000
0100
0001
0000
0001
0000
0001
0010
0000
0010
0100
0000
,
0100
0000
1000
0010
0000
0010
0000
0100
0001
0000
0010
0100
0000
1000
0000
0010
,
1000
0000
0001
0100
0000
0010
1000
0000
0100
0000
0010
0001
0100
0001
0010
0100
,
1000
0001
0010
0100
1000
0001
0010
0100
1000
0000
0001
0010
0000
0100
1000
0000
,
0010
0000
0100
0001
0000
0010
0100
0000
1000
0000
0010
0100
0000
0001
0010
0000
,
0011
0000
0000
1100
0000
0000
1010
0000
1001
0000
0000
1100
0000
0000
0001
0000
,
0010
0000
0100
1000
0000
1000
0010
0000
0100
0000
0001
0010
0000
0010
0100
0000
,
1000
0000
1000
0001
0000
0001
0100
0000
0010
0000
1000
0001
0000
0010
0100
0000
,
1000
0000
0001
0010
0000
0100
1000
0000
0010
0000
0100
0001
0000
0010
0100
0000
,
1000
0000
0100
0010
0100
0001
0000
0010
0100
0000
1000
0010
0000
0100
0000
0000
,
0001
0000
0010
0100
0000
1000
0010
0000
0100
0000
0001
0010
0100
1000
0001
0010
,
0100
1000
0001
0010
0100
1000
0001
0010
0200
0000
0000
0000
0000
0000
0300
0000
;

//---------------dance-single - ----------------
#NOTES:
     dance-single:
     :
     Hard:
     9:
     0.639,0.636,0.401,0.060,0.913,470.000,47.000,7.000,0.000,0.000:
0000
0000
0000
0000
0001
0000
0010
0000
0000
0100
0000
1000
0000
0000
0010
0000
,
0100
0000
0001
0010
0000
0000
0001
0000
1000
0010
0000
0100
0000
0000
0001
0000
,
0010
0100
0000
1000
0000
0000
0010
0000
0100
0000
0001
0000
0010
0100
0000
1000
,
0000
0000
0010
0000
0100
0001
0000
0010
0000
0000
0100
0000
1000
0010
0000
0100
,
0000
0000
0001
0000
0010
0100
0000
1000
0000
0000
0010
0000
1000
0001
0000
0010
,
0000
0000
0100
0000
1000
0010
0000
0100
0000
0000
0001
0000
0010
0100
0000
1000
,
0000
0000
0001
0000
0100
0010
0000
1000
0000
0000
0001
0000
0010
0100
0000
1000
,
0000
0000
0001
0000
0100
0010
0000
1000
0000
0000
0001
0000
0010
0100
0000
1000
,
0000
0000
0001
0000
0100
0010
0000
1000
0000
0000
0001
0000
0010
0100
0000
1000
,
0000
0000
0001
0000
0100
0010
0000
1000
0000
0000
0001
0000
0010
0100
0000
1000
,
0000
0000
0001
0000
0010
0100
0000
1000
0000
0000
0010
0000
0100
0001
0000
0010
,
0000
0000
0100
0000
1000
0010
0000
0100
0000
0000
0001
0000
0010
0100
0000
1000
,
0000
0010
0001
0001
1000
0100
0010
0001
,
1000
0000
0010
0000
1000
0000
0100
0010
0100
0010
0100
0010
0100
0010
0100
0010
,
0100
0010
0100
0010
0100
0000
0010
0000
0000
0010
0000
0000
1010
0000
0000
1001
,
0000
0000
1100
0000
0001
0000
0010
0000
0000
0010
0000
0000
0100
0000
0000
1001
,
0000
0000
0010
0000
1000
0000
0000
1001
0000
0000
1001
0000
1100
0000
0000
1100
,
0000
0000
1010
0000
1010
0000
0000
1001
0000
0000
0001
0000
0010
0000
0000
0010
,
0000
0000
0100
0000
0100
0000
0000
1000
0000
0000
1000
0000
0001
0000
0000
0001
,
0000
0000
0001
0000
0010
0000
0000
0010
0000
0000
0010
0000
1000
0000
0000
1000
,
0000
1000
0000
0001
0010
0000
0000
0100
0000
1000
0000
0000
1000
0000
0000
0010
,
0000
0010
0000
0000
0100
0000
0000
0100
0000
0001
0000
0000
0001
0000
0000
0010
,
0000
0000
0010
0000
0100
0000
0000
1000
0000
1000
0000
0000
0010
0000
0000
1010
,
0000
0000
0002
0000
0010
0000
0000
0010
0000
0000
1000
0000
1000
0000
0000
0100
,
0000
0003
0100
0000
0020
0000
0000
1000
0000
0000
1000
0000
0100
0000
0000
0130
,
0000
0000
0001
0000
0010
0000
0000
0100
0000
0000
1001
0000
0010
0000
0000
1000
,
0000
0000
0001
0000
0011
0000
0000
0011
0000
0100
1000
0000
1100
0000
0000
1010
,
0000
0000
0001
0000
0010
0000
0000
0100
0000
0000
1000
0000
0001
0000
0000
0100
,
0000
0010
0000
1000
0001
0000
0000
0010
0000
0100
0000
0000
1000
0000
0000
0010
,
0000
0010
0000
0000
0100
0000
0001
0000
0000
1000
0000
0000
0100
0000
0000
0010
,
0000
0000
0001
0000
1000
0010
1000
0010
1000
0010
1000
0010
1000
0010
1000
0010
,
1000
0010
1000
0010
1000
0000
0000
0000
0001
0000
0000
0000
0010
0000
0100
0000
,
1000
0010
0000
0100
0000
0000
0001
0000
0010
0100
0000
1000
0000
0000
0001
0000
,
0100
0010
0000
1000
0000
0000
0001
0000
0010
0100
0000
1000
0000
0000
0001
0000
,
1000
0010
0000
1000
0000
0000
0001
0000
0010
0100
0000
1000
0000
0000
0001
0000
,
1000
0010
0000
1000
0000
0000
0001
0000
0010
0100
0000
1000
0000
0000
0001
0000
,
0010
0100
0000
0010
0000
0000
0001
0000
1000
0001
0000
1000
0000
0000
0010
0000
,
0100
0001
0000
0010
0000
0000
0100
0000
1000
0010
0000
0100
0000
0000
0001
0000
,
0010
0001
0000
1000
0000
0000
0100
0000
1000
0010
0000
0100
0000
0000
0001
0000
,
0010
0001
0000
0010
0000
0000
0100
0000
1000
0010
1000
0001
0010
0100
1000
0100
,
0010
0100
1000
0001
0010
0100
1000
0001
1000
0000
0000
0020
0000
2000
0030
0000
,
0010
0000
0000
0010
0000
0000
0001
0000
0001
0000
0000
0100
0000
0000
0100
0000
,
0001
0000
0000
0010
3000
0000
0001
0000
0020
0000
0000
0130
0000
0000
0011
0000
,
0011
0000
0000
1100
0000
0000
1100
0000
1001
0000
0000
1010
0000
0000
0101
0000
,
1001
0000
0000
1100
0000
0000
0021
0000
0001
0000
0000
0031
0000
0000
1000
0000
,
1000
0000
0000
0010
0000
0000
0010
0000
0100
0000
0000
0110
0000
0001
0000
0000
,
0010
0000
0000
1000
0000
0001
0000
0100
0010
0000
0000
1000
0000
1000
0000
0000
,
0001
0000
0000
0001
0000
0100
0000
0000
0100
0000
0000
0010
0000
0010
0000
0000
,
1000
0000
0000
1000
0000
0001
0000
0010
0100
0000
0000
1000
0000
1000
0000
0000
,
0010
0000
0000
0010
0000
0000
1000
0000
1000
0000
0000
0001
0000
0000
0001
0000
,
0010
0000
0000
0010
0000
0000
0100
0000
1000
0000
0000
1010
0000
0000
0001
0000
,
0010
0000
0000
0010
0000
0000
0100
0000
1000
0000
0000
1000
0000
0000
0010
0000
,
0100
0000
0000
0100
0000
0000
0001
0000
0001
0000
0000
0010
0000
0000
0010
0000
,
0100
0000
0000
1000
0000
0000
0010
0000
0100
0000
0000
0001
0000
0000
0010
0000
,
0100
0000
0000
1000
0000
0100
0000
1000
0010
0000
0000
1000
0000
1001
0000
0000
,
1100
0000
0000
0001
0000
0010
0000
0000
0100
0000
0000
1000
0010
0100
0001
1000
,
0010
0100
0001
1000
0010
0100
0001
1000
0010
0000
0000
1000
0000
1000
0000
0000
,
0001
0000
0000
0001
0000
0000
0011
0000
0011
0000
0000
0100
0000
0000
1000
0000
,
1001
0000
0000
1010
0000
0000
0101
0000
1010
0000
0000
1001
0000
0000
1100
0000
,
1001
0000
0000
1010
0000
0000
1001
0000
0100
0000
0000
0010
0000
0000
0010
0000
,
1010
0000
0000
1001
0000
0000
1100
0000
1010
0000
0000
0001
0000
0000
0010
0000
,
0100
0000
0000
1001
0000
0000
0010
0000
0100
0000
0000
0100
0000
0000
0001
0000
,
0010
0000
0000
0100
0000
1000
0000
0001
0100
0000
0000
0010
0000
1000
0000
0000
,
1000
0000
0000
1000
0000
0001
0000
0000
0010
0000
0000
0010
0000
0100
0000
0000
,
1000
0000
0000
0001
0000
0000
0010
0000
0200
0000
0000
0000
0300
0000
0000
0000
;
