#TITLE:ESC;
#SUBTITLE:;
#ARTIST:Onoken;
#TITLETRANSLIT:;
#SUBTITLETRANSLIT:;
#ARTISTTRANSLIT:;
#CREDIT:;
#BANNER:esc-bn.png;
#BACKGROUND:esc-bg.png;
#LYRICSPATH:;
#CDTITLE:ddrace.png;
#MUSIC:esc.mp3;
#OFFSET:1.460;
#SAMPLESTART:43.786;
#SAMPLELENGTH:12.000;
#SELECTABLE:YES;
#BPMS:0.000=137.030;
#STOPS:126.000=0.657
;
#BGCHANGES:;
// cache tags:
#FIRSTBEAT:4.000;
#LASTBEAT:219.500;
#SONGFILENAME:Songs/Fabulously Fresh Flock of Fantastic Files F5/(ddrace) ESC/ESC.sm;
#HASMUSIC:1;
#HASBANNER:1;
#MUSICLENGTH:96.284;
// end cache tags

//---------------dance-single - ----------------
#NOTES:
     dance-single:
     :
     Hard:
     12:
     1.000,1.000,1.000,1.000,1.000,572.000,156.000,107.000,0.000,0.000:
0000
0000
0000
0000
,
1100
0000
1000
0100
0010
0000
0001
0100
0000
0010
1000
0010
1000
0010
0101
0000
,
1001
0000
0001
0100
0010
0000
1010
0000
0000
1010
0100
1000
0101
0000
0000
0000
,
0011
0000
0001
0010
0110
0000
0010
0100
1100
0000
0010
0100
1001
0100
0010
0100
,
1001
0010
0100
0010
1001
0000
1000
0010
0101
0010
1000
0100
0011
1100
0000
0000
,
0000
2002
0000
0000
0000
0000
0000
0000
0000
0000
0000
0000
0000
0000
3003
0000
,
0100
0010
0001
0100
0010
1000
2002
0000
0000
0000
0000
0000
,
0000
0000
0000
0000
,
0000
0000
3003
0000
2000
3000
0000
0000
,
2000
0000
3000
0020
0000
0000
0000
0030
0100
0100
0100
0000
0220
0000
0330
0000
,
1001
0000
0000
0000
0011
1000
0100
0010
0001
0010
0100
1000
0100
0010
0001
0000
,
0001
0100
0010
1000
0010
0100
0001
0100
0010
1000
0010
0100
0002
0003
0101
0000
,
1001
0001
0100
0010
1000
0100
0010
0001
0010
0100
1000
0010
0100
0001
0010
0100
,
1000
0010
0001
0010
1000
0100
0001
0100
1000
0010
0100
0001
0202
0303
0110
0000
,
1010
0000
1000
0100
0011
0001
0100
0010
1000
0100
1000
0001
0101
0001
0010
0100
,
1000
0100
0010
0001
0101
0100
0001
1000
0001
0100
0001
0010
2002
0000
3003
0000
,
1010
0100
0001
1000
0110
0100
0010
1000
0100
0010
0001
0010
1100
0100
1000
0001
,
1000
0100
1000
0001
0101
1000
0010
1000
0010
0100
0001
0100
2002
0000
3003
0000
,
0220
0000
0330
1000
0101
0010
0001
0010
0100
1000
0010
0100
0110
0010
0100
0001
,
0200
0320
2030
3200
0320
0032
0203
0320
,
1030
0001
1000
0001
1001
0010
0100
0010
0100
0001
1000
0001
1100
0000
2000
0000
,
3200
0000
0320
0000
0032
0000
0203
0000
2300
0000
3200
0000
0302
0000
0023
0030
,
1001
0000
0100
0010
0001
0100
0010
1000
0001
0000
0001
1000
0100
0010
0100
1000
,
0020
0230
2300
3002
0023
2030
3200
0302
,
0103
1000
0001
0010
0011
0000
0100
0010
0001
0010
0100
1000
0101
0000
1001
0000
,
2200
3300
0022
0033
0202
0303
2020
3030
2002
3003
0220
0330
0202
0303
2020
3030
,
2002
0000
0000
0000
0000
0000
3003
0110
,
0010
0100
0001
0010
1100
0000
1000
0100
0000
0001
0010
0100
1001
0000
0101
0101
,
0101
0000
0000
0010
0000
0000
1000
0000
0000
0001
0000
0000
0110
0000
0000
0000
0000
0000
0010
0000
0000
1000
0000
0000
0002
0000
0000
0000
0000
0000
0003
0000
1000
0000
0010
0000
1000
0000
0010
0000
1000
0000
0010
0000
1000
0000
0010
0000
,
1001
0000
0101
1010
0101
0000
0110
0110
0000
1001
0100
0101
0010
1001
0000
0000
,
0120
0000
0000
0000
0000
0000
0000
0000
2030
0000
3000
0000
0100
0010
0001
0100
,
2020
0000
0000
0000
3030
0000
0000
0000
0100
0000
0000
0000
2002
0000
0000
0000
0000
0000
0000
0000
0000
0000
0000
0000
3003
0000
0000
0000
0000
0000
0220
0000
0000
0330
0000
0000
0000
0000
0000
0000
2002
0000
0000
0000
0000
0000
0000
0000
0000
0000
0000
0000
0000
0000
0000
0000
3003
0000
0000
0000
0000
0000
0000
0000
,
2000
0000
3100
0010
0001
1000
0100
0010
1001
0000
1010
0100
1010
0000
1100
0101
,
0000
0011
0100
0101
0010
1001
0000
0000
0200
0000
0000
0000
0000
0000
0000
0000
,
0320
1030
0100
0010
0001
1000
0100
0010
1001
0000
0011
0100
0011
0000
0001
0100
,
0000
1000
1100
0010
0101
1000
0110
0000
0102
0000
0000
0000
0000
0000
0000
0000
,
2003
3010
0100
0001
1000
0100
0010
0001
0101
0000
0110
0001
0110
0000
1100
1100
,
0000
0000
0001
0000
0000
0000
1001
0000
0000
0000
0100
0000
0000
0000
0010
0000
0000
0000
1001
0000
0000
0000
0000
0000
0100
0000
0000
0010
0000
0000
1000
0000
0000
0100
0000
0000
0010
0000
0000
0000
0000
0000
0010
0000
0000
0001
0000
0000
,
0100
0010
1000
0000
1001
0000
1001
0000
0001
0010
0100
1000
0100
0000
0100
0010
,
0001
1000
0100
0010
0002
0000
0000
0003
0100
0010
0100
0010
0100
0000
1000
0001
,
0000
0010
0100
0000
1100
0000
0101
0000
0001
0100
0010
1000
0001
0000
0010
0100
,
1000
0010
0100
0001
0020
0000
0030
0000
0110
0000
0010
0100
0010
0000
0011
1100
,
0000
0010
0101
1000
0220
0000
0330
0000
0101
1000
0110
0001
1010
0000
0110
0101
,
0000
0010
1001
0100
2002
0000
3003
0000
1100
0000
0001
0001
1100
0000
1000
0101
,
1000
0101
1000
0101
0220
0000
0330
0000
1010
0100
0100
0100
1010
0000
0110
0110
,
2002
3003
0100
2002
3003
0100
2002
3003
0110
0100
0001
0010
0011
0100
1000
0010
,
0100
0001
0010
0100
1100
0100
0010
0001
1000
0100
0010
0001
0101
0001
0100
0010
,
1000
0001
0100
0010
2001
0002
3003
0000
0002
0000
0103
0010
1100
0010
0001
0010
,
0101
1000
0010
0100
1010
0001
0010
0100
0011
1000
0100
0010
1001
0100
0001
1000
,
0110
0001
1000
0010
1002
2000
3003
0000
0220
0000
0000
0000
0330
0000
1001
0100
,
0101
1000
1010
0100
2002
0000
3003
0000
0110
1000
0101
0001
0100
0010
1010
0100
,
0010
1000
0100
0010
0022
0000
0033
0000
2100
0000
3001
0010
1001
1000
0101
0010
,
1010
0010
0101
0001
2200
0000
3300
0000
0011
0001
0110
1000
0101
0100
0010
1000
,
0110
0001
0010
0100
1000
1000
0000
0000
0000
2002
0000
0000
0000
0000
0000
0000
,
0000
0000
0000
0000
0000
0000
0003
3000
;
