#TITLE:Don't Make Me Wait;
#SUBTITLE:(Gammer Remix);
#ARTIST:Joey Riot & Angel Eyes;
#TITLETRANSLIT:;
#SUBTITLETRANSLIT:;
#ARTISTTRANSLIT:;
#CREDIT:T-A-K-A;
#BANNER:Dont Make Me Wait bn.PNG;
#BACKGROUND:Dont Make Me Wait bg.jpg;
#LYRICSPATH:;
#CDTITLE:Taka-cdtitle.gif;
#MUSIC:08-Joey Riot & Angel Eyes - Don't Make Me Wait (Gammer Remix).mp3;
#OFFSET:-0.020;
#SAMPLESTART:37.769;
#SAMPLELENGTH:12.000;
#SELECTABLE:YES;
#BPMS:0.000=181.000;
#STOPS:;
#BGCHANGES:;
// cache tags:
#FIRSTBEAT:0.000;
#LASTBEAT:316.000;
#SONGFILENAME:Songs/juju steps/Don't Make Me Wait (Gammer Remix) [T-A-K-A]/Dont Make Me Wait.sm;
#HASMUSIC:1;
#HASBANNER:1;
#MUSICLENGTH:106.219;
// end cache tags

//---------------dance-single - Challenge----------------
#NOTES:
     dance-single:
     Challenge:
     Challenge:
     11:
     1.000,1.000,0.923,0.414,1.000,678.000,98.000,44.000,0.000,0.000:
1001
1000
0100
0010
1000
0100
0001
0010
,
1000
0001
0100
0010
1000
0100
0010
0100
,
1000
0001
0100
0010
0100
1000
0010
0001
,
0100
1000
0100
0001
0010
1000
0010
0100
,
0001
0100
0010
0001
1000
0100
0010
1000
,
0010
0001
0100
1000
0100
1000
0010
0001
,
0100
0001
0100
0010
1000
0100
0001
0100
,
1000
0100
0010
1000
0010
0001
0100
1000
,
0110
0100
0101
1000
0101
0010
1001
0010
,
0101
0100
1010
0100
0101
0010
1001
0100
,
1001
0010
0101
0001
1100
1000
0101
0010
,
1010
0100
0101
0001
0110
0100
1001
0100
,
0100
0010
0100
1000
0100
1000
0100
0001
0100
0010
0001
0100
0010
1000
0001
0100
,
0010
1000
0100
0010
1000
0001
0100
0010
1000
0001
1000
0001
0100
0010
1000
0100
,
0010
0100
1000
0001
0100
0010
0100
1000
0100
0010
0001
1000
0100
0010
0001
0100
,
0010
1000
0001
0100
0010
0100
1000
0001
0100
0010
1000
0010
0100
0001
0100
0010
,
1001
0110
2000
3100
,
0020
0130
2000
3100
,
0002
0003
1010
0000
1001
0000
1100
0000
,
0110
0011
0011
0011
,
1001
1010
2200
3300
,
0220
0330
2020
3030
,
0002
0003
0110
0000
1010
0000
0101
0000
,
0110
1010
1100
1100
,
1001
0110
2000
3100
,
0020
0130
0020
0031
,
2002
0000
0000
3003
0010
0000
0200
0000
0000
0000
0300
0000
0000
0000
0000
0000
,
0000
0010
0001
0100
0010
1000
0010
2000
,
3000
0000
0202
0303
,
0220
0330
2020
3030
,
2002
0000
0000
0000
,
3003
0000
0000
0000
,
1010
0000
0100
0010
0000
0100
0010
0000
1000
0000
0010
0100
0000
0001
0010
0000
,
1000
0000
0100
0010
0000
0001
0010
0000
0000
1000
0000
1000
0100
0010
0000
0100
,
0000
1000
0100
0010
0001
0000
0001
1000
0000
0010
0100
0000
1000
0100
0000
0001
,
0000
1000
0100
0010
0100
0000
1000
0100
0000
0001
0010
0000
0100
0010
0000
0010
,
0000
0001
0000
0010
0100
0000
0001
0010
0000
0100
0000
1000
0100
0000
0010
0001
,
0000
0100
0000
0100
1000
0000
0010
0001
0000
0010
0100
1000
0010
0001
0010
0000
,
0000
0001
0010
0100
1000
0000
1000
0001
0000
0010
0100
0000
0100
0010
0000
0001
,
0000
0001
0010
0100
0010
0000
1000
0100
0000
0100
1000
0000
0001
0100
0000
0100
,
0000
1001
0000
0001
1000
0000
0001
1000
0000
0001
1000
0000
0001
1000
0000
0001
,
1000
0000
0001
1000
0000
0001
1000
0000
0001
1000
0000
0001
1000
0000
0001
1000
,
0000
0001
1000
0000
0001
1000
0000
0001
1000
0000
0001
1000
0000
0001
1000
0000
,
0001
1000
0000
0001
1000
0000
0001
1000
0000
0001
1000
0000
0001
1000
0000
0001
,
1000
1001
0000
0000
1010
0000
0000
0110
0000
0000
0101
0000
0000
1010
0000
0000
,
1001
0000
0100
0110
0000
0010
0110
0000
1000
1001
0000
0001
1001
0000
1000
1010
,
0000
0100
0010
0001
0010
1000
0100
0010
1000
0010
0100
1000
0010
0100
0001
1000
,
0100
2002
0000
0000
0000
0000
0000
0000
0000
0000
0000
0000
0000
0000
3003
0000
,
0000
1000
0000
1000
0010
0100
0001
0010
0000
0010
0000
1000
0100
0001
0010
1000
,
0000
1000
0000
0010
0001
0100
1000
0010
0000
0010
0000
0010
0100
1000
0000
1000
,
0000
0100
0010
0001
0010
0000
0010
1000
0000
0010
1000
0000
0100
0010
0000
0100
,
0000
1000
0100
0010
0001
0000
1000
0100
0000
0001
0100
0000
1000
0100
0000
0010
,
0000
0001
0000
0001
0100
0010
0100
1000
0000
1000
0000
0001
0100
1000
0010
0100
,
0000
0100
0000
0010
0100
0010
1000
0100
0000
0001
0000
0100
0010
0100
0000
1000
,
0000
0100
1000
0001
0100
0000
0100
0001
0000
1000
0100
0000
0100
1000
0000
0010
,
0000
0001
0010
0100
1000
0000
0010
0100
0000
1000
0100
0000
0010
0001
0000
0001
,
0000
0100
0000
0010
0100
0010
1000
0100
0000
0010
0000
0001
0010
0100
0010
0001
,
0000
0001
0000
0100
0010
1000
0100
0001
0000
0010
0000
0001
0100
0010
0000
0010
,
0000
1000
0100
0001
0100
0000
0010
0001
0000
0100
1000
0000
0001
0100
0000
0010
,
0000
0010
0100
0010
0001
0000
0010
1000
0000
0010
1000
0000
0100
0001
0000
0001
,
0000
1000
0000
1000
0010
0100
0001
0010
0000
0010
0000
1000
0100
0001
0010
1000
,
0000
1000
0000
0010
0001
0100
1000
0010
0000
0010
0000
0010
0100
1000
0000
1000
,
0000
0100
0010
0001
0010
0000
0010
1000
0000
0010
1000
0000
0100
0010
0000
0100
,
0000
1000
0100
0010
0001
0000
1000
0100
0000
0001
0100
0000
1000
0100
0000
0010
,
0000
1001
0000
0100
0000
1010
0000
0100
0000
0102
0000
0010
0000
0100
0000
0100
,
0003
2001
0000
0010
0000
0100
0000
0001
3000
0120
0000
0100
0000
0001
0000
0100
,
0030
2010
0000
0000
3000
0101
0000
0010
0000
1010
0000
0100
0000
0110
0000
0010
,
0000
0101
0000
0010
0000
0101
0000
1000
0000
0101
0000
0100
0000
0110
0000
0100
,
0000
1001
0000
0100
0000
1010
0000
0100
0000
2010
0000
0010
0000
0100
0000
0010
,
3000
0201
0000
0001
0000
1000
0000
0001
0300
1020
0000
1000
0000
0100
0000
0001
,
0030
2100
0000
0000
3000
0110
0000
0010
0000
1001
0000
0100
0000
1010
0000
0100
,
0000
0101
0000
0010
0000
1100
0000
0001
0000
0101
0000
1000
0000
1001
0000
0001
,
0000
1001
0000
0100
0000
1010
0000
0100
0000
0012
0000
0100
0000
1000
0000
0100
,
0003
1020
0000
1000
0000
1000
0000
0001
0030
2001
0000
0100
0000
0010
0000
0001
,
3000
0002
0000
0000
0000
0023
0000
0230
0000
1000
0000
0010
0000
0001
0000
0010
,
0300
1000
0000
1001
0000
0110
0000
1010
0000
0110
0000
0110
0000
1010
0000
1001
,
0000
1000
0010
0100
1000
0100
0010
0001
0010
0100
0001
0100
0001
0010
0100
0001
,
0010
1000
0010
0100
1000
0010
0100
1000
0001
0100
0001
0100
1000
0010
0100
0001
,
0100
2002
0000
0000
0000
0000
0000
0000
0000
0000
0000
0000
0000
0000
0000
0000
,
3003
0000
0000
0000
;

//---------------dance-single - Heavy----------------
#NOTES:
     dance-single:
     Heavy:
     Hard:
     9:
     0.802,0.855,1.000,0.640,0.828,417.000,111.000,68.000,0.000,0.000:
1001
1000
0100
0001
1000
0100
0001
0100
,
1000
0010
0100
0001
1000
0001
0010
0100
,
1000
0010
0100
0010
0100
1000
0010
0010
,
0100
1000
0100
0001
0010
1000
0010
0100
,
0001
0100
0010
0001
1000
0100
0010
1000
,
0010
0001
0100
1000
0100
1000
0010
0001
,
0100
0001
0100
0010
1000
0100
0001
0100
,
1000
0100
0010
1000
0010
0100
1000
0010
,
0110
1001
0101
1010
,
0101
0110
0101
1001
,
1001
0101
1100
0101
,
1010
1010
0110
0101
,
1001
0010
0100
1000
0100
0001
0010
0001
,
0010
0100
1000
0100
0010
1000
0100
1000
,
0010
1000
0100
1000
0010
0001
0100
1000
,
0010
0001
0010
1000
0100
1000
0001
0100
,
1001
0110
2000
3100
,
0020
0130
2000
3100
,
0002
0003
1010
0000
1001
0000
1100
0000
,
0110
0011
0011
0011
,
1001
1010
2200
3300
,
0220
0330
2020
3030
,
0002
0003
0110
0000
1010
0000
0101
0000
,
0110
1010
1100
1100
,
1001
0110
2000
3100
,
0020
0130
0020
0031
,
2002
0000
0000
3003
0010
0000
0200
0000
0000
0000
0300
0000
0000
0000
0000
0000
,
0000
0010
0001
0100
0010
1000
0010
2000
,
3000
0000
0202
0303
,
0220
0330
2020
3030
,
2002
0000
0000
0000
,
3003
0000
0000
0000
,
1010
0000
0000
0010
0000
0000
0010
0000
1000
0000
0000
0100
0000
0000
0010
0000
,
1000
0000
0000
0010
0000
0000
0010
0000
0000
1000
0000
1000
0000
0010
0000
0100
,
0000
0220
0000
0000
0330
0000
0000
1000
0000
0000
0100
0000
0000
0100
0000
0001
,
0000
2020
0000
0000
3030
0000
0000
1000
0000
0000
0010
0000
0000
0100
0000
0010
,
0000
0001
0000
0000
0100
0000
0000
0001
0000
0100
0000
0000
0100
0000
0000
0001
,
0000
0100
0000
0000
1000
0000
0000
0010
0000
0010
0000
0100
0000
0001
0000
0010
,
0000
2002
0000
0000
3003
0000
0000
0001
0000
0000
0100
0000
0000
0010
0000
0001
,
0000
0202
0000
0000
0303
0000
0000
0100
0000
0000
1000
0000
0000
0100
0000
0100
,
0000
1001
0000
0001
1000
0000
0001
1000
0000
0001
1000
0000
0001
1000
0000
0001
,
1000
0000
0001
1000
0000
0001
1000
0000
0001
1000
0000
0001
1000
0000
0001
1000
,
0000
0001
1000
0000
0001
1000
0000
0001
1000
0000
0001
1000
0000
0001
1000
0000
,
0001
1000
0000
0001
1000
0000
0001
1000
0000
0001
1000
0000
0001
1000
0000
0001
,
1000
1001
0000
0000
1010
0000
0000
0110
0000
0000
0101
0000
0000
1010
0000
0000
,
1001
0000
0000
0110
0000
0000
0110
0000
0000
1001
0000
0000
1001
0000
0000
1010
,
0000
0000
0110
0000
0000
1010
0000
0000
0101
0000
0000
0011
0000
0000
0110
0000
,
0000
2002
0000
0000
0000
0000
0000
0000
0000
0000
0000
0000
0000
0000
3003
0000
,
0000
1010
0000
0000
0010
0000
0000
0010
0000
1000
0000
0000
0100
0000
0000
0010
,
0000
1000
0000
0000
0010
0000
0000
0000
0000
1000
0000
1000
0000
0010
0000
0100
,
0000
0220
0000
0000
0330
0000
0000
1000
0000
0000
0100
0000
0000
0100
0000
0001
,
0000
2020
0000
0000
3030
0000
0000
1000
0000
0000
0010
0000
0000
0100
0000
0010
,
0000
0001
0000
0000
0100
0000
0000
0001
0000
0100
0000
0000
0100
0000
0000
0001
,
0000
0100
0000
0000
1000
0000
0000
0010
0000
0010
0000
0100
0000
0001
0000
0010
,
0000
2002
0000
0000
3003
0000
0000
0001
0000
0000
0100
0000
0000
0010
0000
0001
,
0000
0202
0000
0000
0303
0000
0000
0100
0000
0000
1000
0000
0000
0100
0000
0000
,
0000
1010
0000
0000
0010
0000
0000
0010
0000
1000
0000
0000
0100
0000
0000
0010
,
0000
1000
0000
0000
0010
0000
0000
0010
0000
1000
0000
1000
0000
0010
0000
0100
,
0000
0220
0000
0000
0330
0000
0000
1000
0000
0000
0100
0000
0000
0100
0000
0001
,
0000
2020
0000
0000
3030
0000
0000
1000
0000
0000
0010
0000
0000
0100
0000
0010
,
0000
0001
0000
0000
0100
0000
0000
0001
0000
0100
0000
0000
0100
0000
0000
0001
,
0000
0100
0000
0000
1000
0000
0000
0010
0000
0010
0000
0100
0000
0001
0000
0010
,
0000
2002
0000
0000
3003
0000
0000
0001
0000
0000
0100
0000
0000
0010
0000
0001
,
0000
0202
0000
0000
0303
0000
0000
0100
0000
0000
1000
0000
0000
0100
0000
0010
,
0000
1010
0000
0000
0000
1010
0000
0000
0000
0102
0000
0000
0000
0000
0000
0000
,
0003
2001
0000
0000
0000
0000
0000
0000
3000
0120
0000
0000
0000
0000
0000
0000
,
0030
2010
0000
0000
3000
0101
0000
0000
0000
1010
0000
0000
0000
0110
0000
0000
,
0000
0101
0000
0000
0000
0101
0000
0000
0000
0101
0000
0000
0000
0110
0000
0000
,
0000
1001
0000
0000
0000
1010
0000
0000
0000
2010
0000
0000
0000
0000
0000
0000
,
3000
0201
0000
0000
0000
0000
0000
0000
0300
1020
0000
0000
0000
0000
0000
0000
,
0030
2100
0000
0000
3000
0110
0000
0000
0000
1001
0000
0000
0000
1010
0000
0000
,
0000
0101
0000
0000
0000
1100
0000
0000
0000
0101
0000
0000
0000
1001
0000
0000
,
0000
1001
0000
0000
0000
1010
0000
0000
0000
0012
0000
0000
0000
0000
0000
0000
,
0003
1020
0000
0000
0000
0000
0000
0000
0030
2001
0000
0000
0000
0000
0000
0000
,
3000
0002
0000
0000
0000
0023
0000
0230
0000
0000
0000
0000
0000
0000
0000
0000
,
0300
0000
0000
1000
0000
1000
0000
1000
0000
0010
0000
0100
0000
0010
0000
0100
,
0000
0010
1000
0010
0010
0001
0001
0100
,
0010
0010
1000
0100
0001
0100
1000
0100
,
0010
0000
0000
0000
0000
0000
0000
0000
0000
0000
0000
0000
2002
0000
0000
0000
0000
0000
0000
0000
0000
0000
0000
0000
0000
0000
0000
0000
0000
0000
0000
0000
0000
0000
0000
0000
0000
0000
0000
0000
0000
0000
0000
0000
0000
0000
0000
0000
0000
0000
0000
0000
0000
0000
0000
0000
0000
0000
0000
0000
0000
0000
0000
0000
0000
0000
0000
0000
0000
0000
0000
0000
0000
0000
0000
0000
0000
0000
0000
0000
0000
0000
0000
0000
0000
0000
0000
0000
0000
0000
0000
0000
0000
0000
0000
0000
0000
0000
0000
0000
0000
0000
0000
0000
0000
0000
0000
0000
0000
0000
0000
0000
0000
0000
0000
0000
0000
0000
0000
0000
0000
0000
0000
0000
0000
0000
0000
0000
0000
0000
0000
0000
0000
0000
0000
0000
0000
0000
0000
0000
0000
0000
0000
0000
0000
0000
0000
0000
0000
0000
0000
0000
0000
0000
0000
0000
0000
0000
0000
0000
0000
0000
0000
0000
0000
0000
0000
0000
0000
0000
0000
0000
0000
0000
0000
0000
0000
0000
0000
0000
3000
0003
0000
0000
0000
0000
0000
0000
0000
0000
0000
0000
;

//---------------dance-single - Standard----------------
#NOTES:
     dance-single:
     Standard:
     Medium:
     7:
     0.589,0.669,0.254,0.640,0.687,343.000,27.000,68.000,0.000,0.000:
1001
0100
1000
0001
,
1000
0100
1000
0010
,
1000
0100
0100
0010
,
0100
0100
0010
0010
,
0001
0010
1000
0010
,
0010
0100
0100
0010
,
0100
0100
1000
0001
,
1000
0010
0010
1000
,
0100
1000
0001
0010
,
0100
0010
0001
1000
,
0001
0100
1000
0100
,
0010
1000
0010
0001
,
1000
0010
0100
1000
0100
0001
0010
0001
,
0010
0100
1000
0100
0010
1000
0100
1000
,
0010
1000
0100
1000
0010
0001
0100
1000
,
0010
0001
0010
1000
0100
1000
0001
0100
,
1001
0010
2000
3100
,
0020
0130
2000
3100
,
0002
0003
1000
0000
0100
0000
1000
0000
,
0010
0001
0001
0001
,
1000
1000
2200
3300
,
0220
0330
2020
3030
,
0002
0003
0010
0000
0010
0000
0100
0000
,
0010
1000
1000
0100
,
0001
0100
2000
3100
,
0020
0130
0020
0031
,
2002
0000
0000
3003
0010
0000
0200
0000
0000
0000
0300
0000
0000
0000
0000
0000
,
0000
0010
0001
0100
0010
1000
0010
2000
,
3000
0000
0202
0303
,
0220
0330
2020
3030
,
2002
0000
0000
0000
,
3003
0000
0000
0000
,
1010
0000
0000
0010
0000
0000
0010
0000
1000
0000
0000
0100
0000
0000
0010
0000
,
1000
0000
0000
0010
0000
0000
0010
0000
0000
1000
0000
0000
0000
0010
0000
0000
,
0000
0220
0000
0000
0330
0000
0000
1000
0000
0000
0000
1000
0000
0100
0000
0000
,
0000
2020
0000
0000
3030
0000
0000
1000
0000
0000
0010
0000
0000
0100
0000
0010
,
0000
0001
0000
0000
0100
0000
0000
0001
0000
0100
0000
0000
0100
0000
0000
0001
,
0000
0100
0000
0000
1000
0000
0000
0010
0000
0000
0000
0100
0000
0001
0000
0000
,
0000
2002
0000
0000
3003
0000
0000
0001
0000
0000
0100
0000
0000
0010
0000
0000
,
0000
0202
0000
0000
0303
0000
0000
0100
0000
0000
1000
0000
0000
0100
0000
0000
,
0000
0010
0000
0000
0001
0000
0000
0001
0000
0000
1000
0000
0000
1000
0000
0000
,
0001
0000
0000
0001
0000
0000
1000
0000
0000
1000
0000
0000
0001
0000
0000
0001
,
0000
0000
1000
0000
0000
1000
0000
0000
0001
0000
0000
1000
0000
0000
0001
0000
,
0000
1000
0000
0000
0001
0000
0000
1000
0000
0000
0001
0000
0000
1000
0000
0000
,
0000
0001
0000
0000
1000
0000
0000
0010
0000
0000
0100
0000
0000
0010
0000
0000
,
1000
0000
0000
0010
0000
0000
0010
0000
0000
1000
0000
0000
1000
0000
0000
0010
,
0000
0000
0010
0000
0000
1000
0000
0000
0100
0000
0000
0010
0000
0000
0100
0000
,
0000
2002
0000
0000
0000
0000
0000
0000
0000
0000
0000
0000
0000
0000
3003
0000
,
0000
1010
0000
0000
0010
0000
0000
0010
0000
1000
0000
0000
0100
0000
0000
0010
,
0000
1000
0000
0000
0010
0000
0000
0000
0000
1000
0000
0000
0000
0010
0000
0000
,
0000
0220
0000
0000
0330
0000
0000
1000
0000
0000
0100
0000
0000
0100
0000
0000
,
0000
2020
0000
0000
3030
0000
0000
1000
0000
0000
0010
0000
0000
0100
0000
0010
,
0000
0001
0000
0000
0100
0000
0000
0001
0000
0100
0000
0000
0100
0000
0000
0001
,
0000
0100
0000
0000
1000
0000
0000
0010
0000
0000
0000
0100
0000
0001
0000
0000
,
0000
2002
0000
0000
3003
0000
0000
0001
0000
0000
0100
0000
0000
0010
0000
0000
,
0000
0202
0000
0000
0303
0000
0000
0100
0000
0000
1000
0000
0000
0100
0000
0000
,
0000
1010
0000
0000
0010
0000
0000
0010
0000
1000
0000
0000
0100
0000
0000
0010
,
0000
1000
0000
0000
0010
0000
0000
0010
0000
1000
0000
0000
0000
0010
0000
0000
,
0000
0220
0000
0000
0330
0000
0000
1000
0000
0000
0100
0000
0000
0100
0000
0000
,
0000
2020
0000
0000
3030
0000
0000
1000
0000
0000
0010
0000
0000
0100
0000
0010
,
0000
0001
0000
0000
0100
0000
0000
0001
0000
0100
0000
0000
0100
0000
0000
0001
,
0000
0100
0000
0000
1000
0000
0000
0010
0000
0000
0000
0100
0000
0001
0000
0000
,
0000
2002
0000
0000
3003
0000
0000
0001
0000
0000
0100
0000
0000
0010
0000
0000
,
0000
0202
0000
0000
0303
0000
0000
0100
0000
0000
1000
0000
0000
0100
0000
0000
,
0000
1000
0000
0000
0000
1000
0000
0000
0000
0002
0000
0000
0000
0000
0000
0000
,
0003
2000
0000
0000
0000
0000
0000
0000
3000
0020
0000
0000
0000
0000
0000
0000
,
0030
2000
0000
0000
3000
0100
0000
0000
0000
0010
0000
0000
0000
0010
0000
0000
,
0000
0100
0000
0000
0000
0100
0000
0000
0000
0100
0000
0000
0000
0010
0000
0000
,
0000
0001
0000
0000
0000
1000
0000
0000
0000
2000
0000
0000
0000
0000
0000
0000
,
3000
0200
0000
0000
0000
0000
0000
0000
0300
0020
0000
0000
0000
0000
0000
0000
,
0030
2000
0000
0000
3000
0010
0000
0000
0000
1000
0000
0000
0000
0010
0000
0000
,
0000
0001
0000
0000
0000
0100
0000
0000
0000
0100
0000
0000
0000
1000
0000
0000
,
0000
1000
0000
0000
0000
0010
0000
0000
0000
0002
0000
0000
0000
0000
0000
0000
,
0003
0020
0000
0000
0000
0000
0000
0000
0030
2000
0000
0000
0000
0000
0000
0000
,
3000
0002
0000
0000
0000
0023
0000
0230
0000
0000
0000
0000
0000
0000
0000
0000
,
0300
0000
0000
1000
0000
1000
0000
1000
0000
0010
0000
0100
0000
0010
0000
0100
,
0000
0010
1000
0010
0010
0001
0001
0100
,
0010
0010
1000
0100
0001
0100
1000
0100
,
0010
0000
0000
0000
0000
0000
0000
0000
0000
0000
0000
0000
2002
0000
0000
0000
0000
0000
0000
0000
0000
0000
0000
0000
0000
0000
0000
0000
0000
0000
0000
0000
0000
0000
0000
0000
0000
0000
0000
0000
0000
0000
0000
0000
0000
0000
0000
0000
0000
0000
0000
0000
0000
0000
0000
0000
0000
0000
0000
0000
0000
0000
0000
0000
0000
0000
0000
0000
0000
0000
0000
0000
0000
0000
0000
0000
0000
0000
0000
0000
0000
0000
0000
0000
0000
0000
0000
0000
0000
0000
0000
0000
0000
0000
0000
0000
0000
0000
0000
0000
0000
0000
0000
0000
0000
0000
0000
0000
0000
0000
0000
0000
0000
0000
0000
0000
0000
0000
0000
0000
0000
0000
0000
0000
0000
0000
0000
0000
0000
0000
0000
0000
0000
0000
0000
0000
0000
0000
0000
0000
0000
0000
0000
0000
0000
0000
0000
0000
0000
0000
0000
0000
0000
0000
0000
0000
0000
0000
0000
0000
0000
0000
0000
0000
0000
0000
0000
0000
0000
0000
0000
0000
0000
0000
0000
0000
0000
0000
0000
0000
3000
0003
0000
0000
0000
0000
0000
0000
0000
0000
0000
0000
;
