#TITLE:Slayers;
#SUBTITLE:- Midnight Blue;
#ARTIST:林原めぐみ;
#TITLETRANSLIT:;
#SUBTITLETRANSLIT:;
#ARTISTTRANSLIT:Megumi Hayashibara;
#CREDIT:;
#BANNER:SlayersLogo.png;
#BACKGROUND:Slayersbg.PNG;
#LYRICSPATH:;
#CDTITLE:;
#MUSIC:SlayersMovieTheme.mp3;
#OFFSET:1.945;
#SAMPLESTART:44.299;
#SAMPLELENGTH:12.000;
#SELECTABLE:YES;
#BPMS:0.000=129.800;
#STOPS:;
#BGCHANGES:;
// cache tags:
#FIRSTBEAT:19.500;
#LASTBEAT:236.250;
#SONGFILENAME:Songs/Anime Songs/Slayers/Slayers1.sm;
#HASMUSIC:1;
#HASBANNER:1;
#MUSICLENGTH:112.564;
// end cache tags

//---------------dance-single - BASIC----------------
#NOTES:
     dance-single:
     BASIC:
     Easy:
     1:
     0.108,0.105,0.027,0.000,0.000,82.000,3.000,0.000,0.000,0.000:

0000
0000
0000
0000
,
0000
0000
0000
0000
,
0000
0000
0000
0000
,
0000
0000
0000
0000
,
0000
0000
0000
0000
0000
0000
0000
1001
,
0000
0000
0000
0000
0000
0000
0000
0001
,
0000
0000
0000
0001
0000
0000
0000
0001
,
0000
0000
0000
0000
0000
0000
0000
1000
,
0000
0000
0000
1000
0000
0000
0000
1000
,
0000
0000
0000
0000
0000
0000
0000
0010
,
0000
0000
0000
0010
0000
0000
0000
0010
,
0000
0000
0000
0000
0000
0000
0000
1001
,
0000
0000
0000
0000
0000
0000
0000
0100
,
0000
0000
0000
0100
0000
0000
0000
0100
,
0000
0000
0000
0000
0000
0000
0000
1000
,
0000
0000
0000
0001
0000
0000
0000
1000
,
0000
0000
0000
0000
0000
0000
0000
0001
,
0000
0000
0000
1000
0000
0000
0000
0001
,
0000
0000
0000
0000
0000
0000
0000
0010
,
0000
0000
0000
0100
0000
0000
0000
0010
,
0000
0000
0000
0000
0000
0000
0000
0100
,
0000
0000
0000
0010
0000
0000
0000
0100
,
0000
0000
0000
0000
0000
0000
0000
0010
,
0000
0000
0000
1000
0000
0000
0000
0010
,
0000
0000
0000
0000
0000
0000
0000
1000
,
0000
0000
0000
0100
0000
0000
0000
1000
,
0000
0000
0000
0000
0000
0000
0000
1000
,
0000
0000
0000
0010
0000
0000
0000
1000
,
0000
0000
0000
0000
0000
0000
0000
0100
,
0000
0000
0000
0001
0000
0000
0000
0100
,
0000
0000
0000
0000
0000
0000
0000
1000
,
0000
0000
0000
0010
0000
0000
0000
0100
,
0000
0000
0000
0000
0000
0000
0000
0001
,
0000
0000
0000
0010
0000
0000
0000
0100
,
0000
0000
0000
0000
0000
0000
0000
0100
,
0000
0000
0000
0001
0000
0000
0000
0010
,
0000
0000
0000
0000
0000
0000
0000
0100
,
0000
0000
0000
1000
0000
0000
0000
0010
,
0000
0000
0000
0000
0000
0000
0000
0010
,
0000
0000
0000
1000
0000
0000
0000
0100
,
0000
0000
0000
0000
0000
0000
0000
0010
,
0000
0000
0000
0001
0000
0000
0000
0100
,
0000
0000
0000
0000
0000
0000
0000
0010
,
0000
0000
0000
0100
0000
0000
0000
1000
,
0000
0000
0000
0000
0000
0000
0000
1000
,
0000
0000
0000
0100
0000
0000
0000
0010
,
0000
0000
0000
0000
0000
0000
0000
0100
,
0000
0000
0000
0010
0000
0000
0000
0001
,
0000
0000
0000
0000
0000
0000
0000
0001
,
0000
0000
0000
0010
0000
0000
0000
0100
,
0000
0000
0000
0000
0000
0000
0000
1000
,
0000
0000
0000
0010
0000
0000
0000
0100
,
0000
0000
0000
0000
0000
0000
0000
0100
,
0000
0000
0000
0010
0000
0000
0000
1000
,
0000
0000
0000
0000
0000
0000
0000
0001
,
0000
0000
0000
0100
0000
0000
0000
1000
,
0000
0000
0000
0000
0000
0000
0000
1000
,
0000
0000
0000
1000
0000
0000
0000
0001
,
0000
0000
0000
0001
0000
0000
0000
0110;

//---------------dance-single - ANOTHER----------------
#NOTES:
     dance-single:
     ANOTHER:
     Medium:
     5:
     0.320,0.315,0.346,0.000,0.013,213.000,39.000,0.000,0.000,0.000:


0000
0000
0000
0000
,
0000
0000
0000
0000
,
0000
0000
0000
0000
,
0000
0000
0000
0000
,
0000
0000
0000
0000
0000
0000
0000
1010
,
0000
1000
0000
1000
0000
1000
0000
0011
,
0000
0001
0000
0001
0000
0001
0000
1100
,
0000
0010
0000
0010
0000
0010
0000
0101
,
0000
0100
0000
0100
0000
0100
0000
1001
,
0000
0100
0000
1001
0000
0100
0000
0110
,
0000
0100
0000
1001
0000
1000
0000
0001
,
0000
1001
0000
0110
0000
0001
0000
0100
,
0000
1000
0000
1000
0000
0010
0000
0100
,
0000
0001
0000
0001
0000
0100
0000
0010
,
0000
0100
0000
1001
0000
1000
0000
1000
,
0000
0001
0000
0001
0000
0100
0000
1000
,
0000
1000
0000
0001
0000
0001
0000
0110
,
0000
1000
0000
0010
0000
0001
0000
1000
,
0000
0000
0100
0000
0000
0000
0001
0000
0000
0000
0001
0000
0000
0000
0100
0100
,
0000
1010
0000
0011
0000
1000
0000
0001
,
0000
0001
0000
1000
0000
0100
0000
0100
,
0000
1000
0000
0010
0000
0001
0000
1100
,
0000
0000
0000
1000
0000
0001
0000
1000
,
0000
0001
0000
1000
0000
0000
0000
0101
,
0000
0100
0000
0100
0000
0100
0000
0001
,
0000
0010
0000
1000
0000
0001
0000
0000
,
0000
0010
0000
0100
0000
0010
0000
0110
,
0000
0000
0000
0001
0000
0010
0000
0001
,
0000
0100
0000
0100
0000
0001
0000
0100
,
0000
1000
0000
1100
0000
0100
0000
0010
,
0000
0000
0000
0010
0000
0100
0000
0010
,
0000
0100
0000
0010
0000
0000
0000
1010
,
0000
0001
0000
1000
0000
1000
0000
1000
,
0000
0100
0000
0001
0000
1000
0000
0001
,
0000
0010
0000
0010
0000
0000
0000
1010
,
0000
0011
0000
0001
0000
1000
0000
1001
,
0000
1001
0000
1000
0000
0001
0000
1100
,
0000
0101
0000
0000
0000
0100
0000
0100
,
0000
0100
0000
0100
0000
0010
0000
0000
,
1000
1000
0000
0000
0001
0001
0000
0000
,
1000
1000
0000
1000
0000
0001
0000
1001
,
0000
0010
0000
0100
0000
0110
0000
0100
,
0000
0110
0000
0110
0000
0110
0000
0001
,
0000
0010
0000
0110
0000
0010
0000
1000
,
0000
1000
0000
0001
0000
0010
0000
1001
,
0000
0001
0000
0100
0000
1000
0000
1000
,
0000
0100
0000
1100
0000
0010
0000
0001
,
0000
0001
0000
0010
0000
0100
0000
0011
,
0000
0010
0000
1000
0000
1000
0000
0010
,
0000
0001
0000
1010
0000
1000
0000
0100
,
0000
0010
0000
0001
0000
0100
0000
0101
,
0000
1000
0000
1000
0000
0001
0000
0001
,
0000
1000
0000
1001
0000
0010
0000
0010
,
0000
0001
0000
1000
0000
1000
0000
0001
,
0000
0100
0000
0100
0000
0010
0000
0010
,
0000
1000
0000
1000
0000
0001
0000
0001
,
0000
0100
0000
0100
0000
0001
0000
1000
,
0000
1000
0000
0010
0000
0001
0000
0110
,
0000
0000
0010
0000
0000
0000
0100
0000
0000
0000
1001
0000
0000
0000
1000
0001
,
1000
0001
0000
0000
0000
0000
0000
0000
0000
0000
0000
0000
0000
0000
0000
0000;

//---------------dance-single - MANIAC----------------
#NOTES:
     dance-single:
     MANIAC:
     Hard:
     6:
     0.330,0.341,0.275,0.115,0.013,216.000,31.000,13.000,0.000,0.000:

0000
0000
0000
0000
,
0000
0000
0000
0000
,
0000
0000
0000
0000
,
0000
0000
0000
0000
,
0000
0000
0000
0000
0000
0000
0000
2020
,
0000
0000
0000
3030
0000
1010
0000
0022
,
0000
0000
0000
0033
0000
0011
0000
0000
,
0000
0020
0000
1000
0000
1000
0000
0001
,
0000
0001
0000
0030
0000
0100
0000
0200
,
0000
1000
0000
1000
0000
0001
0000
0001
,
0000
0300
0000
1001
0000
1001
0000
1001
,
0000
0110
0000
1001
0000
1000
0000
1000
,
0000
0001
0000
0001
0000
1000
0001
1000
,
0000
0001
0000
0001
0000
1000
0000
1000
,
0000
1000
0001
1000
0000
0010
0000
0100
,
0000
0010
0000
0100
0000
0010
0000
0010
,
0000
0100
0000
0100
0000
1000
0000
0001
,
0000
1000
0000
0001
0000
0001
0000
1000
,
0100
0000
1000
0000
0001
0000
0010
0000
0100
0000
0001
0000
0000
0000
1000
0001
,
0000
1000
0000
1000
0100
1000
0000
0001
,
0000
0001
0100
0001
0000
0100
0000
0010
,
0100
0010
0000
1000
0000
0001
0000
1001
,
0000
0000
0000
1010
0000
0011
0000
1100
,
0000
0101
0000
1000
0000
0001
0000
1000
,
0000
0001
0000
0010
0000
0100
0000
0010
,
0000
0100
0000
1000
0000
0001
0000
1000
,
0000
0000
0100
1000
0001
1001
0000
0000
,
0000
0000
0000
0001
0000
0001
0100
0001
,
0000
1000
0000
1000
0100
1000
0000
0010
,
0000
0100
0000
0010
0000
0100
0010
0100
,
0000
0000
0000
1001
0000
0110
0000
0110
,
0000
1001
0000
0000
0000
0010
0000
0010
,
1000
0100
0000
0010
0000
0010
0001
0100
,
0000
0010
0000
0100
0000
1000
0000
0001
,
0000
1000
0001
1000
0000
0000
0000
1010
,
0000
2020
0000
0000
0000
0000
0000
0000
,
0000
0000
0000
3030
0000
0000
0000
0101
,
0000
0202
0000
0000
0000
0000
0000
0303
,
0000
0000
0000
0100
0000
0010
0000
0000
,
1000
1100
0000
0000
0001
0101
0000
0000
,
1001
1001
0000
0000
1000
0100
0001
0010
,
0100
0020
0000
0000
0000
0000
0000
0030
,
0000
1001
0000
1001
0000
1001
0000
1000
,
0100
1000
0000
1000
0000
0001
0000
0001
,
0100
0001
0000
1000
0000
0001
0000
1000
,
0000
1000
0000
0001
0000
0001
0000
1000
,
0000
0001
0000
1000
0000
0001
0000
1000
,
0100
0001
0000
0001
0000
1000
0000
1000
,
0100
0001
0000
0010
0000
1000
0000
0001
,
0000
0100
0000
1000
0000
0001
0000
0010
,
0000
0100
0000
1000
0000
0001
0000
0010
,
0100
0010
0000
1000
0000
0001
0000
0100
,
0010
0100
0000
1000
0000
0001
0000
0010
,
0000
0100
0000
1000
0000
0001
0000
0100
,
0000
0010
0000
1000
0000
0001
0000
0010
,
1000
0010
0000
1000
0000
0001
0000
0010
,
0001
0010
0000
1000
0000
0001
0000
1000
,
0000
0001
0000
0100
0000
0220
0000
0000
,
0000
0000
0000
0000
0000
0000
0000
0000
0000
0000
0330
0000
0000
0000
1000
0001
,
1000
0001
0000
0000
0000
0000
0000
0000
0000
0000
0000
0000
0000
0000
0000
0000;
