#TITLE:TSUPSEUDOGAMUSH;
#SUBTITLE:;
#ARTIST:Family Farce;
#TITLETRANSLIT:;
#SUBTITLETRANSLIT:;
#ARTISTTRANSLIT:;
#CREDIT:;
#BANNER:TSUPSEUDOGAMUSH.png;
#BACKGROUND:TSUPSEUDOGAMUSH- bg.png;
#LYRICSPATH:;
#CDTITLE:HS3logo.png;
#MUSIC:TSUPSEUDOGAMUSH.mp3;
#OFFSET:0.000;
#SAMPLESTART:12.780;
#SAMPLELENGTH:12.000;
#SELECTABLE:YES;
#DISPLAYBPM:999.000;
#BPMS:0.000=300.000,120.000=75.000,122.000=300.000,184.000=599.999,188.000=300.002,212.000=-74.998,216.000=300.002,248.000=-74.998,252.000=300.002,284.000=-74.998,288.000=150.002,301.000=-24.998,302.000=150.002,309.000=-24.998,310.000=150.002,317.000=-24.998,318.000=150.002,325.000=-24.998,326.000=150.002,333.000=-24.998,334.000=150.002,341.000=-24.998,342.000=150.002,350.000=-24.998,351.000=150.002,357.000=-24.998,358.000=150.002,365.000=-24.998,366.000=150.002,373.000=-24.998,374.000=150.002,381.000=-24.998,382.000=150.002,389.000=-24.998,390.000=150.003,397.000=-24.998,398.000=150.003,405.000=-24.998,406.000=150.003,414.000=300.002,446.000=900.013,454.000=800.014,458.000=599.997,460.000=400.000,474.000=399.680,475.000=150.002,483.000=300.002,500.000=320.002,532.000=340.002,564.000=360.003,596.000=759.997,628.000=799.998,660.000=999.995,692.000=749.998,694.000=674.999,696.000=500.001,697.000=450.002,698.000=350.003,701.000=300.004,703.000=150.004,722.000=-24.996,723.000=150.004,730.000=-24.996,731.000=3081.156;
#STOPS:499.000=0.520
;
#BGCHANGES:;
// cache tags:
#FIRSTBEAT:32.000;
#LASTBEAT:962.125;
#SONGFILENAME:Songs/stepmix .10/TSUPSEUDOGAMUSH/TSUPSEUDOGAMUSH.sm;
#HASMUSIC:1;
#HASBANNER:1;
#MUSICLENGTH:112.151;
// end cache tags

//---------------dance-single - ----------------
#NOTES:
     dance-single:
     :
     Hard:
     12:
     0.842,1.000,0.535,0.312,0.169,566.000,60.000,35.000,636.000,0.000:
0000
0000
0000
0000
,
0000
0000
0000
0000
,
0000
0000
0000
0000
,
0000
0000
0000
0000
,
0000
0000
0000
0000
,
0000
0000
0000
0000
,
0000
0000
0000
0000
,
0000
0000
0000
0000
,
0010
0000
0001
0000
,
1000
0100
0001
0000
,
0010
0000
0001
0000
,
1000
0000
0001
0010
0100
0000
1000
0000
,
0010
0000
0010
0000
,
0010
1001
0010
0000
,
0010
0100
1000
0010
,
0100
0000
0010
0100
0001
0000
1000
0000
,
0001
0100
0001
0000
0100
0000
0001
0000
,
1000
0100
1000
0000
0010
0000
0100
0000
,
0001
0010
0100
0000
1000
0100
0010
0000
,
1001
1001
1010
0011
,
1000
0100
0010
0000
0001
0000
0010
0000
,
0100
1000
0010
0000
0100
0000
0001
0000
,
1000
0100
1000
0000
0001
1000
0001
0000
,
1000
0010
0100
0001
0010
0100
0010
0001
,
1000
0100
0001
0100
,
1000
0100
0001
0100
,
1000
0010
0001
0010
,
0001
0100
2200
3300
,
0010
0001
0010
0100
,
0010
1000
0010
0100
,
0001
1000
0001
1000
0010
0100
0010
0000
0010
0000
1000
0000
0010
0000
1000
0000
,
0010
0000
0100
0000
0001
0100
0001
0100
,
0001
0000
1000
0000
0010
0100
0010
0100
,
0010
0100
0102
0010
,
2003
0000
3001
0000
0010
0001
0010
0001
,
0010
0000
0100
0000
1000
0100
1000
0100
,
1000
0000
0010
0000
0100
0001
0100
0001
,
0100
0010
1020
0100
,
0001
0000
0230
0000
0310
1000
0010
1000
,
0010
1000
0001
0000
0100
0001
0100
0001
,
0100
0010
1000
0000
0010
0100
0001
0010
,
0100
1000
0010
0100
0001
0010
0100
1000
,
0010
0000
0100
0000
0001
1000
0001
1000
,
0010
0100
1000
0000
1000
0100
0010
0001
,
0010
0100
0010
0000
0011
0000
1001
0000
,
1100
1001
0020
0130
,
0110
0000
0000
0000
,
0001
1000
0001
1001
,
0010
0100
0220
0030
,
0310
1000
0010
0100
,
0101
1001
1100
0000
,
00M0
000M
M000
00M0
,
0M00
000M
MM00
0000
,
00M0
000M
M000
00M0
,
0M00
000M
MM00
0000
,
0000
0000
0000
0000
,
0000
0000
0000
0000
,
0000
0000
0000
0000
,
0010
0001
1000
0010
,
0100
0001
1100
0000
,
M000
M0M0
000M
0M0M
,
M000
00MM
M00M
0000
,
M000
M0M0
000M
0M0M
,
M000
00MM
M00M
0000
,
0000
0000
0000
0000
,
0000
0000
0000
0000
,
0000
0000
0000
0000
,
1000
1010
0001
0101
,
1000
0011
1001
0000
,
1000
0000
1000
0100
1000
0000
0001
0100
,
0001
0000
1100
0000
2002
0000
0000
3003
,
0110
MMMM
MMMM
MMMM
MMMM
MMMM
MMMM
MMMM
,
0000
0000
0000
0000
,
0000
0000
0000
0000
,
M22M
0000
M00M
0000
M00M
0300
M13M
0110
,
1000
M1M1
MMMM
MMMM
,
MMMM
MMMM
MMMM
MMMM
,
0000
1M1M
MMMM
MMMM
,
MMMM
MMMM
MMMM
MMMM
,
0000
1MM1
MMMM
MMMM
,
MMMM
MMMM
MMMM
MMMM
,
0000
M1M1
MMMM
MMMM
,
MMMM
MMMM
MMMM
MMMM
,
0000
1MM1
MMMM
MMMM
,
MMMM
MMMM
MMMM
MMMM
,
0000
11MM
MMMM
MMMM
,
MMMM
MMMM
MMMM
MMMM
,
0000
0000
0000
00M0
MM01
0000
0010
0000
M101
0000
0000
0000
MMMM
0000
0000
0000
,
MMMM
MMMM
MMMM
MMMM
,
0000
M1M1
MMMM
MMMM
,
MMMM
MMMM
MMMM
MMMM
,
0000
M11M
MMMM
MMMM
,
MMMM
MMMM
MMMM
MMMM
,
0000
1M1M
MMMM
MMMM
,
MMMM
MMMM
MMMM
MMMM
,
0000
1MM1
MMMM
MMMM
,
MMMM
MMMM
MMMM
MMMM
,
0000
11MM
MMMM
MMMM
,
MMMM
MMMM
MMMM
MMMM
,
0000
1MM1
MMMM
MMMM
,
MMMM
MMMM
MMMM
MMMM
,
0000
0000
M11M
0000
MMM1
1000
M1MM
0000
,
MMMM
MMMM
MMMM
MMMM
,
0000
0000
0001
1000
0100
0000
0010
0000
,
0001
0010
0100
0010
,
0001
0010
0100
0010
,
0001
0100
0010
1000
,
1001
0000
0101
0000
0010
1000
0010
1000
,
0010
1000
0010
0000
0010
0100
0010
0100
,
0010
0100
0010
0000
1000
0010
0100
0001
,
1000
0100
0010
0001
0010
0100
1000
0010
,
0100
0001
1000
0000
0220
0000
0000
0000
,
0000
0000
0000
0000
,
0000
0000
0000
0000
,
0000
0000
0000
0000
,
0000
0000
0000
0000
,
0000
0000
0000
0000
,
0000
0000
0000
0000
,
0000
0000
0000
0000
0000
0000
0330
0000
0000
0000
0000
0000
0001
0100
0001
0100
,
0001
0000
0100
0000
0010
1000
0010
1000
0010
0000
0100
0000
0001
0010
0001
0000
,
0100
1000
0100
0000
0001
0010
0001
0000
0100
1000
0100
1000
0100
0000
0010
0000
,
0000
0001
0000
0010
0000
1000
0000
0010
,
0000
0000
0000
0100
0000
0000
0000
0000
0000
0001
0000
0000
0000
0000
0000
0010
0000
0000
0000
0000
0100
0000
0000
0000
,
0001
0000
0010
0000
0100
0000
1000
0000
0010
0000
0100
0000
,
0001
0000
0000
0000
0000
0000
0000
0000
0000
0000
0000
0000
0000
0000
0000
0000
0000
0000
0000
0000
0000
0000
0000
0000
0000
0000
0000
0000
0000
0000
0000
0000
1000
0000
0000
0000
0000
0000
0000
0000
0000
0000
0000
0000
0000
0000
0000
0000
0000
0000
0000
0000
0000
0000
0000
0000
0000
0000
0000
0000
0000
0000
0000
0000
0010
0000
0000
0000
0000
0000
0000
0000
0000
0000
0000
0000
0000
0000
0000
0000
0000
0000
0000
0000
0000
0000
0000
0000
0000
0000
0000
0000
0000
0000
0000
0000
0200
0000
0000
0000
0000
0000
0000
0000
0000
0000
0000
0000
0000
0000
0000
0000
0000
0000
0000
0000
0000
0000
0000
0000
0000
0000
0000
0000
0000
0000
0000
0000
0000
0000
0000
0000
0000
0000
0000
0000
0000
0000
0000
0000
0000
0000
0000
0000
0000
0000
0000
M0MM
0000
0000
M3MM
0000
0000
M0MM
0000
0000
M0MM
0000
0000
M0MM
0000
0000
M0MM
0000
0000
0M00
0000
0000
0000
0000
0000
0000
0000
0000
0000
0000
0000
0000
0000
0000
0000
0000
0000
0000
0000
0000
0000
0000
0000
0000
0000
0000
,
0100
0010
0100
0010
0100
0010
0100
0000
,
0001
0010
0001
0010
0001
0010
0001
0000
,
1000
0100
0010
0001
0010
0100
2000
0000
,
3010
0010
1010
1010
,
0001
0010
0001
0010
0001
0010
0001
0000
,
1000
0100
1000
0100
1000
0100
1000
0000
,
0001
0010
0100
1000
0100
0010
0002
0000
,
0103
0100
0101
0101
,
1000
0100
1000
0010
1000
0100
1000
0000
,
0010
0100
0010
1000
0010
0100
0010
0000
,
0100
0001
0100
0001
0100
0010
0100
0000
,
0002
1000
2003
0001
,
3001
0010
0100
1000
0010
0100
0001
0000
,
1000
0100
0010
0001
1000
0010
0100
0000
,
0002
2003
3020
0230
,
0301
1000
0001
0000
1000
0000
0100
0000
,
0010
0001
0010
0001
0010
0001
0010
0001
,
1000
0001
1000
0001
1000
0001
1000
0001
,
1000
0010
1000
0010
1000
0010
1000
0010
,
2000
3010
0200
0301
,
1000
0010
1000
0010
1000
0010
1000
0010
,
1000
0001
1000
0001
1000
0001
1000
0001
,
1000
0100
1000
0100
1000
0100
1000
0100
,
1000
1100
0001
0101
,
1000
0000
0001
0000
,
1000
0000
0001
0000
,
1000
0001
1000
0000
,
0001
0000
0010
0000
,
0100
0000
1000
0000
,
0100
0000
0010
0000
,
0001
0010
0001
0010
,
0002
0000
2003
0000
,
3001
1000
0001
1000
,
0001
1000
0001
1000
,
0001
1000
0001
1000
,
0001
1000
0001
1000
,
0001
1000
0010
0100
,
0001
1000
0010
0100
,
0001
1000
0010
0100
,
0001
1000
0010
0100
,
0002
0000
0000
0000
,
0000
0000
0000
0000
,
0000
0000
0000
0000
,
0000
0000
0000
0000
,
0000
0000
0000
0000
,
0000
0000
0000
0000
,
0000
0000
0000
0000
,
0000
0000
0000
0000
,
0000
0000
0000
0000
,
0000
0000
0000
0000
,
0000
0000
0000
0000
,
0003
000M
0M00
0000
0000
0000
0M00
0000
00M0
0000
M000
0000
000M
0000
0M00
0000
,
00M0
M000
0000
00M0
M000
0M0M
0000
10M2
,
0000
1M03
0000
M210
000M
M310
0000
21MM
,
0000
310M
0000
0M21
M000
0031
0M00
000M
,
M0M0
0000
0000
0000
0000
0000
0000
0000
1001
0000
0110
0000
1001
0000
M00M
M00M
,
M00M
M00M
M00M
M00M
M00M
M00M
M00M
M00M
M00M
M00M
M00M
M00M
0000
0000
0000
0000
,
0000
0000
0000
0110
2002
0000
0000
0000
,
0M00
00M0
0M00
00M0
,
0M00
00M0
0M00
00M0
,
0M00
00M0
0000
0000
,
0000
0M00
0000
0000
,
0000
00M0
0000
0000
,
0000
0M00
0000
0000
,
0000
0M00
0000
0000
,
0000
00M0
0000
0000
,
0000
0M00
0000
0000
,
0000
00M0
0000
0000
,
0000
0M00
0000
0000
,
0000
0MM0
0000
0000
,
0000
00M0
0000
0000
,
0000
0M00
0000
0000
,
0000
0MM0
0000
0000
,
0000
00M0
0000
0000
,
0000
00M0
0000
0000
,
0000
0M00
0000
0000
,
0000
0MM0
0000
0000
,
0000
0M00
0000
0000
,
0000
0M00
0000
0000
,
0000
00M0
0000
0000
,
0000
0M00
0000
0000
,
0000
00M0
0M00
0000
,
0000
0000
00M0
0000
,
0000
0000
0M00
0000
,
0000
0000
00M0
0000
,
0000
0000
0M00
0000
,
0000
0000
0MM0
0000
,
0000
0000
0MM0
0000
,
0000
0000
0MM0
0000
,
0000
0000
0MM0
0000
,
0000
0000
0MM0
0000
,
0000
0000
0MM0
0000
,
0000
0000
0MM0
0000
,
0MM0
0MM0
0MM0
0MM0
0MM0
0000
0000
0000
,
0000
0000
0MM0
0000
,
0000
0000
0MM0
0000
,
0000
0000
00M0
0000
,
0000
0000
0M00
0000
,
0000
0000
00M0
0000
,
0000
0000
0M00
0000
,
0000
0000
00M0
0000
,
0000
0000
0M00
00M0
,
0M00
00M0
00M0
0M00
,
0M00
00M0
00M0
0M00
,
0M00
00M0
00M0
0M00
,
0M00
00M0
0M00
00M0
,
0M00
00M0
0MM0
0MM0
,
0MM0
0MM0
0MM0
0MM0
,
0MM0
0MM0
0MM0
00M0
,
3M03
0MM0
00M0
0M00
,
0000
00M0
0000
0M00
,
0000
00M0
0000
0000
,
0M00
0000
0000
0000
0000
0000
0000
0000
0000
0000
0000
0000
0000
0000
0000
00M0
,
0000
0000
M00M
0000
,
M00M
0000
0000
0000
0000
0000
0000
0000
0000
0000
0000
0000
0000
0000
0000
0M00
,
000M
M000
0000
0000
0000
0000
0000
0000
0000
0000
0000
0000
0000
0000
0000
0000
;

//---------------dance-single - ----------------
#NOTES:
     dance-single:
     :
     Medium:
     10:
     0.628,1.000,0.303,0.374,0.098,417.000,34.000,42.000,534.000,0.000:
0000
0000
0000
0000
,
0000
0000
0000
0000
,
0000
0000
0000
0000
,
0000
0000
0000
0000
,
0000
0000
0000
0000
,
0000
0000
0000
0000
,
0000
0000
0000
0000
,
0000
0000
0000
0000
,
1000
0000
0001
0000
,
1000
0001
1000
0000
,
0001
0000
1000
0000
,
1000
0001
0100
0010
,
2000
0000
3010
0000
,
0002
0000
0013
0000
,
1000
0010
0100
0001
,
1000
0010
1000
1001
,
0001
0010
0001
0000
0100
0000
0001
0000
,
1000
0100
1000
0000
0010
0000
0100
0000
,
0001
0100
0001
0000
0100
0000
0010
0000
,
2000
3010
0200
0301
,
1000
0001
1000
0000
0010
0000
0100
0000
,
0001
1000
0001
0000
1000
0000
0010
0000
,
0100
0001
0100
0000
0010
0000
1000
0000
,
0100
0001
1000
0010
,
0100
0000
0110
0000
,
0101
0000
1010
0000
,
1001
0000
0011
0010
,
0002
1003
2000
3001
,
0100
0000
0101
0000
,
1010
0000
0001
1000
,
0010
0100
0010
0100
0010
0100
0010
0000
0020
0000
0000
0000
0100
0000
0000
0000
,
0100
0130
0200
0001
,
0001
0301
2000
0100
,
0100
0000
3100
0010
0002
0000
1003
0000
,
2000
3001
0102
0100
,
0100
0103
1020
1000
,
1000
1030
2001
0001
,
0001
0000
3001
1000
0020
0000
0000
0000
,
0130
1001
0001
0010
,
0100
1000
0001
0100
,
0010
1000
0010
1000
,
0001
0000
0100
0000
0020
0030
0002
0003
,
0020
0030
0002
0000
1003
0100
1000
0100
,
1000
0100
1000
0000
0001
0010
0001
0010
,
0001
0010
0001
0000
1000
0000
0010
0000
,
0100
0000
0001
0000
1000
0010
0100
0001
,
0200
0000
0000
0000
,
0301
0100
0010
1000
,
0010
0100
0101
0000
,
0010
0010
1000
1000
,
1001
0100
1001
0000
,
0010
1000
0001
0100
,
0010
1000
0001
0000
,
0010
1000
0001
0100
,
0010
1000
0001
0000
,
0000
0000
0000
0000
,
0000
0000
0000
0000
,
0000
0000
0000
0000
,
M000
0M00
00M0
M000
,
000M
0M00
M000
0000
,
1000
0001
1000
0010
,
0100
0010
0110
0000
,
1000
0001
1000
0010
,
0100
0010
0110
0000
,
0000
0000
0000
0000
,
0000
0000
0000
0000
,
0000
0000
0000
0000
,
00M0
0M00
000M
M000
,
00M0
0M00
M00M
0000
,
2000
3020
0230
0302
,
1003
0000
1000
0000
2002
0000
0000
3003
,
0000
MMMM
0000
MMMM
0000
MMMM
0000
MMMM
,
0000
0000
0000
0000
,
0000
0000
0000
0000
,
0000
MMMM
0000
MMMM
0000
MMMM
0000
MMMM
,
0000
0001
MMMM
MMMM
,
MMMM
MMMM
MMMM
MMMM
,
0000
0010
MMMM
MMMM
,
MMMM
MMMM
MMMM
MMMM
,
0000
1000
MMMM
MMMM
,
MMMM
MMMM
MMMM
MMMM
,
0000
0100
MMMM
MMMM
,
MMMM
MMMM
MMMM
MMMM
,
0000
0001
MMMM
MMMM
,
MMMM
MMMM
MMMM
MMMM
,
0000
0010
MMMM
MMMM
,
MMMM
MMMM
MMMM
MMMM
,
0000
0000
1000
0001
1000
0000
MMMM
0000
,
MMMM
MMMM
MMMM
MMMM
,
0000
0100
MMMM
MMMM
,
MMMM
MMMM
MMMM
MMMM
,
0000
0001
MMMM
MMMM
,
MMMM
MMMM
MMMM
MMMM
,
0000
0010
MMMM
MMMM
,
MMMM
MMMM
MMMM
MMMM
,
0000
1000
MMMM
MMMM
,
MMMM
MMMM
MMMM
MMMM
,
0000
0100
MMMM
MMMM
,
MMMM
MMMM
MMMM
MMMM
,
0000
0001
MMMM
MMMM
,
MMMM
MMMM
MMMM
MMMM
,
0000
0010
MMMM
MMMM
,
MMMM
MMMM
MMMM
MMMM
,
0000
0000
1000
0010
,
0001
0010
1000
0010
,
0001
0010
1000
0100
,
0001
0100
1000
0100
,
0001
0000
0100
0000
0010
1000
0010
1000
,
0010
0000
0100
0000
0001
0100
0001
0100
,
0001
1000
0010
0001
,
1000
0001
0010
0011
,
0110
1001
2002
0000
,
0000
0000
0000
0000
,
0000
0000
0000
0000
,
0000
0000
0000
0000
,
0000
0000
0000
0000
,
0000
0000
0000
0000
,
0000
0000
0000
0000
,
3003
0000
0000
0000
0000
0000
0000
0000
0000
0000
0000
0000
0000
0000
0000
0000
0000
0000
0000
0000
0000
0000
0000
0000
0000
0000
0000
0000
0000
0000
0000
0000
0000
0000
0000
0001
0000
0000
0000
0000
0000
0001
0000
0000
0000
0000
0000
0001
,
0000
0000
0000
0000
0000
1000
0000
0000
0000
0000
0000
0001
0000
0000
0000
0000
0000
0001
0000
0000
0000
0000
0000
0001
0000
0000
0000
0000
0000
1000
0000
0000
0000
0000
0000
0010
0000
0000
0000
0000
0000
0010
0000
0000
0000
0000
0000
0010
,
0000
0000
0000
0000
0000
0100
0000
0000
0000
0000
0000
0010
0000
0000
0000
0000
0000
0010
0000
0000
0000
0000
0000
0010
0000
0000
0000
0000
0000
0100
0000
0000
0000
0000
0000
0010
0000
0000
0000
0000
0000
0000
0000
0000
0000
0000
0000
0000
,
000M
0000
0000
0000
0000
0000
0000
0000
0000
0000
0000
0000
0000
0000
0000
0000
0000
0000
0000
0000
0000
0000
0000
0000
0000
0000
0000
0000
0000
0000
0000
0000
0000
0000
0000
0000
0000
0000
0000
0000
0000
0000
0000
0000
1100
0000
0000
0000
00M0
0000
0000
0000
0000
0000
0000
0000
0000
0000
0000
0000
0000
0000
0000
0000
0000
0000
0000
0000
0000
0000
0000
0000
0000
0000
0000
0000
0000
0000
0000
0000
0000
0000
0000
0000
0000
0000
0000
0000
0000
0000
0000
0000
0000
0000
0000
0000
M000
0000
0000
0000
0000
0000
0000
0000
0000
0000
0000
0000
0000
0000
0000
0000
0000
0000
0000
0000
0000
0000
0000
0000
0000
0000
0000
0000
0000
0000
0000
0000
0000
0000
0000
0000
0000
0000
0000
0000
0000
0000
0000
0000
0000
0011
0000
0000
0M00
0000
0000
0000
0000
0000
0000
0000
0000
0000
0000
0000
0000
0000
0000
0000
0000
0000
0000
0000
0000
0000
0000
0000
0000
0000
0000
0000
0000
0000
0000
0000
0000
0000
0000
0000
0000
0000
0000
0000
0000
0000
0000
0000
0000
0000
0000
0000
,
000M
11M0
M000
0M10
,
M001
0M10
00M1
10M0
,
010M
M010
0M01
MMMM
,
1001
0100
0010
1000
,
0001
0100
0010
1000
,
0001
0100
0010
1000
,
0002
0000
1003
0000
,
0100
0010
0001
1000
,
0100
0010
0001
1000
,
0100
0010
0001
1000
,
0020
0000
0130
0000
,
0100
0001
1000
0010
,
0100
0001
1000
0010
,
0100
0001
1000
0010
,
0200
0000
0301
0000
,
1000
0010
0100
0001
,
1000
0010
0100
0001
,
1000
0010
0100
0001
,
2000
3001
0002
1003
,
0010
1000
0010
1000
,
0010
1000
0010
1000
,
0010
1000
0010
1000
,
0002
0000
1003
0000
,
0001
0100
0001
0100
,
0001
0100
0001
0100
,
0001
0100
0001
0100
,
0002
1003
1001
1001
,
1000
0000
0100
0000
,
0010
0000
0001
0000
,
1000
0000
0100
0000
,
0010
0000
0001
0000
,
1000
0000
0010
0000
,
0100
0000
0001
0000
,
2000
0000
0000
0000
,
3001
0000
0000
0000
,
0001
0000
1000
0000
,
0001
0000
1000
0000
,
0010
0000
0100
0000
,
0010
0000
0100
0000
,
0001
0000
1000
0000
,
0001
0000
1000
0000
,
0001
0000
1000
0000
,
0001
0000
1000
0000
,
0020
0000
0000
0000
,
0000
0000
0000
0000
,
0000
0000
0000
0000
,
0000
0000
0000
0000
,
0000
0000
0000
0000
,
0000
0000
0000
0000
,
0000
0000
0000
0000
,
0000
0000
0000
0000
,
0000
0000
0000
0000
,
0000
0000
0000
0000
,
0000
0000
0000
0030
,
M00M
0000
M00M
0000
M00M
0MM0
M00M
0000
,
M00M
0000
M00M
0000
0000
0000
0000
0002
,
0000
0103
0000
2000
0000
3100
0000
0002
,
0000
0013
0000
1010
0000
0011
0000
0000
,
0000
0000
0000
0000
1001
1001
1001
0000
,
0000
0000
0000
0000
,
0000
0000
2002
0000
,
0M00
00M0
0M00
00M0
,
0M00
00M0
0M00
00M0
,
0M00
00M0
0000
0000
,
0000
0M00
0000
0000
,
0000
00M0
0000
0000
,
0000
0M00
0000
0000
,
0000
0M00
0000
0000
,
0000
00M0
0000
0000
,
0000
0M00
0000
0000
,
0000
00M0
0000
0000
,
0000
0M00
0000
0000
,
0000
0MM0
0000
0000
,
0000
00M0
0000
0000
,
0000
0M00
0000
0000
,
0000
0MM0
0000
0000
,
0000
00M0
0000
0000
,
0000
00M0
0000
0000
,
0000
0M00
0000
0000
,
0000
0MM0
0000
0000
,
0000
0M00
0000
0000
,
0000
0M00
0000
0000
,
0000
00M0
0000
0000
,
0000
0M00
0000
0000
,
0000
00M0
0M00
0000
,
0000
0000
00M0
0000
,
0000
0000
0M00
0000
,
0000
0000
00M0
0000
,
0000
0000
0M00
0000
,
0000
0000
0MM0
0000
,
0000
0000
0MM0
0000
,
0000
0000
0MM0
0000
,
0000
0000
0MM0
0000
,
0000
0000
0MM0
0000
,
0000
0000
0MM0
0000
,
0000
0000
0MM0
0000
,
0MM0
0MM0
0MM0
0MM0
0MM0
0000
0000
0000
,
0000
0000
0MM0
0000
,
0000
0000
0MM0
0000
,
0000
0000
00M0
0000
,
0000
0000
0M00
0000
,
0000
0000
00M0
0000
,
0000
0000
0M00
0000
,
0000
0000
00M0
0000
,
0000
0000
0M00
00M0
,
0M00
00M0
00M0
0M00
,
0M00
00M0
00M0
0M00
,
0M00
00M0
00M0
0M00
,
0M00
00M0
0M00
00M0
,
0M00
00M0
0MM0
0MM0
,
0MM0
0MM0
0MM0
0MM0
,
0MM0
0MM0
0MM0
00M0
,
3M03
0MM0
00M0
0M00
,
0000
00M0
0000
0M00
,
0000
00M0
0000
0000
,
0M00
00M0
0000
0000
,
0000
0000
0000
0000
,
00M0
0000
0000
0000
;

//---------------dance-single - ----------------
#NOTES:
     dance-single:
     :
     Easy:
     7:
     0.275,0.730,0.134,0.134,0.000,186.000,15.000,15.000,4.000,0.000:
0000
0000
0000
0000
,
0000
0000
0000
0000
,
0000
0000
0000
0000
,
0000
0000
0000
0000
,
0000
0000
0000
0000
,
0000
0000
0000
0000
,
0000
0000
0000
0000
,
0000
0000
0000
0000
,
0010
0000
0010
0000
,
0010
0000
0010
0000
,
1000
0000
1000
0000
,
1000
0000
1000
0000
,
0001
0000
0000
0000
,
1000
0000
0000
0000
,
0001
0000
0100
0000
,
0010
0000
1000
0000
,
1001
0000
0010
0000
,
0000
0000
0010
0000
,
0000
0000
0010
0000
,
1000
0000
0100
0000
,
0010
0000
0000
0000
,
1001
0000
0000
0000
,
0001
0000
0000
0000
,
0010
0000
0100
0000
,
1000
0000
0100
0000
,
1000
0000
0100
0000
,
0010
0000
0001
0000
,
0010
0000
0010
0000
,
0100
0000
1000
0000
,
0100
0000
1000
0000
,
0022
0033
1000
0000
,
0001
0000
1000
0000
,
0001
0000
1000
0000
,
0001
0000
0101
0000
,
0101
0000
1000
0000
,
0100
0000
1000
0000
,
0010
0000
0100
0000
,
0001
0000
0110
0000
,
0110
0000
1000
0000
,
0010
0000
0100
0000
,
0001
0000
1000
0000
,
0100
0000
0110
0000
,
0110
0000
0010
0000
,
0001
0000
0010
0000
,
1000
0000
0010
0000
,
0010
0000
0010
0000
,
0001
0000
0000
0000
,
1000
0000
0000
0000
,
1000
0000
0000
0000
,
1000
0000
0001
0000
,
0100
0000
0010
0000
,
1000
0000
0000
0000
,
1000
0000
0000
0000
,
1000
0000
0000
0000
,
0000
0000
0000
0000
,
0000
0000
0000
0000
,
0000
0000
0000
0000
,
0000
0000
0000
0000
,
0000
0000
0010
0000
,
0100
0000
0001
0000
,
1000
0000
0000
0000
,
1000
0000
0000
0000
,
0010
0000
0000
0000
,
0000
0000
0000
0000
,
0000
0000
0000
0000
,
0000
0000
0000
0000
,
0000
0000
0000
0000
,
0000
0000
0100
0000
,
0010
0000
0100
0000
,
0001
0000
0000
0000
,
1000
0000
0000
0000
,
0220
0000
0000
0000
,
0000
0000
0000
0000
,
0000
0000
0000
0000
,
0000
0000
0000
0330
,
1000
0100
0000
0000
,
0000
0000
0000
0000
,
0000
0010
0000
0000
,
0000
0000
0000
0000
,
0000
0001
0000
0000
,
0000
0000
0000
0000
,
0000
1000
0000
0000
,
0000
0000
0000
0000
,
0000
0010
0000
0000
,
0000
0000
0000
0000
,
0000
0100
0000
0000
,
0000
0000
0000
0000
,
0000
0001
1000
0000
,
0000
0000
0000
0000
,
0000
0000
0000
0000
,
0000
0000
0000
0000
,
0000
0100
0000
0000
,
0000
0000
0000
0000
,
0000
1000
0000
0000
,
0000
0000
0000
0000
,
0000
0001
0000
0000
,
0000
0000
0000
0000
,
0000
0100
0000
0000
,
0000
0000
0000
0000
,
0000
0010
0000
0000
,
0000
0000
0000
0000
,
0000
0100
0000
0000
,
0000
0000
0000
0000
,
0000
0001
1000
0000
,
1000
0000
1000
0000
,
1000
0000
1000
0000
,
0001
0000
1000
0000
,
0010
0000
0100
0000
,
0001
0000
1000
0000
,
0100
0000
0010
0000
,
0001
0000
1000
0000
,
0010
0000
0002
0000
,
0000
0000
0000
0000
,
0000
0000
0000
0000
,
0000
0000
0000
0000
,
0000
0000
0000
0000
,
0000
0000
0000
0000
,
0000
0000
0000
0000
,
0000
0000
1003
0000
,
0000
1000
0000
1000
,
0000
1000
0000
1010
,
0000
1001
0000
0101
,
0000
1001
0000
1000
,
0010
0100
0001
1000
,
0010
0100
0001
0000
,
1000
0000
0000
0000
,
1000
0000
0000
0000
,
1000
0000
0000
0000
,
1000
0000
0010
0000
,
0100
0000
0000
0000
,
0100
0000
0000
0000
,
0100
0000
0000
0000
,
0001
0000
0010
0000
,
0100
0000
0000
0000
,
0100
0000
0000
0000
,
0100
0000
0000
0000
,
1000
0000
0010
0000
,
0100
0000
0000
0000
,
0100
0000
0000
0000
,
0100
0000
0000
0000
,
0001
0000
0010
0000
,
0100
0000
0000
0000
,
0100
0000
0000
0000
,
0100
0000
0000
0000
,
1000
0000
0001
0000
,
1000
0000
0000
0000
,
0010
0000
0000
0000
,
0100
0000
0000
0000
,
0001
0000
0000
0000
,
2000
3000
0000
0000
,
0000
0000
0000
0000
,
0002
0003
0000
0000
,
0000
0000
0000
0000
,
0000
2000
3000
0000
,
0000
0000
0000
0000
,
0002
0003
0000
0000
,
0000
0000
0000
0000
,
2000
3000
0000
0000
,
0000
0000
0000
0000
,
0002
0003
0000
0000
,
0000
0000
0000
0000
,
2000
3000
0000
0000
,
0000
0000
0000
0000
,
0002
0003
0000
0000
,
0000
0000
0000
0000
,
2000
0000
0000
0000
,
0000
0000
0000
0000
,
0000
0000
0000
0000
,
0000
0000
0000
0000
,
0000
0000
0000
0000
,
0000
0000
0000
0000
,
0000
0000
0000
0000
,
0000
0000
0000
0000
,
0000
0000
0000
0000
,
0000
0000
0000
0000
,
0000
0000
0000
0000
,
0000
0000
0000
0000
,
3000
0000
0000
0000
0000
0000
0000
0010
,
0000
0010
0000
1000
0000
1000
0000
0001
,
0000
0001
0000
2000
0000
0000
3000
0000
,
0000
0000
1001
0000
,
0000
0000
0000
0000
,
0000
0000
0000
0000
,
0000
0000
0000
0000
,
0000
0000
0000
0000
,
0000
0000
0000
0000
,
0000
0000
0000
0000
,
0000
0000
0000
0000
,
0000
0000
0000
0000
,
0000
0000
0000
0000
,
0000
0000
0000
0000
,
0000
0000
0000
0000
,
0000
0000
0000
0000
,
0000
0000
0000
0000
,
0000
0000
0000
0000
,
0000
0000
0000
0000
,
0000
0000
0000
0000
,
0000
0000
0000
0000
,
0000
0000
0000
0000
,
0000
0000
0000
0000
,
0000
0000
0000
0000
,
0000
0000
0000
0000
,
0000
0000
0000
0000
,
0000
0000
0000
0000
,
0000
0000
0000
MMMM
;

//---------------dance-single - ----------------
#NOTES:
     dance-single:
     :
     Beginner:
     3:
     0.094,0.325,0.036,0.000,0.000,70.000,4.000,0.000,0.000,0.000:
0000
0000
0000
0000
,
0000
0000
0000
0000
,
0000
0000
0000
0000
,
0000
0000
0000
0000
,
0000
0000
0000
0000
,
0000
0000
0000
0000
,
0000
0000
0000
0000
,
0000
0000
0000
0000
,
1000
0000
0000
0000
,
0000
0000
0000
0000
,
0001
0000
0000
0000
,
0000
0000
0000
0000
,
1000
0000
0000
0000
,
0000
0000
0000
0000
,
0001
0000
0000
0000
,
0000
0000
0000
0000
,
1000
0000
0000
0000
,
0000
0000
0000
0000
,
0010
0000
0000
0000
,
0000
0000
0000
0000
,
0100
0000
0000
0000
,
0000
0000
0000
0000
,
0001
0000
0000
0000
,
0000
0000
0000
0000
,
0100
0000
0000
0000
,
0000
0000
0000
0000
,
0100
0000
0000
0000
,
0000
0000
0000
0000
,
0010
0000
0000
0000
,
0000
0000
0000
0000
,
0010
0000
0010
0000
,
0000
0000
0000
0000
,
0000
0000
1000
0000
,
0000
0000
0000
0000
,
0000
0000
0001
0000
,
0000
0000
0000
0000
,
0000
0000
1000
0000
,
0000
0000
0000
0000
,
0000
0000
0010
0000
,
0000
0000
0000
0000
,
0000
0000
0100
0000
,
0000
0000
0000
0000
,
0000
0000
0001
0000
,
0000
0000
0000
0000
,
0000
0000
1000
0000
,
0000
0000
0000
0000
,
0000
0000
0000
0000
,
0001
0000
0000
0000
,
0000
0000
0000
0000
,
1000
0000
0000
0000
,
0000
0000
0000
0000
,
0001
0000
0001
0000
,
0000
0000
0000
0000
,
1000
0000
0000
0000
,
0000
0000
0000
0000
,
0000
0000
0000
0000
,
0000
0000
0000
0000
,
0000
0000
0000
0000
,
0000
0000
0000
0000
,
0000
0000
0000
0000
,
0000
0000
0000
0000
,
0000
0000
0000
0000
,
0000
0000
0000
0000
,
0000
0000
0000
0000
,
0000
0000
0000
0000
,
0000
0000
0000
0000
,
0000
0000
0000
0000
,
0000
0000
0000
0000
,
0000
0000
0000
0000
,
0000
0000
0000
0000
,
0000
0000
0000
0000
,
0010
0000
0000
0000
,
0000
0000
0000
0000
,
0000
0000
0000
0000
,
0000
0000
0000
0000
,
0000
1000
0000
0000
,
0000
0000
0000
0000
,
0000
0000
0000
0000
,
0000
0000
0000
0000
,
0000
0001
0000
0000
,
0000
0000
0000
0000
,
0000
0000
0000
0000
,
0000
0000
0000
0000
,
0000
1000
0000
0000
,
0000
0000
0000
0000
,
0000
0000
0000
0000
,
0000
0000
0000
0000
,
0000
0001
0000
0000
,
0000
0000
0000
0000
,
0000
0000
0000
0000
,
0000
0000
0000
0000
,
0000
1000
0000
0000
,
0000
0000
0000
0000
,
0000
0000
0000
0000
,
0000
0000
0000
0000
,
0000
0001
0000
0000
,
0000
0000
0000
0000
,
0000
0000
0000
0000
,
0000
0000
0000
0000
,
0000
1000
0000
0000
,
0000
0000
0000
0000
,
0000
0000
0000
0000
,
0000
0000
0000
0000
,
0000
0000
0001
0000
,
0000
0000
1000
0000
,
0000
0000
0001
0000
,
0000
0000
1000
0000
,
0000
0000
0001
0000
,
0000
0000
1000
0000
,
0000
0000
0001
0000
,
0000
0000
1000
0000
,
0000
0000
1001
0000
,
0000
0000
0000
0000
,
0000
0000
0000
0000
,
0000
0000
0000
0000
,
0000
0000
0000
0000
,
0000
0000
0000
0000
,
0000
0000
0000
0000
,
0000
0000
0000
0100
,
0000
0000
0000
0110
,
0000
0000
0000
1000
,
0000
0001
0000
0100
,
0000
0010
0000
1000
,
0000
0001
0000
1000
,
0000
0001
0000
0000
,
1000
0000
0000
0000
,
0000
0000
0000
0000
,
0000
0000
0000
0000
,
0010
0000
0000
0000
,
0100
0000
0000
0000
,
0000
0000
0000
0000
,
0000
0000
0000
0000
,
0001
0000
0000
0000
,
1000
0000
0000
0000
,
0000
0000
0000
0000
,
0000
0000
0000
0000
,
0010
0000
0000
0000
,
0100
0000
0000
0000
,
0000
0000
0000
0000
,
0001
0000
0000
0000
,
1000
0000
0000
0000
,
0001
0000
0000
0000
,
0000
0000
0000
0000
,
0100
0000
0000
0000
,
0000
0000
0000
0000
,
0010
0000
0000
0000
,
0000
0000
0000
0000
,
1000
0000
0000
0000
,
0000
0000
0000
0000
,
0001
0000
0000
0000
,
0000
0000
0000
0000
,
0000
0000
0000
0000
,
0000
0000
0000
0000
,
0000
0000
0000
0000
,
0000
0000
0000
0000
,
0000
0000
0000
0000
,
0000
0000
0000
0000
,
1000
0000
0000
0000
,
0000
0000
0000
0000
,
0000
0000
0000
0000
,
0000
0000
0000
0000
,
0000
0000
0000
0000
,
0000
0000
0000
0000
,
0000
0000
0000
0000
,
0000
0000
0000
0000
,
1001
0000
0000
0000
,
0000
0000
0000
0000
,
0000
0000
0000
0000
,
0000
0000
0000
0000
,
0000
0000
0000
0000
,
0000
0000
0000
0000
,
0000
0000
0000
0000
,
0000
0000
0000
0000
,
0000
0000
0000
0000
,
0000
0000
0000
0000
,
0000
0000
0000
0000
,
0000
0000
0000
0000
,
0000
0000
0000
0000
,
0000
0000
0000
0000
,
0000
0000
1000
0000
,
0000
0000
0000
0000
,
0000
0000
0000
0000
,
0000
1001
0000
0000
;

//---------------dance-single - ----------------
#NOTES:
     dance-single:
     :
     Challenge:
     13:
     1.000,1.000,0.927,0.455,0.312,705.000,104.000,51.000,1104.000,4.000:
0000
0000
0000
0000
,
0000
0000
0000
0000
,
0000
0000
0000
0000
,
0000
0000
0000
0000
,
0000
0000
0000
0000
,
0000
0000
0000
0000
,
0000
0000
0000
0000
,
0000
0000
0000
0000
,
0110
1000
0001
0100
,
1000
0010
0001
1000
,
0010
0100
0001
0100
,
1000
0000
0001
1000
0100
0000
0010
0000
,
1001
0100
1000
0100
,
0101
1000
0010
0001
,
1100
0010
1001
1001
,
1001
0000
0100
0001
1000
0000
1001
0000
,
0001
0100
0001
0100
0001
0100
0001
0100
,
0010
0100
0010
0100
0010
0100
0010
0100
,
0010
1000
0010
1000
0010
1000
0010
1000
,
1010
1001
0101
1001
,
1000
0100
1000
0100
1000
0100
1000
0100
,
1000
0100
0010
0100
0010
0100
0010
0100
,
0010
0001
0010
0001
0010
0001
0010
0001
,
0011
0110
0101
0110
,
1000
0100
0010
0000
0011
0000
1100
0000
,
0001
0010
0100
0000
1100
0000
0011
0000
,
1000
0100
0010
0000
0011
0000
1100
0000
,
0021
0000
1000
0030
1200
0000
0001
0300
,
1000
0100
0001
0000
0001
0000
0100
0000
,
1000
0010
0100
0000
0001
0000
1000
0000
,
1100
0011
0101
1010
1001
0110
1001
0000
1000
0000
0100
0000
0010
0000
0001
0000
,
0010
0100
1000
0010
0100
0001
0010
0100
,
1000
0010
0100
0001
1000
0010
1000
0001
,
0100
0010
1000
0000
2100
0000
0010
3000
,
0102
0000
1000
0003
1000
0010
0100
0001
,
1000
0100
0010
0001
1000
0010
0100
0001
,
1000
0010
0100
0001
1000
0010
0100
0010
,
0100
0001
1000
0010
0100
0000
0110
0000
,
0001
0000
0110
0000
1000
0100
0001
0100
,
1000
0100
0001
0100
1000
0010
0001
0010
,
1000
0010
0001
0010
1000
0100
1000
0100
,
0010
0001
0010
0001
0100
0000
1000
0000
,
0010
0000
0001
0000
1000
0100
1000
0100
,
1000
0010
1000
0010
0100
0010
0100
0010
,
1000
0001
1000
0001
0200
0000
0301
0000
,
0101
0101
2000
3010
,
2020
0000
0000
0000
0000
0000
0000
3030
,
0001
1000
0001
1000
0010
0100
0010
0100
,
0110
1001
M2MM
M0MM
,
0301
1000
0001
1000
0001
0010
0001
0010
,
0011
1001
21MM
0MMM
,
3010
0100
0001
1000
0100
0010
0001
0010
,
0210
M00M
0010
M000
03M1
M000
0000
0000
,
1MM1
MMMM
1MM1
MMMM
M11M
MMMM
M11M
MMMM
,
1MM1
MMMM
M11M
MMMM
2MM2
0MM0
3MM3
MMMM
,
MMMM
MMMM
MMMM
0000
0000
0000
0000
0000
,
0000
0000
0000
0000
,
0000
0000
0000
0000
,
1001
1001
0110
0110
,
1001
0110
2002
3003
,
1000
0100
0001
0100
1000
0010
0001
0010
,
2000
3200
0320
0030
,
MMMM
0000
0000
0000
0000
0000
0001
0000
0000
0000
0000
0000
10M1
0000
0000
0000
0100
0000
0001
0000
0000
0000
0000
0000
111M
0000
0000
0000
0000
0000
0000
0000
0000
0000
0000
0000
1MMM
0000
0000
0000
0000
0000
0000
0000
0000
0000
0000
0000
1M11
0000
0000
0000
0000
0000
0000
0000
0000
0000
0000
0000
1111
0000
0000
0000
0000
0000
0000
0000
0000
0000
0000
0000
1MMM
0000
0000
0000
0000
0000
0000
0000
0100
0000
0000
0000
MMMM
0000
0000
0000
0000
0000
0000
0000
0000
0000
0000
0000
M111
0000
0000
0000
0000
0000
0000
0000
0000
0000
0000
0000
MMMM
0000
0000
0000
1000
0000
2000
0000
0000
0000
0000
0000
01MM
0000
0000
0000
0000
0000
0000
0000
0000
0000
0000
0000
0MMM
0000
0000
0000
0000
0000
0000
0000
0000
0000
0000
0000
0MM1
0000
0000
0000
0000
0000
3000
0000
0000
0000
0000
0000
MMMM
0000
0000
0000
0000
0000
1000
0000
0000
0000
0000
0000
M1MM
0000
0000
0000
0000
0000
0000
0000
0000
0000
0000
0000
MMMM
0000
0000
0000
0000
0000
0000
0000
0000
0000
0000
0000
,
MM2M
MM0M
MM0M
MM0M
1M3M
MMMM
MMMM
MMMM
1M1M
MMMM
MMMM
MMMM
MMMM
MMMM
MMMM
MMMM
,
MMMM
MMMM
MMMM
MMMM
MMMM
MMMM
MMMM
MMMM
,
MMMM
MMMM
MMMM
MMMM
MMMM
MMMM
MMMM
MMMM
,
MMMM
MMMM
MMMM
MMMM
MMMM
MMMM
MMMM
MMMM
,
MMMM
MMMM
MMMM
MMMM
MMMM
MMMM
MMMM
MMMM
,
MMMM
MMMM
MMMM
MMMM
MMMM
MMMM
MMMM
0000
,
0010
0100
0001
1000
0010
0100
0001
1000
,
0002
1003
2002
3003
,
0000
0000
0000
0000
0000
0000
0220
0000
0000
0000
0000
0000
0000
0000
0000
0000
0000
0000
0000
0000
0000
0000
0000
0000
M00M
0000
0000
0000
0000
0000
0000
0000
0000
0000
0000
0000
0000
0000
0000
0000
0000
0000
0000
0000
0000
0000
0000
0000
M00M
0000
0000
0000
0000
0000
0000
0000
0000
0000
0000
0000
0000
0000
0000
0000
0000
0000
0000
0000
0000
0000
0000
0000
M00M
0000
0000
0000
0000
0000
0000
0000
0000
0000
0000
0000
0000
0000
0000
0000
0000
0000
0000
0000
0000
0000
0000
0000
M00M
0000
0000
0000
0000
0000
0000
0000
0000
0000
0000
0000
0000
0000
0000
0000
0330
0000
0000
0000
0000
0000
0000
0000
MMMM
0000
0000
0000
0000
0000
0000
0000
0000
0000
0000
0000
0000
0000
0000
0000
0000
0000
0000
0000
0000
0000
0000
0000
MMMM
0000
0000
0000
0000
0000
0000
0000
0000
0000
0000
0000
0000
0000
0000
0000
0000
0000
0000
0000
0000
0000
0000
0000
MMMM
0000
0000
0000
0000
0000
0000
0000
0000
0000
0000
0000
0000
0000
0000
0000
0000
0000
0000
0000
0000
0000
0000
0000
,
0000
0000
0000
0000
,
0000
0000
0000
0000
,
MMMM
MMMM
MMMM
MMMM
,
0010
0100
10MM
0000
MMMM
0000
MMMM
0000
,
MMMM
MMMM
MMMM
MMMM
,
0000
1MM1
MMMM
MMMM
,
MMMM
MMMM
MMMM
MMMM
,
0000
M11M
MMMM
MMMM
,
MMMM
MMMM
MMMM
MMMM
,
0000
11MM
MMMM
MMMM
,
MMMM
MMMM
MMMM
MMMM
,
0000
M11M
MMMM
MMMM
,
MMMM
MMMM
MMMM
MMMM
,
0000
1M1M
MMMM
MMMM
,
MMMM
MMMM
MMMM
MMMM
,
0000
0000
0000
000M
M1M0
0000
0001
0000
11M0
0000
0000
0000
MMMM
0000
0000
0000
,
MMMM
MMMM
MMMM
MMMM
,
0000
11MM
MMMM
MMMM
,
MMMM
MMMM
MMMM
MMMM
,
0000
1MM1
MMMM
MMMM
,
MMMM
MMMM
MMMM
MMMM
,
0000
MM11
MMMM
MMMM
,
MMMM
MMMM
MMMM
MMMM
,
0000
M11M
MMMM
MMMM
,
MMMM
MMMM
MMMM
MMMM
,
0000
1M1M
MMMM
MMMM
,
MMMM
MMMM
MMMM
MMMM
,
0000
M11M
MMMM
MMMM
,
MMMM
MMMM
MMMM
MMMM
,
0000
0000
1MM1
0000
M1MM
0010
1MMM
0000
,
MMMM
MMMM
MMMM
MMMM
,
0000
0000
0100
0010
1000
0000
0001
0000
,
1000
0100
1000
0000
0001
0000
0101
0000
,
1000
1100
0010
0001
,
0010
0001
0010
0000
1002
0000
1003
0000
,
1000
0100
0010
0001
0010
0100
0010
1000
,
0010
1000
0010
0001
0010
1000
0010
1000
,
0010
0100
0010
0100
0010
0001
1000
0100
,
1000
0100
0010
0001
0010
0100
1000
0010
,
0100
0001
0100
0001
2000
0000
0000
0000
,
0000
0000
0020
0000
,
0000
0000
0000
0000
,
0000
0000
0000
3030
,
MMMM
MMMM
MMMM
0000
,
0202
0000
0000
0000
0300
0000
2000
0M00
,
0000
0000
0003
0000
3020
000M
0000
0000
,
M000
0000
0000
0000
0130
0000
0000
0000
0000
0000
0000
0000
0001
0100
0001
1000
,
0010
0000
0100
0000
0010
1000
0001
0100
0010
0000
0100
0000
0001
0100
1000
0000
,
1000
0100
0001
0000
0010
1000
0010
0001
0100
1000
0100
0001
0010
0000
0010
0000
,
0000
0010
0001
0000
0000
0001
1000
0000
0000
1000
0100
0000
0000
0100
0010
0000
,
0000
0000
0000
0010
0000
0000
0100
0000
0000
0000
0000
0000
0000
0000
0000
0100
0000
0000
1000
0000
0000
0000
0000
0000
0000
0000
0000
1000
0000
0000
0010
0000
0000
0000
0000
0000
0100
0000
0000
0000
0001
0000
0000
0000
0000
0000
0000
0000
,
1000
0000
0010
0000
1000
0000
0001
0000
0100
0000
0010
0000
,
1000
0000
0000
0000
0000
0000
0000
0000
0000
0000
0000
0000
0000
0000
0000
0000
0000
0000
0000
0000
0000
0000
0000
0000
0000
0000
0000
0000
0000
0000
0000
0000
0100
0000
0000
0000
0000
0000
0000
0000
0000
0000
0000
0000
0000
0000
0000
0000
0000
0000
0000
0000
0000
0000
0000
0000
0000
0000
0000
0000
0000
0000
0000
0000
0010
0000
0000
0000
0000
0000
0000
0000
0000
0000
0000
0000
0000
0000
0000
0000
0000
0000
0000
0000
0000
0000
0000
0000
0000
0000
0000
0000
0000
0000
0000
0000
0022
0000
0000
0000
0000
0000
0000
0000
0000
0000
0000
0000
0000
0000
0000
0000
0000
0000
0000
0000
0000
0000
0000
0000
0000
0000
0000
0000
0000
0000
0000
0000
0000
0000
0000
0000
0000
0000
0000
0000
0000
0000
0000
0000
0000
0000
0000
0000
0000
0000
0000
MM33
0000
0000
MM00
0000
0000
MMMM
0000
0000
MMMM
0000
0000
MMMM
0000
0000
MMMM
0000
0000
0000
0000
0000
0000
0000
0000
0000
0000
0000
0000
0000
0000
0000
0000
0000
0000
0000
0000
0000
0000
0000
0000
0000
0000
0000
0000
0000
,
1000
0100
1000
0100
1000
0100
1000
0100
,
1000
0001
1000
0001
1000
0001
1000
0001
,
1000
0010
1000
0010
1000
0010
1000
0010
,
1000
11MM
0001
M1M1
,
0001
0010
0001
0010
0001
0010
0001
0010
,
0001
1000
0001
1000
0001
1000
0001
1000
,
0001
0100
0001
0100
0001
0100
0001
0100
,
0001
MM11
1000
1M1M
,
1000
0100
0010
0001
1000
0100
0010
0001
,
0010
0100
1000
0100
0010
0001
0010
0100
,
1000
0001
0010
0100
1000
0010
0100
0001
,
2000
3020
2030
3002
,
1003
0100
0010
0001
1000
0100
0010
0001
,
1000
0010
0100
0001
1000
0010
0100
0001
,
1000
0100
1000
0001
0100
0001
1000
0001
,
1001
0110
1001
0110
,
1001
0001
0010
0001
0010
0001
0010
0001
,
1000
0001
1000
0001
1000
0001
1000
0001
,
1000
0010
1000
0010
1000
0010
1000
0010
,
2000
3010
0200
0301
,
1000
0010
1000
0010
1000
0010
1000
0010
,
1000
0001
1000
0001
1000
0001
1000
0001
,
1000
0100
1000
0100
1000
0100
1000
0100
,
1000
1100
0001
0101
,
1000
0001
1000
0001
,
1000
0001
1000
0001
,
0100
0010
0100
0010
,
0100
0010
0100
0010
,
0100
0001
0100
0001
,
1000
0010
1000
0010
,
0200
0000
0000
0300
0002
0000
0000
0003
,
2000
0000
0000
3000
2020
0000
3030
0000
,
0100
0001
1000
0010
,
0100
0001
1000
0010
,
0100
0001
1000
0010
,
0100
0001
0100
0001
,
1000
0100
0010
0001
,
1000
0100
0010
0001
,
1000
0001
1000
0001
,
1000
0000
0001
0000
1000
0001
1000
0001
,
2000
0000
0000
0MMM
,
0000
0MMM
0000
0MMM
,
0000
0MMM
0000
0MMM
,
0000
0MMM
0MMM
0MMM
,
0MMM
0MMM
0MMM
0MMM
,
0MMM
0000
0MMM
0000
0MMM
0MMM
0MMM
0MMM
,
0MMM
0MMM
0MMM
0MMM
0MMM
0MMM
0MMM
0MMM
,
0MMM
0MMM
0MMM
0MMM
,
0MMM
0000
0MMM
0000
,
0MMM
0000
0MMM
0000
,
0MMM
0000
0000
0000
0MMM
0000
0001
3000
,
MMMM
000M
0M00
0000
0002
0000
0M00
0000
00M3
0000
M100
0000
000M
0000
MM00
0000
,
00M0
110M
0000
0000
M000
0M0M
0000
10M0
,
000M
01M0
0000
M0M1
0M0M
M010
0000
1MMM
,
0000
M1MM
0000
1MM1
0000
0220
0000
000M
,
M330
0000
0000
0000
0000
0000
0000
0000
0101
0000
0110
0000
1010
0000
MMMM
M00M
,
MMMM
M00M
MMMM
M00M
MMMM
M00M
MMMM
M00M
MMMM
M00M
MMMM
M00M
0MM0
0000
0000
0000
,
0000
0000
0000
0110
2020
0000
0000
0000
,
0M00
0000
0M0M
0000
,
0M00
0000
0M0M
000M
,
0M00
0000
0000
0000
,
0000
0M00
000M
0000
,
0000
0000
0000
0000
,
0000
0M00
0000
0000
,
0000
0M00
000M
0000
,
0000
0000
0000
0000
,
0000
0M0M
000M
0000
,
0000
0000
000M
0000
,
0000
0M00
0000
0000
,
0000
0M00
000M
0000
,
0000
0000
0000
0000
,
0000
0M00
000M
0000
,
0000
0000
0M00
000M
0000
0000
0000
0000
,
0000
0000
0000
000M
0000
0000
0000
0000
,
0000
0000
0000
0M0M
0000
0000
0000
0000
,
0000
0000
0M00
000M
0000
0000
0000
0000
,
0000
0000
0M00
000M
0000
0000
0000
0000
,
0000
0M00
0000
0000
,
0000
0M00
0000
0000
,
0000
0000
0000
0000
,
0000
0000
0M00
000M
0000
0000
0000
0000
,
0000
0000
0M00
0000
,
0000
0000
0000
000M
0000
0000
0000
0000
,
0000
0000
0M00
000M
,
0000
0000
0000
000M
000M
0000
000M
0000
,
0000
0000
0M00
000M
,
0000
0000
0M00
000M
,
0000
0000
0M00
000M
,
0000
0000
0M00
000M
,
0000
0000
0M0M
0000
,
0000
0000
0M0M
0000
,
0000
0000
0M0M
0000
,
0000
0000
0M0M
0000
,
0M00
0M00
0M00
0M00
0M0M
0000
0000
0000
,
0000
0000
0M0M
0000
,
0000
0000
0M00
0000
,
0000
0000
000M
0000
,
0000
0000
0M00
0000
,
0000
0000
000M
0000
,
0000
0000
0M00
0000
,
0000
0000
000M
0000
,
0000
000M
0M00
000M
,
0M00
000M
0000
0M0M
,
0M0M
0000
0000
0M0M
,
0M0M
000M
003M
0M0M
,
0M0M
000M
0M0M
000M
,
000M
000M
0MMM
0MMM
,
0MMM
0MMM
0MMM
0MMM
,
0MMM
0MMM
0MMM
00M0
,
0M0M
0MM0
00M0
0M0M
,
0000
00MM
000M
0M00
,
0000
00MM
0000
0000
,
0M00
0000
0000
0000
000M
0000
0000
0000
0000
0000
0000
0000
0000
0000
0000
00M0
,
0000
00M0
000M
0000
,
000M
0000
0000
0000
3MM0
0000
0000
0000
0000
0000
0000
0000
0000
0000
0000
0M00
,
000M
0000
0000
0000
0000
0000
0000
0000
0000
0000
0000
0000
0000
0000
0000
0000
0000
0000
0000
0000
0000
0000
0000
0000
0000
0000
0000
0000
0000
0000
0000
0000
0000
0000
0000
0000
0000
0000
0000
0000
0000
0000
0000
0000
0000
0000
0000
0000
00M0
0000
0000
0000
0000
0000
0000
0000
0000
0000
0000
0000
0000
0000
0000
0000
0000
0000
0000
0000
0000
0000
0000
0000
0000
0000
0000
0000
0000
0000
0000
0000
0000
0000
0000
0000
0000
0000
0000
0000
0000
0000
0000
0000
0000
0000
0000
0000
M000
0000
0000
0000
M000
0000
M000
0000
0000
0000
0000
0000
0000
0000
0000
0000
0000
0000
0000
0000
0000
0000
0000
0000
0000
0000
0000
0000
0000
0000
0000
0000
0000
0000
0000
0000
0000
0000
0000
0000
0000
0000
0000
0000
0000
0000
0000
0000
0000
0000
0000
0000
0000
0000
0000
0000
0000
0000
0000
0000
0000
0000
0000
0000
0000
0000
0000
0000
0000
0000
0000
0000
0000
0000
0000
0000
0000
0000
0000
0000
0000
0000
0000
0000
0000
0000
0000
0000
0000
0000
0000
0000
0000
0000
0000
0000
;
