#TITLE:Flames Of The Sky;
#SUBTITLE:;
#ARTIST:Xstormer1;
#TITLETRANSLIT:;
#SUBTITLETRANSLIT:;
#ARTISTTRANSLIT:;
#CREDIT:;
#BANNER:Flames Of The Sky-bn.jpg;
#BACKGROUND:Flames Of The Sky-bg.jpg;
#LYRICSPATH:;
#CDTITLE:!macTitle.png;
#MUSIC:Flames Of The Sky.mp3;
#OFFSET:-0.831;
#SAMPLESTART:37.440;
#SAMPLELENGTH:12.000;
#SELECTABLE:YES;
#BPMS:0.000=163.001;
#STOPS:;
#BGCHANGES:;
// cache tags:
#FIRSTBEAT:12.000;
#LASTBEAT:331.000;
#SONGFILENAME:Songs/Fresh Flock of Fantastic Files F4/(macgravel) Flames Of The Sky/Flames Of The Sky.sm;
#HASMUSIC:1;
#HASBANNER:1;
#MUSICLENGTH:129.183;
// end cache tags

//---------------dance-single - Heavy----------------
#NOTES:
     dance-single:
     Heavy:
     Hard:
     10:
     1.000,1.000,0.805,0.000,1.000,935.000,104.000,0.000,0.000,0.000:
0000
0000
0000
0000
,
0000
0000
0000
0000
,
0000
0000
0000
0000
,
1001
0011
0101
1010
,
0110
1100
0110
1100
,
0011
0101
0011
1010
,
0110
0000
1100
0000
0110
0000
1100
0110
,
0011
0101
0011
1100
0110
0011
0110
1100
,
0011
0000
0101
0000
0011
0000
1100
0000
0110
0000
1100
0000
1000
0100
0010
0001
,
0100
0001
0010
0100
1000
0010
0100
0010
1000
0100
0010
0001
0100
0001
0010
0100
,
0010
0000
0100
0000
1000
0000
0100
0000
1000
0001
1000
0001
1000
0001
1000
0001
1000
0001
1000
0001
1000
0001
1000
0001
1000
0000
0100
0000
0010
0000
0001
0000
,
0100
0010
0100
0001
0010
0100
1000
0010
0100
0010
1000
0100
0010
0001
0100
0001
,
1000
0010
1000
0100
0010
0100
1000
0001
0010
0100
0010
0001
0100
0010
1000
0100
,
1000
0010
0100
0010
0100
0001
0010
0100
0010
0100
1000
0001
1000
0010
0100
0001
,
0010
0100
1000
0001
0100
0010
1000
0100
0010
0001
0100
0010
1000
0001
0100
0001
,
1000
0010
1000
0001
0100
0001
0100
0010
1000
0100
1000
0001
0010
0001
1000
0100
,
1000
0001
0010
0100
0010
0001
0100
0010
0100
0001
1000
0100
0010
0100
1000
0010
,
0100
0010
1000
0001
1000
0100
0010
0100
1000
0001
1000
0001
0100
0010
0100
0001
,
0010
0100
1000
0010
1000
0100
1000
0001
0100
0010
1000
0100
1000
0010
1000
0001
,
0010
0100
0010
0001
0100
0001
1000
0001
0100
0001
0010
0100
1000
0010
0100
0010
,
1000
0100
0010
0001
1000
0100
0010
0100
0010
0001
1000
0100
0010
0100
0010
0001
,
0100
0010
1000
0010
0100
0001
0010
0001
0100
0001
1000
0010
0100
0001
0100
0010
,
1000
0100
0010
0100
1000
0010
0100
0010
1000
0001
0010
0100
1000
0001
1000
0100
,
0010
0001
1000
0001
0010
0100
1000
0001
1000
0100
0010
0001
0100
0010
1000
0001
,
1000
0010
0100
0001
1000
0001
0100
0010
1000
0001
1000
0010
0100
0001
0100
0010
,
1000
0100
0010
0001
0010
0100
1000
0010
0100
0001
0010
0100
1000
0100
0010
0001
,
0100
0010
1000
0100
0010
0001
1000
0100
1000
0001
1000
0010
0100
0001
0010
0100
,
0010
0001
0100
0010
1000
0100
1000
0010
0100
0001
0010
0100
0010
0001
1000
0100
,
1000
0010
0100
0010
0100
0001
0010
0100
0010
0100
1000
0001
0100
0001
0010
0001
,
1000
0100
1000
0010
1000
0100
0010
0001
0100
0010
1000
0001
0100
0001
0010
0100
,
0010
0100
1000
0001
0100
0001
1000
0100
1000
0010
0100
0010
1000
0010
0100
0001
,
0010
0100
0010
0100
1000
0010
0100
0001
0100
0010
0100
0001
0100
0010
1000
0100
,
1000
0010
1000
0100
0010
0001
0100
0010
1000
0100
0010
0001
0100
0010
0100
0001
,
0010
0100
1000
0010
0100
0001
0010
0100
1000
0001
0100
0010
1000
0100
0010
0001
,
1000
0010
0100
0001
1000
0100
1000
0010
1000
0100
1000
0010
0100
0001
1000
0001
,
0100
0001
0010
0001
0100
0010
1000
0100
0010
0001
0100
0010
1000
0010
1000
0100
,
0010
0001
1000
0100
1000
0001
1000
0010
1000
0001
0100
0010
1000
0100
0010
0001
,
1000
0001
1000
0100
0010
0100
1000
0001
0010
0100
1000
0010
0100
0010
0100
0001
,
1000
0001
1000
0100
1000
0001
1000
0100
1000
0001
0100
0001
1000
0001
0100
0001
,
1000
0010
0100
0001
0010
0001
0100
0010
1000
0100
1000
0010
1000
0100
0010
0001
,
0010
0011
0000
1001
,
0000
0000
0000
0000
0000
0000
0000
0000
0000
0000
0001
0010
0100
0000
0000
0000
,
0110
0000
0000
0000
1001
0000
1100
0000
0110
0011
0000
0000
0001
0000
0010
0000
,
0100
1000
0010
1000
0100
0010
0001
0100
,
0010
0100
0001
0010
0100
1000
0010
1000
,
0100
1000
0010
1000
0100
0010
0001
0100
,
0010
0100
0001
0100
0010
1000
0100
1000
,
0010
1000
0100
0010
0001
0100
0010
0100
,
0001
0010
0100
1000
0010
1000
0001
0100
,
0010
0100
0001
0010
0001
0010
0100
0010
,
0100
1000
0010
1000
0100
0010
0001
0100
,
0010
0100
0001
0010
0100
1000
0010
1000
,
0010
0100
0001
0100
0010
1000
0100
1000
,
0010
1000
0100
0010
0001
0100
0010
0100
,
0001
0010
0100
0001
0100
0010
0100
1000
,
0010
1000
0100
0010
0001
0100
0010
0100
,
0001
0010
0100
1000
0010
0100
0001
0100
,
0010
0100
0001
0010
0100
1000
0010
1000
,
0100
0000
0010
0000
0001
0000
0100
0000
0010
0000
1000
0000
0010
1000
0100
0010
,
0001
0100
0010
0100
0001
0000
0010
0000
0110
0000
1000
0000
1010
0000
0001
0000
,
1010
0000
0001
0000
0110
0000
0001
0000
0110
0000
0001
0000
1000
0100
0010
0001
,
0100
0010
0100
0001
0010
0000
0100
0000
0101
0000
0100
0000
0110
0000
1000
0000
,
0110
0000
0001
0000
1010
0000
0100
0000
0101
0000
0010
0000
0001
0010
0001
0100
,
0010
0100
0001
0010
0100
0000
0001
0000
0110
0000
0001
0000
1100
0000
0010
0000
,
0101
0000
0100
0000
0110
0000
0010
0000
1100
0000
0001
0000
1000
0001
0100
0010
,
0100
0001
0010
0100
1000
0000
0100
0000
0110
0000
0001
0000
0110
0000
0001
0000
,
1010
0000
0100
0000
1010
0000
0001
0000
0110
0000
0001
0000
0010
1000
0001
0100
,
0010
0100
0001
0010
0100
0000
0001
0000
0110
0000
0001
0000
1100
0000
0010
0000
,
0101
0000
0001
0000
0110
0000
0100
0000
1010
0000
0100
0000
0010
0100
0001
0010
,
0100
0010
0001
1000
0010
0000
1000
0000
0110
0000
0001
0000
0110
0000
0010
0000
,
1100
0000
0001
0000
1010
0000
0001
0000
0110
0000
0001
0000
1000
0100
0010
0001
,
0010
0100
1000
0010
1000
0000
0100
0000
0110
0000
0001
0000
0110
0000
0001
0000
,
1010
0000
0100
0000
1100
0000
0100
0000
0011
0000
0001
0000
0100
0010
0001
0100
,
0010
0100
0001
0010
0100
0000
0010
0000
0011
0000
0001
0000
0110
0000
0001
0000
,
1010
0000
0100
0000
0101
0000
0010
0000
0011
0000
0100
0000
0001
1000
0010
1000
,
0001
0100
0010
0100
0001
0000
0100
0000
1010
0000
0001
0000
0110
0000
0001
0000
,
0110
0000
0100
0000
1001
0000
0010
0000
0101
0000
0010
0000
0001
0100
0010
0100
,
0001
0010
0100
1000
0010
0000
0001
0000
1010
0000
1000
0000
0101
0000
0010
0000
,
0101
0100
0011
0100
1010
0100
0011
1100
,
1010
1100
0110
0101
0110
0011
0110
1001
,
1010
0000
1100
0000
0011
0000
0110
0000
0101
0000
0110
0000
0001
0010
0100
1000
,
0010
1000
0100
0010
0001
0100
0010
0100
0001
0010
0100
1000
0010
1000
0100
0010
,
0001
0000
0100
0000
0010
0000
0100
0000
0001
1000
0001
1000
0001
1000
0001
1000
0001
1000
0001
1000
0001
1000
0001
1000
0001
0000
0000
0000
0000
0000
0000
0000
;
