#TITLE:ZUTTO KIMI NI SOBA DE;
#SUBTITLE:~FLAME OF RECCA ENDING THEME~;
#ARTIST:(ANIME);
#TITLETRANSLIT:;
#SUBTITLETRANSLIT:;
#ARTISTTRANSLIT:;
#CREDIT:;
#BANNER:recca.png;
#BACKGROUND:recca--bg.png;
#LYRICSPATH:;
#CDTITLE:;
#MUSIC:Flame of Recca - Ending Theme.mp3;
#OFFSET:-6.400;
#SAMPLESTART:63.020;
#SAMPLELENGTH:12.000;
#SELECTABLE:YES;
#BPMS:0.000=87.000;
#STOPS:;
#BGCHANGES:;
// cache tags:
#FIRSTBEAT:0.000;
#LASTBEAT:137.500;
#SONGFILENAME:Songs/toune 5/Flame of Recca - Ending Theme/Flame of Recca - Ending Theme.sm;
#HASMUSIC:1;
#HASBANNER:1;
#MUSICLENGTH:104.019;
// end cache tags

//---------------dance-single - ----------------
#NOTES:
     dance-single:
     :
     Easy:
     3:
     0.179,0.158,0.000,0.058,0.000,124.000,0.000,6.000,0.000,0.000:
1000
0100
1000
0001
,
0100
0001
1000
0100
,
0010
0100
1000
0001
,
0100
0010
1000
0100
,
0001
0100
0010
0100
,
0001
1000
0100
0010
,
1000
0100
0010
0001
,
0200
0000
0000
0300
,
0001
0001
0100
1000
,
0010
1000
0100
0001
,
1000
0100
1000
0100
,
0010
0001
0010
0001
,
1000
1000
0100
0001
,
1000
0100
0010
0001
,
1000
0010
0010
0100
,
0100
0001
1000
0100
,
0001
0020
0100
0130
,
1000
1000
0100
0001
,
1000
0020
0100
0130
,
1000
0001
0200
0000
,
0300
0000
0001
1000
,
0001
1000
0100
0010
,
0100
0010
1000
0001
,
1000
0001
0010
0100
,
0010
0100
1000
0001
,
0100
0010
1000
0100
,
0001
0100
0001
1000
,
0010
0100
0001
0100
,
1000
0100
0010
0010
,
0100
0100
0001
0001
,
1000
1000
0010
0100
,
0001
1000
0010
0100
,
0020
0000
0000
0000
0200
0000
0000
0330
;

//---------------dance-single - Copied from----------------
#NOTES:
     dance-single:
     Copied from:
     Medium:
     4:
     0.255,0.222,0.231,0.096,0.010,152.000,24.000,10.000,0.000,0.000:
1000
0100
1000
0101
,
0010
0110
0100
1000
,
0001
0100
0001
1100
,
0010
0110
0100
0001
,
0010
1000
0100
1100
,
0001
1001
0010
1000
,
0100
0001
0010
1100
,
0001
0000
1001
0000
1000
0100
0001
0000
,
0002
0000
1003
0000
1000
0100
0001
0000
,
0010
0000
0010
0000
1000
0100
0010
0000
,
0001
1000
0001
0101
,
1000
0001
1000
1100
,
2000
0000
3001
0000
0001
0100
1000
0000
,
0010
0000
0100
0000
0001
0010
0100
0000
,
1000
0001
1000
1100
,
0001
1000
0001
0101
,
0010
0000
1010
0000
0100
0001
0100
0000
,
0010
0000
0101
0000
0010
1000
0010
0000
,
0100
0000
1000
0000
0100
0010
0001
0000
,
0001
0000
0010
0000
0100
0000
0000
0000
2000
0000
0000
3002
0000
0000
0203
0000
,
0010
0300
0000
0000
0001
0000
0001
0000
1100
0000
0000
0000
0001
0000
0001
0000
,
1100
0001
0010
0100
,
1000
0000
1000
1000
0101
0000
1000
1000
,
0101
1000
0010
0100
,
0001
0000
1000
0010
0101
0000
1000
0010
,
0101
0010
1000
0001
,
0100
0000
0001
0010
1100
0000
0001
0010
,
1100
0100
1000
0001
,
0020
0000
1030
1100
,
1000
0100
0001
0000
0001
0000
0010
0000
,
0100
0100
1000
0000
0001
0000
0101
0000
,
0001
0100
1000
0000
1000
0000
0010
0000
,
0200
0000
0000
2300
0000
0000
3002
0000
0203
0000
0000
0000
0000
0000
0000
0000
,
0300
0000
0000
0000
;

//---------------dance-single - Copied from----------------
#NOTES:
     dance-single:
     Copied from:
     Hard:
     7:
     0.371,0.360,0.221,0.135,0.082,233.000,23.000,14.000,0.000,0.000:
1000
0100
1000
0100
0010
0001
0011
0000
,
0001
0100
0001
0100
0010
1000
1010
0000
,
1000
0001
0100
0010
1000
0100
1001
0000
,
0001
1000
0010
0100
0001
0100
1001
0000
,
0010
0001
0100
0001
1000
0100
1100
0000
,
0010
1000
0001
0100
0010
0100
0101
0000
,
0001
1000
0100
0010
0100
1000
1001
0000
,
0011
0001
0000
1100
1000
0000
0100
0010
,
0100
0000
0001
0000
0100
0000
0010
0000
1000
0100
0010
0000
0001
0000
0000
0000
,
0010
0000
0100
0000
0001
0000
1000
0000
0010
0100
0001
0000
1000
0000
0000
0000
,
0100
0010
1000
0100
0002
1000
1003
0000
,
0010
0001
1000
0100
0020
0100
0130
0000
,
0001
0000
0010
0000
1000
0000
0100
0000
1000
0100
1000
0000
0001
0000
0000
0000
,
1000
0000
0010
0000
0001
0000
0100
0000
0001
0100
0001
0000
1000
0000
0000
0000
,
0010
1000
0010
0001
0200
0010
0310
0000
,
0100
0001
0100
1000
0020
0100
0130
0000
,
1010
0000
1100
0000
0001
0010
0100
0000
,
1000
0100
1000
0010
0001
1000
0100
0000
,
0011
0000
0101
0000
0010
0100
1000
0000
,
0001
0000
1000
0000
0010
0000
0100
0000
0001
0000
1000
0100
0000
0010
0001
0000
,
1000
0000
0000
0000
0010
0000
0010
0200
0000
0000
0000
0000
0310
0000
0010
0200
,
0000
0000
0310
1000
0100
0010
0001
1000
,
0100
0000
0000
0000
0010
0000
0010
0200
0000
0000
0000
0000
0310
0000
0010
0200
,
0000
0000
0310
0001
1000
0010
0100
1000
,
0001
0000
0010
0000
0001
0000
1000
0200
0000
0000
0000
0000
0301
0000
1000
0200
,
0000
0000
0310
0001
1000
0100
0001
0100
,
0010
0000
0100
0000
1000
0000
0001
0200
0000
0000
0000
0000
1300
0000
0001
0200
,
0000
0000
1300
0010
1000
0010
0100
0001
,
0100
0001
1000
0100
0011
0100
0011
0100
,
0001
1000
0001
1000
1010
0100
1010
0100
,
0001
1000
0001
1000
1100
0010
1100
0010
,
0001
1000
0100
0010
0101
0010
0101
0010
,
1001
0000
0000
0000
1000
0000
0100
0000
0000
0000
0001
0000
0100
0000
0000
0000
0000
2002
0000
0000
0000
0000
0000
0000
0000
0000
0000
0000
0000
0000
0000
0000
,
0000
0000
0000
0000
,
3003
0000
0000
0000
;

//---------------dance-single - Copied from----------------
#NOTES:
     dance-single:
     Copied from:
     Challenge:
     8:
     0.467,0.463,0.394,0.192,0.308,279.000,41.000,20.000,0.000,0.000:
1100
0000
0100
0000
1000
0000
0010
0100
1000
0001
0100
0000
0101
0000
0000
0000
,
0100
1001
1000
1100
0010
0101
0001
1000
,
0101
0000
0100
0000
0001
0000
0010
1000
0100
1000
0001
0000
1100
0000
0000
0000
,
0100
0000
0010
0000
1000
0000
0100
0000
0010
0000
0001
0100
0001
0100
0001
0000
,
1100
0000
0010
0000
0100
0000
0001
0100
1000
0100
0010
0000
1100
0000
0000
0000
,
0100
1001
0001
0101
0010
1010
0100
0001
,
0101
0000
0010
0000
0100
0000
0001
0100
1000
0100
0010
0000
0101
0000
0000
0000
,
0001
0000
1000
0000
0000
0010
0100
0000
0001
0000
0000
0100
1000
0001
0100
0000
,
2000
0000
0000
0000
0000
0000
3100
0100
0010
0100
0001
0000
1001
0000
0000
0000
,
1000
0000
0100
0000
0001
0000
0010
0001
0100
1000
0100
0000
1001
0000
0000
0000
,
0010
1000
1010
0101
0010
0001
0011
1100
,
0001
0000
1000
0000
0001
0000
0100
0000
0010
0100
1000
0000
0200
0000
0010
0000
,
0320
0000
0000
0000
0000
0000
1030
1000
0001
1000
0100
0000
0110
0000
0000
0000
,
0010
0000
1000
0000
0100
0000
0001
0100
1000
0010
1000
0000
0110
0000
0000
0000
,
0001
0010
0011
1100
0001
0100
0101
1010
,
0100
0000
0010
0000
0100
0000
1000
0100
0001
0000
0010
0000
2000
0000
0001
0000
,
3002
0000
0000
0000
0103
0000
1000
0100
1000
0001
0100
0000
1001
0000
0000
0000
,
0010
0000
1000
0000
0100
0010
0100
0001
1000
0000
0001
0000
0010
0100
1000
0000
,
0002
0000
0000
0000
1003
0000
0010
1000
0100
0010
0100
0000
1001
0000
0000
0000
,
0010
0000
0001
0000
0100
1000
0100
0010
0100
0000
0010
0100
0000
0010
0100
0000
,
2002
0000
0000
3003
0100
0000
0010
0020
0000
0000
0000
0000
1030
0000
0001
0002
,
0000
0000
0000
0000
1003
0000
0100
0010
0000
0000
0100
0000
0001
0000
1000
0010
,
0100
0001
1000
0000
0001
0000
0100
0200
0000
0000
0000
0000
0301
0000
0100
0200
,
0000
0000
0000
0000
0301
0000
1000
0100
0000
0000
0010
0000
1000
0000
0001
0100
,
0000
0000
0110
0000
1001
0000
0100
0020
0000
0000
0000
0000
0130
0000
0100
0020
,
0000
0000
0000
0000
1030
0000
0001
0100
0000
0000
0010
0000
1000
0000
0001
0200
,
0000
0000
0000
0000
0310
0000
0010
2000
0000
0000
0000
0000
3010
0000
0010
2000
,
0000
0000
0000
0000
3100
0000
0001
0100
0000
0000
0100
0000
0010
0000
1000
0200
,
0000
0000
0010
0000
0310
0100
0010
0000
0001
0000
0100
0000
0001
0000
1000
0100
,
0010
0100
1000
0000
0101
0000
1100
0000
0010
0000
0001
0000
1000
0000
0100
0001
,
0010
0001
0100
0000
1010
0000
1100
0000
0001
0000
0100
0000
0010
0000
1000
0100
,
0001
0010
0001
0000
1100
0000
0101
0000
0010
0100
1000
0100
1000
0010
1000
0000
,
0101
0000
0000
0000
1000
0000
1100
0000
0000
0000
0001
0000
0101
0000
0000
0000
0000
2002
0000
0000
0000
0000
0000
0000
0000
0000
0000
0000
0000
0000
0000
0000
,
0000
0000
0000
0000
,
0000
0000
0000
3003
0000
0000
0000
0000
;
