#TITLE:Palmtree Panic Present;
#SUBTITLE:Sonic CD (JP);
#ARTIST:Sonic Team;
#TITLETRANSLIT:;
#SUBTITLETRANSLIT:;
#ARTISTTRANSLIT:;
#CREDIT:Owem;
#BANNER:../banner.png;
#BACKGROUND:../bg.png;
#LYRICSPATH:;
#CDTITLE:../cdtitleowem.png;
#MUSIC:Palmtree Panic Present - Sonic CD (JP).ogg;
#OFFSET:0.136;
#SAMPLESTART:3.289;
#SAMPLELENGTH:29.999;
#SELECTABLE:YES;
#BPMS:0.000=140.124;
#STOPS:;
#BGCHANGES:;
// cache tags:
#FIRSTBEAT:0.500;
#LASTBEAT:247.750;
#SONGFILENAME:Songs/Owem's Simfiles 08 1.1/Palmtree Panic Present - [Owem]/Palmtree Panic Present.sm;
#HASMUSIC:1;
#HASBANNER:1;
#MUSICLENGTH:107.937;
// end cache tags

//---------------dance-single - 2/3/2/2-2-5----------------
#NOTES:
     dance-single:
     2/3/2/2-2-5:
     Challenge:
     14:
     1.000,1.000,0.102,0.269,1.000,931.000,11.000,29.000,2.000,0.000:
0000
0000
0000
0000
1000
0000
0100
0000
0010
0000
0000
0000
0000
0000
0001
0000
0100
0000
0010
0000
0000
0000
0000
0000
0000
1000
0000
0000
0000
0000
0001
0000
,
0100
0000
0010
0000
1000
0000
0000
0000
0000
0000
0000
0000
0000
0000
0010
1000
0010
0000
0100
0000
0001
0000
1000
0000
0010
0100
0010
0000
1000
0000
0001
0000
,
2000
0000
0000
0000
3010
0000
0100
0000
0001
1000
0010
0100
0001
1000
0010
1000
0100
0010
0001
1000
0100
1000
0001
0100
0010
0000
1000
0000
0010
0000
0100
0000
,
0001
0000
0100
0000
0010
0000
1000
0000
0001
0000
0010
0000
0001
0000
0100
0000
0010
0000
1000
0100
1000
0000
0010
0000
0100
0000
0001
0000
1000
0000
0010
0000
,
0200
0000
0000
0302
0003
0000
2000
0000
0000
0000
0000
0000
3100
0010
0001
1000
,
0001
0000
0000
0000
0100
0000
0010
0000
0000
0000
0100
0000
0000
0000
0001
0000
1000
0000
0010
1000
0010
0000
0100
0000
0001
0000
1000
0000
0001
0000
0010
0000
,
0100
1000
0001
1000
0010
0100
0001
1000
0100
1000
0001
0100
0010
1000
0001
0100
,
0001
0000
0010
0000
0100
0000
1000
0000
0001
0000
0010
0000
0001
0000
0100
0000
0010
0000
1000
0001
1000
0000
0100
0000
0010
0000
0001
0000
1000
0000
0100
0000
,
2000
0000
0000
3020
0030
0000
0200
0000
0301
1000
0000
0100
0010
0001
0000
0100
,
0010
1000
0000
0010
1000
0001
0100
0010
0100
0001
1000
0100
0010
0001
1000
0010
,
1M0M
0000
0010
0100
0001
0000
1000
0000
0100
0000
0010
0000
0001
1000
0001
0100
0010
1000
0010
0000
0100
0000
0001
0000
1000
0100
0010
0001
1000
0001
0100
0000
,
0010
0000
1000
0000
0001
0100
0010
1000
0001
0100
0001
0000
1000
0000
0100
0000
0010
0000
0001
1000
0001
0000
0100
0000
0010
0000
1000
0000
0010
0000
0100
0000
,
0001
0000
1000
0100
0020
0030
0002
0103
0010
0000
1000
0001
1000
0010
0000
0100
,
0001
0000
0000
0000
1000
0000
0000
0000
0100
0000
0000
0000
0010
0000
0000
0000
0001
0000
0100
0010
0100
0000
0001
0000
1000
0000
0100
0000
1000
0000
0010
0000
,
0100
0001
0100
0010
0000
0000
1000
0100
0010
0001
0000
0000
0100
0010
0100
0001
,
0000
0000
0000
0000
1000
0000
0100
0000
1000
0000
0010
0000
0000
0000
0000
0000
0100
0000
0001
1000
0001
0000
0010
0000
0100
0000
1000
0000
0010
0000
0100
0000
,
0002
0003
1000
0010
1000
0000
0010
0100
0001
1000
0000
0100
0010
0001
0000
1000
,
0010
0100
0000
0001
1000
0000
0100
0010
0001
1000
0001
0100
0010
0100
0001
1000
,
0200
0000
0000
0000
0310
0001
1000
0001
0100
0010
1000
0001
1000
0100
0010
0001
,
1000
0000
0100
0000
1000
0000
0010
0000
0100
0000
0001
0000
1000
0000
0010
0000
0100
0000
0001
0010
0001
0000
1000
0000
0010
0000
1000
0000
0100
0000
0010
0000
,
0002
0000
0003
2000
3000
0010
0100
0001
1000
0100
0010
0001
1000
0010
0100
0001
,
1000
0100
0010
0001
1000
0010
1000
0010
0100
0001
0000
0101
0000
0110
0200
0000
,
0302
0000
0003
1000
0100
0010
0001
1000
0100
1000
0010
0100
0001
1000
0100
1000
,
0001
0000
0010
0000
0001
0000
1000
0000
0100
0000
0010
0000
0001
0000
1000
0000
0001
0000
0100
0010
0100
0000
0001
0000
1000
0000
0010
0000
1000
0000
0100
0000
,
0020
0000
0031
0100
0010
1000
0001
1000
0100
0010
0001
0100
0000
0110
0000
1010
,
0000
0000
0001
0100
0000
0000
0010
0000
0000
0000
1010
0000
0000
0000
1001
0000
0000
0000
0001
0000
0100
0000
0010
0000
0010
0000
1000
0000
0001
0000
0010
0000
,
0200
0000
1300
0001
0100
0010
0100
0001
1000
0100
1000
0001
0010
0001
1000
0100
,
0010
0000
0001
0000
1000
0000
0100
0000
1000
0000
0001
0000
0100
0000
0010
0000
1000
0000
0001
0100
0001
0000
1000
0000
0010
0000
0100
0000
0010
0000
1000
0000
,
0002
0000
0003
0020
0030
0100
1000
0001
1000
0010
0100
0010
1000
0001
0100
0010
,
0100
0000
0001
0000
1000
0000
0100
0000
1000
0000
0010
0000
0100
0000
0001
1000
0001
0000
0100
0000
0000
0000
0110
0000
0000
0000
1010
0000
2000
0000
0000
0000
,
3002
0000
0103
0010
1000
0010
0100
0001
1000
0010
1000
0001
0100
0010
1000
0001
,
0100
0000
0001
0000
0010
0000
0100
0000
1000
0000
0001
0000
0100
0000
0010
0000
1000
0000
0001
0100
0001
0000
0010
0000
0100
0000
1000
0000
0001
0000
1000
0000
,
0020
0000
0130
0001
1000
0001
0010
0100
1000
0010
1000
0001
0100
0010
0000
1000
,
0000
0000
0001
0000
0100
0000
0010
0000
0000
0000
1000
0000
0001
0000
1000
0000
0100
0000
0010
0000
0001
0100
0001
0000
1000
0000
0010
0000
0100
0000
0010
0000
,
2000
0000
3001
0100
0010
1000
0001
1000
0100
0010
0001
1000
0100
1000
0001
0100
,
0010
0000
1000
0000
0001
0000
0100
0000
0001
0000
0010
0000
0100
0000
1000
0000
0001
0000
0100
0010
0100
0000
0001
0000
1000
0000
0100
0000
0010
0000
0001
0000
,
0200
0000
0310
1000
0001
0010
0000
0100
1000
0000
0001
0100
0010
0100
0000
0001
,
1000
0000
0001
0000
0010
0000
0100
0000
1000
0000
0001
0000
0100
0000
0010
0000
0100
0000
0001
0000
1000
0000
0100
0000
0010
0000
0001
0000
0100
0010
0100
0000
,
0001
1000
0010
1000
0100
0010
0001
1000
0100
1000
0001
0100
0010
0100
0000
0001
,
1000
0000
0000
0000
0010
0000
0100
0000
0001
0000
0000
0000
1000
0000
0100
0000
0010
0000
0001
0100
0001
0000
1000
0000
0010
0000
0100
0000
0001
0000
1000
0000
,
0002
0000
0013
0100
1000
0001
1000
0010
0100
0001
1000
0010
1000
0100
0010
0001
,
1000
0000
0100
0000
1000
0000
0001
0000
0100
0000
0010
0000
0100
0001
0100
0000
0010
0000
1000
0000
0000
0000
0001
0000
0100
0000
0000
0000
0010
0000
0100
0000
,
0001
0000
1000
0000
0010
0000
1000
0000
0100
0000
0010
0000
0001
0000
1000
0010
1000
0000
0001
0000
0100
0010
0100
0001
1000
0000
0100
0000
0010
0001
1000
0001
,
0100
0000
0010
0000
0100
0000
0001
1000
0001
0100
0010
1000
0010
0100
0001
1000
0001
0000
0010
0000
0100
0000
1000
0000
0001
0000
0100
0000
0001
0000
1000
0000
,
0020
0000
0000
0000
0000
0000
0000
0000
0130
0001
1000
0010
1000
0100
0010
0001
1000
0100
1000
0001
0100
0010
1000
0001
0100
0000
0010
0000
0100
0000
0001
0000
,
1000
0000
0000
0000
0100
0000
0010
0000
0001
0000
1000
0000
0001
0000
0100
0000
0010
0000
1000
0001
1000
0000
0100
0000
0010
0000
0001
0000
0200
0000
0000
0000
,
0310
1000
0010
0100
0001
1000
0001
0010
0100
1000
0000
0010
0100
0000
0001
1000
,
0001
0000
0010
0000
0100
0000
1000
0000
0001
0000
0100
0000
0010
0000
0100
0000
0001
0000
1000
0010
1000
0000
0001
0000
0100
0000
0010
0000
0100
0000
0001
0000
,
2000
0000
3100
0010
0001
0100
0010
1000
0001
0100
0001
0010
0100
1000
0001
1000
,
0010
0100
0000
0001
0100
0000
0010
1000
0001
1000
0100
0010
0001
1000
0001
0100
,
0010
0100
0001
1000
0100
1000
0010
0100
0001
1000
0001
0010
0100
1000
0001
1000
,
0010
0100
0001
1000
0100
0010
0001
1000
0100
1000
0001
0100
0010
1000
0001
0100
,
0002
0000
0013
0100
1000
0001
1000
0010
0100
0001
1000
0010
1000
0100
0010
0001
,
1000
0000
0100
0000
1000
0000
0001
0000
0100
0000
0010
0000
0100
0000
0001
0000
1000
0000
0010
0100
0010
0000
1000
0000
0001
0000
0100
0000
0001
0000
0010
0000
,
0100
1000
0001
1000
0010
0100
0001
1000
0001
0010
0000
0100
1000
0001
0100
0010
,
0100
0000
0001
0000
1000
0000
0100
0000
0010
0000
0001
0000
1000
0000
0001
0000
0100
0000
0010
1000
0010
0000
0100
0000
0001
0000
1000
0000
0100
0000
1000
0000
,
0010
0100
0001
1000
0100
1000
0001
0010
0001
0100
0010
1000
0001
0100
0001
1000
,
0100
0010
0001
1000
0010
0100
0001
1000
0001
0010
0100
1000
0001
0100
0010
1000
,
0010
0100
0001
1000
0001
0010
0100
1000
0001
0100
0010
1000
0001
0100
0001
1000
,
0010
1000
0001
1000
0100
0010
0100
1000
0001
0010
0001
0100
0010
1000
0001
0010
,
0100
0000
0000
1000
0000
0000
0100
0000
0000
1000
0000
0000
0000
0000
0000
1010
0000
0000
0000
0000
0000
0110
0000
0000
0000
0000
0000
0101
0000
0000
0000
0000
0000
0000
0001
0000
0000
1000
0000
0000
0001
0000
0000
0000
0000
0000
0000
0100
,
0000
0000
0000
0000
0010
0000
0000
0000
0000
0000
0000
0000
0000
0000
0000
0000
0000
0000
0000
0000
0000
0000
0000
0000
0000
0000
0000
0000
0100
0000
0000
0000
0000
0000
0000
0000
0001
0000
0000
0000
0000
0000
0000
0000
1000
0000
0000
0000
0000
0000
0000
0000
0010
0000
0000
0000
0000
0000
0000
0000
0100
0000
0000
0000
0000
0001
0000
0000
0000
0000
1000
0000
0000
0000
0000
0000
0000
0000
0001
0000
0000
0000
0000
0000
0000
0000
0000
0000
0000
0000
0100
0000
0000
0000
0000
0000
;
