#TITLE:Holy Thunderforce;
#SUBTITLE:;
#ARTIST:Rhapsody;
#TITLETRANSLIT:;
#SUBTITLETRANSLIT:;
#ARTISTTRANSLIT:;
#CREDIT:;
#BANNER:holythunderforce.png;
#BACKGROUND:holythunderforce-bg.png;
#LYRICSPATH:;
#CDTITLE:!skorTitle.png;
#MUSIC:07 - holy thunderforce.mp3;
#OFFSET:2.550;
#SAMPLESTART:34.610;
#SAMPLELENGTH:12.000;
#SELECTABLE:YES;
#BPMS:0.000=180.000;
#STOPS:;
#BGCHANGES:;
// cache tags:
#FIRSTBEAT:8.000;
#LASTBEAT:776.000;
#SONGFILENAME:Songs/Community Keyboard Megapack - Volume 1/(skorpion9x) Holy Thunderforce/holythunderforce.sm;
#HASMUSIC:1;
#HASBANNER:1;
#MUSICLENGTH:261.781;
// end cache tags

//---------------dance-single - ----------------
#NOTES:
     dance-single:
     :
     Hard:
     11:
     0.972,1.000,0.955,0.546,0.665,1389.000,250.000,143.000,0.000,0.000:  // measure 1
0000
0000
0000
0000
,  // measure 2
0000
0000
0000
0000
,  // measure 3
0011
0100
0000
1000
0000
0001
0100
0010
,  // measure 4
1010
0100
0000
0001
0000
1000
0001
0100
,  // measure 5
0110
0010
0000
0110
0000
0000
1000
0000
,  // measure 6
1001
0100
0000
0110
0000
0000
0000
0000
,  // measure 7
0011
0100
0000
1000
0000
0001
0100
0010
,  // measure 8
1010
0100
0000
0001
0000
0100
1000
0010
,  // measure 9
0110
0001
0000
0001
0000
0000
0100
0000
,  // measure 10
0110
1000
0000
1001
0000
0000
0000
0000
,  // measure 11
1010
0100
0001
0010
0110
1000
0001
0100
,  // measure 12
0110
0001
1000
0001
0101
0010
1000
0001
,  // measure 13
1001
0000
0000
1001
0000
0000
0100
0000
,  // measure 14
0110
0001
0000
1001
0000
0000
0000
0000
,  // measure 15
0011
0100
1000
0001
0110
0001
1000
0100
,  // measure 16
0011
0010
1000
0001
0110
0001
0010
1000
,  // measure 17
1010
0000
0000
0110
0000
0000
0001
0000
,  // measure 18
0011
0100
0000
0110
0000
0000
0000
0000
,  // measure 19
1000
0100
0010
0001
0110
0000
0001
1000
0100
0010
1001
0000
0001
1000
0010
0100
,  // measure 20
0101
0000
0000
0000
1010
0000
0000
0000
0101
0000
0000
0000
0010
0100
0010
0100
,  // measure 21
1001
0000
0001
1000
0001
1000
0110
0000
1000
0100
0010
0001
1001
0000
0000
0000
,  // measure 22
0110
0000
0000
1001
1100
0000
0010
0000
,  // measure 23
0001
1000
0100
1000
1001
0000
1000
0001
0100
0001
1001
0000
0010
0100
0010
0100
,  // measure 24
1001
0000
0000
0000
1010
0000
0000
0000
0011
0000
0000
0000
0010
0100
1000
0010
,  // measure 25
0110
0000
0010
0100
0001
0010
0110
0000
0010
0100
1000
0001
0110
0000
0000
0000
,  // measure 26
1010
0000
0000
1001
0000
0000
0101
0000
,  // measure 27
0022
0000
0033
0010
2002
3000
0103
0000
,  // measure 28
0220
0000
0000
0000
0000
0000
0000
0330
,  // measure 29
1001
1000
0100
1000
0010
0000
0010
0000
,  // measure 30
1010
1000
0001
0100
0010
0000
0010
0000
,  // measure 31
1002
0000
0200
0303
2001
0000
0200
3300
,  // measure 32
1002
0000
2000
3003
0000
0000
0000
0000
,  // measure 33
1001
0100
0010
0001
1000
0000
1000
0000
,  // measure 34
1001
0010
0100
1000
0001
0000
0001
0000
,  // measure 35
2001
0000
0200
3300
0210
0000
2000
3300
,  // measure 36
2002
0000
3003
0000
,  // measure 37
1001
0100
0010
0100
1001
0000
1000
0000
,  // measure 38
0101
0010
1000
0100
0011
0000
0100
0000
,  // measure 39
1002
0000
0200
0303
2001
0000
0200
3300
,  // measure 40
0110
0220
0330
0000
,  // measure 41
1100
0010
0001
0100
1010
0000
1000
0000
,  // measure 42
1010
0100
0001
1000
1100
0000
0100
0000
,  // measure 43
1002
0000
2000
3003
2001
0000
0002
3003
,  // measure 44
0220
0000
0000
0000
0330
0000
1000
0100
,  // measure 45
1000
0001
0100
0001
0010
0100
1000
0100
1000
0010
0100
0001
0010
0100
0010
0001
,  // measure 46
1000
0010
1000
0100
1000
0010
0100
0001
0010
0001
0100
0010
1000
0001
0100
0001
,  // measure 47
2000
3200
0302
0203
,  // measure 48
2300
0000
3000
0010
0001
0000
0100
0010
,  // measure 49
1000
0001
0100
0001
0010
0001
0100
0010
1000
0100
1000
0010
0100
0001
0010
0100
,  // measure 50
0010
0001
1000
0001
0100
0001
0010
0100
1000
0001
0100
0001
1000
0010
0100
0001
,  // measure 51
2000
3200
0302
0023
,  // measure 52
2030
0001
0010
0001
,  // measure 53
3020
0001
0100
1000
,  // measure 54
0031
0000
0000
0000
1001
0000
0001
1000
0100
0010
1001
0000
1000
0001
0100
0010
,  // measure 55
0110
0000
0000
0000
1010
0000
0000
0000
0110
0000
0000
0000
0001
1000
0001
1000
,  // measure 56
1001
0000
0100
0010
0100
0010
0110
0000
0001
1000
0010
0100
1001
0000
0000
0000
,  // measure 57
0101
0000
0000
0110
0001
0000
0010
0000
,  // measure 58
0010
1000
0010
0001
1001
0000
1000
0010
0001
0010
1001
0000
1000
0001
0100
0001
,  // measure 59
1100
0000
0000
0000
0011
0000
0000
0000
1100
0000
0000
0000
0010
0100
0010
0100
,  // measure 60
1001
0000
1000
0001
1000
0001
0110
0000
1000
0001
0100
0010
0101
0000
0000
0000
,  // measure 61
1010
0000
0000
1100
0000
0000
1010
0000
,  // measure 62
0202
0000
0303
0010
2002
0003
3100
0000
,  // measure 63
2200
0000
0000
3300
,  // measure 64
1010
0100
0001
0100
0001
0000
0001
0000
,  // measure 65
0101
0010
1000
0010
1000
0000
1000
0000
,  // measure 66
0102
0000
0020
0033
2100
0000
0020
3030
,  // measure 67
2001
0020
0000
3030
,  // measure 68
0011
0100
1000
0100
1000
0000
1000
0000
,  // measure 69
1100
0010
0001
0010
0001
0000
0001
0000
,  // measure 70
2010
0000
0200
3300
0012
0000
0200
0303
,  // measure 71
2002
0000
3003
0000
,  // measure 72
1010
0100
0001
0100
1010
0000
0010
0000
,  // measure 73
0101
0010
1000
0010
0101
0000
0100
0000
,  // measure 74
2010
0000
0020
3030
0012
0000
0020
0033
,  // measure 75
0120
0200
0000
0330
,  // measure 76
1001
0100
1000
0100
1001
0000
0001
0000
,  // measure 77
1001
0010
0001
0010
1001
0000
1000
0000
,  // measure 78
2100
0000
0200
3300
0102
0000
0200
0303
,  // measure 79
0220
0000
0000
0000
0330
0000
1000
0100
,  // measure 80
1000
0001
0100
0001
0100
0010
1000
0010
0100
0001
0010
0001
0010
0100
1000
0100
,  // measure 81
0010
0001
0100
0001
1000
0100
0010
0100
1000
0001
0100
0010
1000
0001
0010
0001
,  // measure 82
2000
3020
0032
0023
,  // measure 83
2030
0000
3000
0100
0001
0000
0001
0010
,  // measure 84
0001
0100
0010
0100
0010
1000
0100
0010
0001
0100
0001
0010
0100
1000
0010
0100
,  // measure 85
0010
1000
0001
0100
0001
1000
0010
1000
0100
1000
0001
0100
0001
0100
0010
1000
,  // measure 86
0002
0023
2030
3200
,  // measure 87
0302
1000
0100
1000
,  // measure 88
0203
0000
1000
0000
0010
0000
0001
0300
,  // measure 89
1001
0100
0000
1100
0000
0100
0010
0001
,  // measure 90
0101
0010
0000
1001
0000
0001
1000
0100
,  // measure 91
0110
0000
0000
0011
0000
0000
0100
0000
,  // measure 92
0110
1000
0000
2020
0000
3030
0000
0000
,  // measure 93
1001
0100
0000
1001
0000
0100
0010
1000
,  // measure 94
0110
0001
0000
0110
0000
0001
1000
0100
,  // measure 95
0011
0000
0000
0011
0000
0000
0100
0000
,  // measure 96
1010
0100
0000
2200
0000
3300
0000
0000
,  // measure 97
1001
0100
0010
0001
1000
0001
0100
0001
0010
0100
0010
0001
0100
0010
1000
0100
,  // measure 98
1001
0001
0100
0001
0010
0100
1000
0001
1000
0100
1000
0001
1000
0001
0100
0001
,  // measure 99
0110
1000
0001
0110
0001
0010
0101
0010
,  // measure 100
0101
0010
1000
0101
0010
1000
0100
0001
,  // measure 101
1010
0100
0001
1000
0100
1000
0010
0100
0001
1000
0100
1000
0010
0100
0001
0100
,  // measure 102
1010
0100
0010
1000
0100
0010
0001
0100
0010
0100
0001
1000
0100
0010
0001
0100
,  // measure 103
1010
1000
0001
1010
0100
0001
0011
0100
,  // measure 104
0011
0100
1000
2002
0000
3003
0000
0000
,  // measure 105
1000
0100
0000
0000
1000
0100
0000
0000
0010
0000
0001
0000
0100
0000
0000
0000
,  // measure 106
0001
0100
0000
0000
0001
0100
0000
0000
0010
0000
1000
0000
0100
0000
0000
0000
,  // measure 107
1000
0000
0100
1000
0010
0000
0100
0001
1000
0000
0100
1000
0010
0000
0100
0001
,  // measure 108
1000
0000
0010
1000
0100
0000
0010
0001
1000
0000
0010
1000
0100
0000
0010
0001
,  // measure 109
0100
0000
0001
1000
0100
0000
0010
0001
0100
0000
0001
1000
0100
0000
1000
0100
,  // measure 110
0010
0000
0001
0100
0010
0000
1000
0100
0010
0000
0001
0100
0010
0000
1000
0100
,  // measure 111
2000
0000
0000
3001
2000
0000
0000
3010
,  // measure 112
0001
0100
1000
0000
0100
0000
0010
0000
0002
0000
0000
0000
0003
0000
1000
0000
,  // measure 113
0001
0100
0001
0000
1000
0000
0100
0000
0020
0000
0000
0000
0030
0000
0010
0000
,  // measure 114
0100
1000
0100
0000
0010
0000
0001
0000
0200
0000
0000
0000
0000
0000
0000
0000
,  // measure 115
0000
0000
0000
0000
0000
0000
0300
0000
1000
0100
0010
0100
1000
0100
0010
0100
,  // measure 116
0010
0001
0100
0001
0010
0001
0100
0001
1000
0010
0100
0010
1000
0010
0100
0010
,  // measure 117
1000
0001
0010
0001
1000
0001
0010
0001
1000
0100
0010
0001
1000
0100
0010
0001
,  // measure 118
1000
0010
0100
0001
1000
0010
0100
0001
0001
0010
0100
1000
0001
0010
0100
1000
,  // measure 119
0001
0100
0010
1000
0001
0100
0010
1000
0001
0100
0010
0100
0001
0100
0010
0100
,  // measure 120
0001
0010
0100
0010
0001
0010
0100
0010
0100
1000
0010
1000
0100
1000
0010
1000
,  // measure 121
0001
1000
0010
1000
0001
1000
0010
1000
0010
0100
0010
0100
0010
0100
0010
0100
,  // measure 122
0001
0100
0001
0100
0001
0100
0001
0100
0010
1000
0010
1000
0010
1000
0010
1000
,  // measure 123
0001
0010
0001
0010
0001
0010
0001
0010
0100
1000
0100
1000
0100
1000
0100
1000
,  // measure 124
0001
0010
0001
0010
0001
0010
0001
0010
0001
0100
0000
0000
0001
0100
0000
0000
,  // measure 125
0010
0000
1000
0000
0100
0000
0000
0000
1000
0100
0000
0000
1000
0100
0000
0000
,  // measure 126
0010
0000
0001
0000
0100
0000
0000
0000
0001
0000
0100
0001
0010
0000
0100
1000
,  // measure 127
0001
0000
0100
0001
0010
0000
0100
1000
0001
0000
0010
0001
0100
0000
0010
1000
,  // measure 128
0001
0000
0010
0001
0100
0000
0010
1000
0100
0000
1000
0001
0100
0000
0010
1000
,  // measure 129
0100
0000
1000
0001
0100
0000
0001
0100
0010
0000
1000
0100
0010
0000
0001
0100
,  // measure 130
0010
0000
1000
0100
0010
0000
0001
0100
0002
0000
0000
0000
0000
0000
1003
0000
,  // measure 131
0002
0000
0000
0000
0000
0000
0013
0000
1000
0100
0001
0000
0100
0000
0010
0000
,  // measure 132
2000
0000
0000
0000
3000
0000
0001
0000
1000
0100
1000
0000
0001
0000
0100
0000
,  // measure 133
0020
0000
0000
0000
0030
0000
0010
0000
0100
0001
0100
0000
0010
0000
1000
0000
,  // measure 134
0200
0000
0000
0000
0000
0000
0000
0300
,  // measure 135
1001
0100
0001
0100
1000
0000
1000
0000
,  // measure 136
1001
0100
1000
0100
0001
0000
0001
0000
,  // measure 137
2010
0000
0200
3300
0012
0000
0200
0303
,  // measure 138
2001
0200
0000
3300
,  // measure 139
1001
0010
0001
0010
1000
0000
1000
0000
,  // measure 140
1001
0010
1000
0010
0001
0000
0001
0000
,  // measure 141
0102
0000
0020
0033
2100
0000
0020
3030
,  // measure 142
2002
0000
0000
3003
,  // measure 143
1010
0100
0010
0100
1010
0100
0010
0001
,  // measure 144
0011
0100
0010
0100
0011
1000
0010
1000
,  // measure 145
2010
0000
0200
3300
0012
0000
0200
0303
,  // measure 146
2010
0002
0000
3003
,  // measure 147
1001
0100
0010
0100
1010
0100
0001
0100
,  // measure 148
0101
0010
1000
0010
0110
1000
0001
1000
,  // measure 149
0102
0000
2000
3003
2010
0000
0002
3003
,  // measure 150
2002
0000
0000
0000
3003
0000
1000
0100
,  // measure 151
0010
0001
1000
0001
0100
0001
1000
0001
0010
0100
1000
0001
1000
0100
1000
0001
,  // measure 152
1000
0100
1000
0010
0100
0001
0010
0100
1000
0001
0100
0001
1000
0010
0100
0001
,  // measure 153
2000
3002
0203
0302
,  // measure 154
0023
0000
0030
0100
1000
0000
0001
0100
,  // measure 155
0001
1000
0100
1000
0001
0100
0001
1000
0010
0100
0001
0010
0100
1000
0001
0100
,  // measure 156
0001
0010
0100
1000
0100
0010
0001
0100
0010
1000
0010
0100
0001
1000
0100
1000
,  // measure 157
0002
0203
2300
3200
,  // measure 158
0320
0000
0000
0000
,  // measure 159
0032
0000
0000
0000
0000
0000
1000
1003
,  // measure 160
1001
0000
1000
0100
1100
0000
0001
0100
,  // measure 161
0101
0000
1000
0010
0101
0000
0001
0010
,  // measure 162
1100
1000
1001
0001
,  // measure 163
1001
0000
0000
0010
0100
0000
1000
0001
,  // measure 164
1001
0000
0010
0100
0110
0000
1000
0100
,  // measure 165
0011
0000
0001
0100
1010
0000
1000
0010
,  // measure 166
1001
0001
0110
0100
,  // measure 167
2010
0000
0000
0000
,  // measure 168
3200
0000
0000
0000
0000
0000
0001
0301
,  // measure 169
0101
0100
0001
1000
0100
0010
0001
1000
1001
0001
0100
0010
1000
0100
0010
0001
,  // measure 170
0101
0100
0001
1000
0100
0010
0100
1000
1100
0100
0010
0001
0100
0010
1000
0001
,  // measure 171
1001
0001
0100
0001
1001
1000
0100
1000
1001
0001
0010
0001
1001
1000
0010
1000
,  // measure 172
1001
0001
0100
0010
1000
0001
0101
0001
1001
0100
0010
0100
0010
0100
0010
0100
,  // measure 173
1001
0001
0100
0001
1000
0100
1000
0010
1010
1000
0100
0010
0001
0100
0010
1000
,  // measure 174
1010
0010
0100
0001
0010
0100
1000
0001
1001
1000
0100
1000
0001
0010
0001
0100
,  // measure 175
0110
0010
1000
0010
0110
0100
0001
0100
0110
0010
1000
0100
0110
0010
0001
0100
,  // measure 176
0012
1000
0100
1000
,  // measure 177
0203
0000
1000
0000
0010
0000
0001
0300
,  // measure 178
1010
0100
0000
0110
0000
1000
0100
0010
,  // measure 179
1001
0100
0000
0110
0000
0001
0100
0010
,  // measure 180
1001
0000
0000
1001
0000
0000
0100
0000
,  // measure 181
0110
0001
0000
1002
0000
0000
0000
0003
,  // measure 182
0011
0100
0000
1001
0000
0100
0010
0001
,  // measure 183
0110
1000
0000
0110
0000
0010
1000
0001
,  // measure 184
0110
0000
0000
0110
0000
0000
1000
0000
,  // measure 185
1001
0100
0000
0210
0000
0000
0000
0300
,  // measure 186
1001
0100
0000
0001
0000
0100
0010
1000
,  // measure 187
0011
0101
0000
1000
0000
0100
0001
0100
,  // measure 188
1100
1100
0000
0110
0000
0000
0100
0000
,  // measure 189
0011
0101
0000
2002
0000
0000
0000
3003
,  // measure 190
1010
0100
0000
0001
0000
0100
0010
1000
,  // measure 191
0101
1001
0000
0100
0000
1000
0100
0010
,  // measure 192
0011
0011
0000
1001
0000
0000
1100
0000
,  // measure 193
0110
0000
0000
0210
0000
0000
0301
0000
,  // measure 194
1001
0000
0000
1002
0000
0000
1003
0000
,  // measure 195
1001
0000
0000
0000
;
