#TITLE:Beethoven Beethoven's Last Night;
#SUBTITLE:;
#ARTIST:Trans-Siberian Orchestra;
#TITLETRANSLIT:;
#SUBTITLETRANSLIT:;
#ARTISTTRANSLIT:;
#CREDIT:;
#BANNER:beethoven.png;
#BACKGROUND:beethoven-bg.png;
#LYRICSPATH:;
#CDTITLE:;
#MUSIC:18 Beethoven.ogg;
#OFFSET:-0.060;
#SAMPLESTART:52.408;
#SAMPLELENGTH:12.000;
#SELECTABLE:YES;
#BPMS:0.000=122.000;
#STOPS:;
#BGCHANGES:;
// cache tags:
#FIRSTBEAT:16.000;
#LASTBEAT:336.000;
#SONGFILENAME:Songs/new again/Beethoven/beethoven.sm;
#HASMUSIC:1;
#HASBANNER:1;
#MUSICLENGTH:176.222;
// end cache tags

//---------------dance-single - ----------------
#NOTES:
     dance-single:
     :
     Hard:
     10:
     0.802,1.000,1.000,0.170,1.000,694.000,265.000,30.000,0.000,0.000:  // measure 1
0000
0000
0000
0000
,  // measure 2
0000
0000
0000
0000
,  // measure 3
0000
0000
0000
0000
,  // measure 4
0000
0000
0000
0000
,  // measure 5
1001
0001
0001
0001
0001
0001
1001
1000
1000
1000
1000
1000
,  // measure 6
1001
0001
0001
0001
0001
0001
1001
1000
1000
1000
1000
1000
,  // measure 7
1001
0001
0100
0010
1000
0010
1001
0100
0010
0100
0001
0010
,  // measure 8
1001
1100
0011
0110
1100
0101
0011
0110
1100
0110
0101
1100
,  // measure 9
1001
0000
0000
1000
0100
0010
0001
0010
0100
1000
0010
0100
,  // measure 10
1001
0000
0000
0001
0010
0100
1000
0010
0100
0001
0010
0100
,  // measure 11
1001
0000
0000
1000
0010
0100
0001
0010
0001
1000
0010
0100
,  // measure 12
1001
1100
0101
0011
1010
0110
1001
1100
0101
0011
1010
0110
,  // measure 13
1001
0000
0000
1000
0100
0010
0001
0010
0100
1000
0010
0100
,  // measure 14
1001
0000
0000
1000
0100
0010
0100
1000
0001
0010
0100
1000
,  // measure 15
1001
0000
0000
0001
0010
0100
0010
0001
1000
0100
0010
0001
,  // measure 16
1001
1000
0100
0110
0001
0010
1001
1000
0100
1100
0001
0010
,  // measure 17
1001
1000
0100
0101
0001
0010
1001
1000
0100
0110
0001
0010
,  // measure 18
2002
0000
0000
0000
,  // measure 19
0000
0000
0000
3003
,  // measure 20
2000
0000
0000
0000
0000
0000
0000
3000
0200
0000
0000
0000
0000
0000
0000
0300
,  // measure 21
0020
0000
0000
0000
0000
0000
0000
0030
0002
0000
0000
0000
0000
0000
0000
0003
,  // measure 22
2000
0000
0000
0000
0000
0000
0000
3000
0200
0000
0000
0000
0000
0000
0000
0300
,  // measure 23
0020
0000
0000
0000
0000
0000
0000
0030
0002
0000
0000
0000
0000
0000
0000
0003
,  // measure 24
2000
3200
0320
0032
,  // measure 25
2003
3020
0230
0302
,  // measure 26
2003
0000
0000
3000
0110
0000
0000
0000
0002
0000
0000
0003
0110
0000
0000
0000
,  // measure 27
1100
0010
0100
0011
0100
1000
1001
0010
0100
0011
0010
0100
,  // measure 28
1001
0000
0000
1000
0100
0010
1001
0000
0000
0001
0010
0100
,  // measure 29
1001
0000
0000
1000
0100
0010
1001
0010
0100
1001
0100
0010
,  // measure 30
1001
0000
0000
1000
0010
0100
1001
0000
0000
0001
0100
0010
,  // measure 31
1001
0000
0000
1000
0100
0010
1001
0010
0100
1100
0100
0010
,  // measure 32
0011
0001
0010
0110
0100
0010
2001
0000
0000
0002
0000
0000
,  // measure 33
0000
0000
0000
0000
3003
0000
0000
0000
1000
0100
0010
0001
1000
0100
0010
0001
,  // measure 34
1000
0100
0010
0001
1000
0100
0010
0001
2000
0000
0000
0000
0002
0000
0000
0000
,  // measure 35
0000
0000
0000
0000
3003
0000
0000
0000
0001
0010
0100
1000
0001
0010
0100
1000
,  // measure 36
0001
0010
0100
1000
0001
0010
0100
1000
0001
0000
0110
0000
1000
0000
0110
0000
,  // measure 37
0001
0011
0100
1100
0101
0000
0000
0000
,  // measure 38
1100
0000
0000
0000
0001
0110
1000
0110
,  // measure 39
0001
0011
0100
1100
0101
0000
0000
0000
,  // measure 40
1001
0000
0001
0010
0100
1000
0001
0000
1000
0000
0110
0000
0001
0000
1001
0000
,  // measure 41
1000
0110
0001
0011
1100
0000
0110
0000
,  // measure 42
0011
0110
1100
0101
,  // measure 43
0110
0000
1001
0000
2001
0010
0001
0010
,  // measure 44
0001
0010
3001
0010
1002
0100
1000
0100
,  // measure 45
1000
0000
0000
0000
0000
0000
0100
0000
0000
0000
0000
0000
1000
0000
0000
0000
0000
0000
0103
0000
0000
0000
0000
0000
1001
0000
0000
0000
0000
0000
0001
0000
0000
0010
0000
0000
0100
0000
0000
0000
1000
0000
0000
0000
0010
0000
0000
0000
,  // measure 46
0100
0000
0000
0000
0001
0000
0000
0000
0010
0000
0000
0000
0100
0000
0000
0000
1000
0000
0000
0000
0010
0000
0000
0000
1001
0000
0000
0000
0000
0000
0001
0000
0000
0010
0000
0000
0100
0000
0000
0000
1000
0000
0000
0000
0010
0000
0000
0000
,  // measure 47
0100
0000
0000
0000
0001
0000
0000
0000
0010
0000
0000
0000
0001
0000
0000
0000
1000
0000
0000
0000
0100
0000
0000
0000
1001
0000
0000
0000
0000
0000
1000
0000
0000
0100
0000
0000
0110
0000
0000
0000
0011
0000
0000
0000
0110
0000
0000
0000
,  // measure 48
1100
0110
1001
0110
1100
0011
1001
1100
0110
0011
0101
1010
,  // measure 49
1001
0110
1001
0110
1001
0110
1001
1000
0100
0110
0001
0010
,  // measure 50
1001
1000
0001
1001
0010
0100
1001
1100
0011
0110
1100
0011
,  // measure 51
1001
1000
0100
0010
0001
0010
1001
0100
1000
0010
0100
0001
,  // measure 52
1001
0100
0010
0001
1000
0100
1001
0010
0100
1000
0001
0010
,  // measure 53
1001
0100
0010
1001
0010
0100
1001
0100
0010
0001
0010
0100
,  // measure 54
1001
0100
0010
1001
0010
0100
1001
0001
0010
0100
1000
0010
,  // measure 55
1001
0010
0100
1000
0010
0100
1001
0010
0100
1000
0001
0010
,  // measure 56
1001
1000
0100
0010
0100
1000
1001
0010
0100
1000
0001
0010
,  // measure 57
1001
1100
0011
0110
1001
1100
1001
0100
0010
1001
1000
0100
,  // measure 58
1001
0001
0010
1001
0100
0010
1001
0001
1000
1001
1000
0001
,  // measure 59
1001
0100
0010
1100
1001
0110
0101
0010
0100
0110
1000
0001
,  // measure 60
0110
0001
0010
0110
0101
1010
0110
0100
0001
0110
0010
1000
,  // measure 61
0110
1000
0100
1010
0001
0010
0011
0010
0100
1001
0100
0010
,  // measure 62
0101
0010
0100
1010
0100
0010
0011
0001
0001
0001
0001
0001
,  // measure 63
0001
0001
0001
0001
0001
0001
0001
0001
0001
0001
0001
0001
,  // measure 64
0001
0001
0001
0001
0001
0001
1001
0100
0010
0011
0010
0100
,  // measure 65
1010
0100
0010
1001
0010
0100
1001
0000
0000
0000
0000
0000
,  // measure 66
0000
0000
0000
0000
0000
0000
1010
0100
0010
0011
0001
0010
,  // measure 67
1010
0100
0010
1001
0010
0100
1001
0000
0000
0000
0000
0000
,  // measure 68
2200
0000
0000
0000
0000
0000
0000
0000
0000
0000
0000
0000
0000
0000
0000
0000
0000
0000
0000
0000
0000
3300
0000
0000
0011
0000
0000
0000
0001
0000
0000
0000
0010
0000
0000
0000
1100
0000
0000
0000
0100
0000
0000
0000
0010
0000
0000
0000
,  // measure 69
1001
0001
0010
0011
1000
0100
1100
0001
0010
0011
1000
0100
,  // measure 70
0110
0001
0010
1001
1000
0100
0110
0001
0010
1001
1000
0100
,  // measure 71
0110
0001
0010
1001
0001
0010
1001
1001
1001
1001
1001
1001
,  // measure 72
1001
1001
1001
1001
1001
1001
1001
0000
0000
1000
0100
0010
,  // measure 73
1001
0000
0000
0100
1000
0010
1001
0000
0000
0010
0100
0001
,  // measure 74
1001
1100
0101
0011
1010
0110
1001
0000
0000
1000
0100
0010
,  // measure 75
1001
0000
0000
0001
0010
0100
1001
0000
0000
1000
0010
0100
,  // measure 76
0011
0110
1100
0110
0011
1010
0110
0011
0110
1100
0110
0011
,  // measure 77
1001
1100
0011
0110
1100
0101
0011
1010
0110
0011
1010
0110
,  // measure 78
1001
0011
0110
1100
0110
0011
1001
1100
0110
0011
0110
1001
,  // measure 79
0011
0011
0011
1100
1100
1100
1010
1010
1010
0101
0101
0101
,  // measure 80
2002
0000
0000
0000
,  // measure 81
0000
0000
0000
0000
,  // measure 82
0000
0000
0000
0000
,  // measure 83
0000
0000
0000
0000
,  // measure 84
0000
0000
0000
0000
,  // measure 85
3003
0000
0000
0000
;
