#TITLE:GENOM SCREAMS;
#SUBTITLE:(VIRUS MIX);
#ARTIST:DM Ashura vs. L.E.D. Light;
#TITLETRANSLIT:;
#SUBTITLETRANSLIT:;
#ARTISTTRANSLIT:;
#CREDIT:;
#BANNER:Genom Screams (Virus Mix).png;
#BACKGROUND:Genom Screams (Virus Mix)-bg.png;
#LYRICSPATH:;
#CDTITLE:;
#MUSIC:Genom Screams (Virus Mix).mp3;
#OFFSET:-0.020;
#SAMPLESTART:40.000;
#SAMPLELENGTH:12.000;
#SELECTABLE:YES;
#BPMS:0.000=150.000;
#STOPS:;
#BGCHANGES:8.000=virus1.avi=1.200=1=0=1,
16.000=paranoia_01.avi=1.000=0=1=1,
24.000=paranoia_02.avi=1.000=0=0=1,
32.000=virus1.avi=1.200=0=0=1,
40.000=Grid.avi=1.000=0=0=1,
48.000=Tunnel14.avi=1.000=0=0=1,
56.000=virus1r.avi=1.000=0=0=1,
64.000=symbols2.avi=1.400=0=0=1,
80.000=symbols3.avi=1.200=0=0=1,
88.000=paranoia_02.avi=1.200=0=1=1,
96.000=paranoia_00.avi=1.600=0=1=1,
104.000=timer1.avi=1.000=0=0=1,
112.000=Grid.avi=1.000=0=0=1,
120.000=virus1.avi=1.000=0=0=1,
128.000=thunder1a.avi=1.600=0=0=1,
132.000=thunder2.avi=1.200=0=0=1,
136.000=thunder1a.avi=1.600=0=0=1,
140.000=thunder2.avi=1.200=0=1=1,
144.000=thunder1a.avi=1.600=0=1=1,
148.000=thunder2.avi=1.200=0=1=1,
152.000=thunder1a.avi=1.600=0=1=1,
156.000=thunder2.avi=1.200=0=1=1,
160.000=thunder1a.avi=1.600=0=1=1,
164.000=thunder2.avi=1.200=0=1=1,
168.000=thunder1a.avi=1.600=0=1=1,
172.000=thunder2.avi=1.200=0=1=1,
176.000=paranoia_02.avi=1.200=0=1=1,
180.000=paranoia_01.avi=1.200=0=1=1,
184.000=paranoia_02.avi=1.200=0=0=1,
186.000=paranoia_01.avi=1.200=0=0=1,
188.000=paranoia_02.avi=1.200=0=0=1,
189.000=paranoia_01.avi=1.200=0=0=1,
190.000=paranoia_02.avi=1.200=0=0=1,
191.000=paranoia_01.avi=1.200=0=0=1,
192.000=virus1.avi=1.400=0=0=1,
208.000=virus1r.avi=1.400=0=0=1,
224.000=symbols2.avi=1.200=0=1=1,
240.000=symbols3.avi=1.400=0=1=1,
256.000=thunder1a.avi=1.600=0=1=1,
260.000=thunder2.avi=1.200=0=1=1,
264.000=thunder1a.avi=1.600=0=1=1,
268.000=thunder2.avi=1.200=0=1=1,
272.000=thunder1a.avi=1.600=0=1=1,
276.000=thunder2.avi=1.200=0=1=1,
280.000=thunder1a.avi=1.600=0=1=1,
284.000=thunder2.avi=1.200=0=1=1,
288.000=thunder1a.avi=1.600=0=1=1,
292.000=thunder2.avi=1.200=0=1=1,
296.000=thunder1a.avi=1.600=0=1=1,
300.000=thunder2.avi=1.200=0=1=1,
304.000=paranoia_00.avi=1.400=0=1=1,
308.000=paranoia_01.avi=1.400=0=1=1,
312.000=paranoia_02.avi=1.600=0=1=1,
314.000=paranoia_01.avi=1.600=0=0=1,
316.000=paranoia_02.avi=1.600=0=0=1,
317.000=paranoia_01.avi=1.600=0=0=1,
318.000=paranoia_02.avi=1.600=0=0=1,
319.000=paranoia_01.avi=1.600=0=0=1,
320.000=virus1.avi=1.400=0=1=1,
336.000=virus1r.avi=1.400=0=0=1,
352.000=symbols2.avi=1.400=0=1=1,
368.000=symbols3.avi=1.400=0=1=1,
384.000=Grid.avi=1.200=0=1=1,
400.000=Tunnel14.avi=1.400=0=1=1,
416.000=paranoia_00.avi=1.600=0=1=1,
432.000=virus1.avi=1.400=0=1=1,
440.000=Genom Screams (Virus Mix)-bg.png=1.000=1=0=1,
448.000=thunder1a.avi=1.600=1=0=1,
460.000=thunder2.avi=1.200=0=1=1,
464.000=thunder1a.avi=1.600=0=1=1,
476.000=thunder2.avi=1.200=0=1=1,
496.000=thunder1a.avi=1.600=0=1=1,
508.000=thunder2.avi=1.200=0=1=1,
512.000=Grid.avi=1.200=0=1=1,
528.000=timer1.avi=1.400=0=1=1,
544.000=virus1.avi=1.400=0=1=1,
560.000=virus1r.avi=1.400=0=0=1,
576.000=thunder1a.avi=1.600=0=1=1,
588.000=thunder2.avi=1.200=0=1=1,
592.000=thunder1a.avi=1.600=0=1=1,
604.000=thunder2.avi=1.200=0=1=1,
608.000=thunder1a.avi=1.600=0=1=1,
620.000=paranoia_01.avi=1.400=0=1=1,
624.000=paranoia_00.avi=1.600=0=1=1,
640.000=paranoia_02.avi=1.400=0=1=1,
656.000=paranoia_01.avi=1.600=0=1=1,
672.000=paranoia_00.avi=1.600=0=1=1,
688.000=symbols2.avi=1.400=0=1=1,
690.000=symbols3.avi=1.400=0=1=1,
692.000=virus1.avi=1.400=0=1=1,
694.000=Tunnel14.avi=1.000=0=1=1,
696.000=paranoia_01.avi=1.400=0=0=1,
698.000=paranoia_02.avi=1.400=0=0=1,
700.000=symbols2.avi=1.400=0=0=1,
702.000=virus1.avi=1.400=0=0=1,
708.000=Genom Screams (Virus Mix)-bg.png=1.000=1=0=1,
99999=-nosongbg-=1.000=0=0=0 // don't automatically add -songbackground-
;
// cache tags:
#FIRSTBEAT:16.000;
#LASTBEAT:711.000;
#SONGFILENAME:Songs/new/Genom Screams (Virus Mix)/Genom Screams (Virus Mix).sm;
#HASMUSIC:1;
#HASBANNER:1;
#MUSICLENGTH:288.052;
// end cache tags

//---------------dance-single - BEGINNER----------------
#NOTES:
     dance-single:
     BEGINNER:
     Beginner:
     3:
     0.191,0.432,0.097,0.076,0.000,336.000,28.000,22.000,0.000,0.000:
0000
0000
0000
0000
,
0000
0000
0000
0000
,
0000
0000
0000
0000
,
0000
0000
0000
0000
,
1000
0000
1000
0000
,
0100
0000
0100
0000
,
0010
0000
0010
0000
,
1000
0000
1000
0000
,
0100
0000
0100
0000
,
1000
0000
1000
0000
,
0010
0000
0010
0000
,
0100
0000
0100
0000
,
0001
0000
0001
0000
,
0010
0000
0010
0000
,
0100
0000
0100
0000
,
1000
0000
1000
0000
,
0100
0000
1000
0000
,
0010
0000
0001
0000
,
0100
0000
1000
0000
,
0001
0000
0100
0000
,
0010
0000
0001
0000
,
0100
0000
0010
0000
,
1000
0000
0100
0000
,
0001
0000
1000
0000
,
0010
0000
0001
0000
,
0100
0000
0010
0000
,
1000
0000
0010
0000
,
0100
0000
1000
0000
,
0010
0000
1000
0000
,
0100
0000
0010
0000
,
0001
0000
1000
0000
,
0010
0000
0001
0000
,
0100
0000
0100
0000
,
1000
0000
1000
0000
,
0100
0000
0100
0000
,
0010
0000
0010
0000
,
0100
0000
0010
0000
,
0001
0000
1000
0000
,
0010
0000
1000
0000
,
0100
0000
0001
0000
,
1000
0000
0010
0000
,
0100
0000
1000
0000
,
0010
0000
1000
0000
,
0100
0000
0010
0000
,
0001
0000
1000
0000
,
0110
0000
1000
0000
,
0110
0000
1001
0000
,
1001
1001
1001
1001
,
1001
0000
0010
0000
,
0100
0000
1000
0000
,
0010
0000
0001
0000
,
0100
0000
1000
0000
,
0001
0000
0100
0000
,
0010
0000
1000
0000
,
0100
0000
0010
0000
,
0001
0000
1000
0000
,
0010
0000
0001
0000
,
0100
0000
0010
0000
,
1000
0000
0010
0000
,
0100
0000
1000
0000
,
0010
0000
1000
0000
,
0100
0000
0010
0000
,
0001
0000
0100
0000
,
0010
0000
0001
0000
,
1001
1000
1000
0000
,
0100
0100
0100
0000
,
0001
0001
0001
0000
,
0010
0010
0010
0000
,
0100
0100
0100
0000
,
1000
1000
1000
0000
,
0100
0100
0100
0000
,
0010
0010
0010
0000
,
0100
0100
0100
0000
,
0001
0001
0001
0000
,
0010
0010
0010
0000
,
0100
0100
0100
0000
,
0110
0000
0010
0000
,
1001
0000
0001
0000
,
0110
0000
0110
0000
,
1001
1001
1001
1001
,
2002
0000
0000
3003
,
0002
0000
0000
0003
,
0020
0000
0000
0030
,
0200
0000
0000
0300
,
2000
0000
0000
3000
,
0200
0000
0000
0300
,
0020
0000
0000
0030
,
0200
0000
0000
0300
,
2002
0000
0000
3003
,
0020
0000
0000
0030
,
0200
0000
0000
0300
,
0020
0000
0000
0030
,
0200
0000
0000
0300
,
2000
0000
0000
3000
,
0200
0000
0000
0300
,
0020
0000
0000
0030
,
0100
0000
0000
0000
,
0001
0000
0000
0000
,
0100
0000
0000
0000
,
0010
0000
0000
0000
,
0100
0000
0010
0000
,
1000
0000
0010
0000
,
0100
0000
1000
0000
,
0010
0000
0001
0000
,
0100
0000
1000
0000
,
0001
0000
1000
0000
,
0010
0000
0001
0000
,
0100
0000
1000
0000
,
0010
0000
0001
0000
,
0100
0000
0010
0000
,
2002
0000
0000
0000
,
0000
0000
0000
3003
,
0010
0000
0001
0000
,
0100
0000
0010
0000
,
0001
0000
1000
0000
,
0010
0000
0001
0000
,
0100
0000
0010
0000
,
1000
0000
0010
0000
,
0100
0000
1000
0000
,
0010
0000
0001
0000
,
0100
0000
0010
0000
,
0001
0000
0100
0000
,
0010
0000
0001
0000
,
0100
0000
1000
0000
,
0010
0000
0001
0000
,
1001
0000
0100
0000
,
0110
0000
1001
0000
,
0110
0110
0110
0110
,
0100
0000
1000
0000
,
0001
0000
1000
0000
,
0010
0000
0001
0000
,
0100
0000
0010
0000
,
1000
0000
0010
0000
,
0100
0000
1000
0000
,
0010
0000
0100
0000
,
0001
0000
0010
0000
,
0100
0000
1000
0000
,
0010
0000
0001
0000
,
1000
0000
0010
0000
,
0100
0000
1000
0000
,
0010
0000
0100
0000
,
0001
0000
0010
0000
,
0100
0000
1000
0000
,
0010
0000
0001
0000
,
0100
0000
0100
0000
,
1000
0000
1000
0000
,
0100
0000
0100
0000
,
0010
0000
0010
0000
,
0100
0100
0100
0000
,
0001
0001
0001
0000
,
0010
0010
0010
0000
,
0100
0100
0100
0000
,
0010
0000
0010
0000
,
0100
0000
0100
0000
,
0001
0000
0001
0000
,
0010
0000
0010
0000
,
0100
0000
0010
0000
,
1000
0000
0010
0000
,
0100
0000
1000
0000
,
0010
0000
0001
0000
,
0100
0000
0010
0000
,
1000
0000
0100
0000
,
0001
0000
0100
0000
,
0010
0000
0001
0000
,
0100
0000
0010
0000
,
1000
0000
0100
0000
,
0001
0000
1000
0000
,
0010
0000
0001
0000
,
0100
0000
0000
0000
,
0100
0000
0000
0000
,
1000
0000
0000
0000
,
0010
0000
0000
0000
,
0100
0000
0000
0000
,
0001
0000
0000
0000
,
0010
0000
0000
0000
,
0100
0000
0000
0000
,
2002
0000
0000
0000
,
0000
0000
0000
3003
;

//---------------dance-single - WHAT THE F#$%?!!!----------------
#NOTES:
     dance-single:
     WHAT THE F#$%?!!!:
     Challenge:
     13:
     1.000,1.000,0.517,0.021,1.000,2151.000,149.000,6.000,0.000,0.000:
0000
0000
0000
0000
,
0000
0000
0000
0000
,
0000
0000
0000
0000
,
0000
0000
0000
0000
,
1100
0000
1000
0001
0000
0010
0100
1000
0100
0010
0100
0001
0010
0100
0010
0001
,
0101
0000
1000
0100
0000
0010
0100
0001
0010
0100
1000
0100
0010
0001
0010
0100
,
1100
0000
0010
1000
0000
0100
0010
0001
1000
0100
0010
0100
0001
0010
0100
0001
,
1001
0000
0010
0100
0000
1000
0100
0010
0100
0001
0010
0100
1000
0100
0010
0100
,
0101
0000
1000
0010
0000
0100
0010
0001
0100
0010
1000
0100
0010
0100
0001
0010
,
0110
0000
1000
0001
0000
0010
0100
0001
0010
0100
0010
1000
0100
0010
0001
0100
,
0101
0000
1000
0010
0000
1000
0100
0010
0100
0001
0010
0100
0010
1000
0100
0010
,
1010
0000
0001
0100
0000
1000
0100
0010
0100
0001
0010
0100
1000
0100
0010
0001
,
0011
0000
1000
0010
0000
0100
0001
0010
0100
0010
0100
1000
0100
0010
0100
0001
,
1001
0000
0010
0001
0000
1000
0100
0010
0100
0001
0010
0100
0010
0001
0100
0010
,
0011
0000
0100
1000
0000
0010
0001
0100
0010
0100
1000
0100
0010
0100
0001
0010
,
0110
0000
1000
0001
0000
1000
0100
0010
0100
0001
0010
0100
0010
0001
0100
0010
,
1000
0100
0010
0001
1000
0100
0010
0100
0010
0001
0010
0100
1000
0100
0010
0100
,
0001
0010
0100
0010
0100
0001
0010
0100
0010
0100
0010
0100
1000
0100
0010
0100
,
0010
0001
0100
0010
0001
0100
0010
0100
1000
0100
0010
0100
0001
0010
0100
0010
,
0001
0100
0010
0100
1000
0100
0010
0100
0010
0001
0010
0100
0010
0001
0100
0010
,
1010
0000
0100
0001
0000
1000
0100
0010
0100
0001
0010
0100
0010
0001
0010
0100
,
1100
0000
0010
0100
0000
0001
0010
0100
1000
0100
0010
0100
0001
0010
0100
0010
,
0011
0000
1000
0010
0000
1000
0100
0010
0100
0001
0010
0100
0010
0001
0010
0100
,
0101
0000
1000
0010
0000
1000
0100
0010
0100
0001
0010
0100
0010
0001
0010
0100
,
1100
0000
1000
0001
0000
0010
0100
0001
0010
0100
0010
0001
0100
0010
0001
0100
,
0101
0000
0010
1000
0000
0100
0010
0100
0010
0001
0010
0100
0010
0001
0010
0100
,
0101
0000
1000
0010
0000
0100
0010
0100
0001
0010
0100
1000
0100
0010
0100
0001
,
1001
0000
0010
0100
0000
1000
0100
0010
0100
0001
0010
0100
0010
0001
0010
0100
,
1100
0000
0010
0100
0000
1000
0100
0010
0100
0001
0010
0100
0010
0001
0100
0010
,
1010
0000
1000
0001
0000
0100
0010
0001
0100
0010
0001
0010
0100
1000
0100
0010
,
0011
0000
1000
0100
0000
0010
0100
0001
0010
0100
1000
0100
0010
0100
0001
0010
,
1010
0000
0100
0010
0000
0001
0010
0100
0010
0001
0010
0100
0010
0001
0010
0100
,
1100
0000
0010
1000
0000
0010
0100
0000
0001
0000
0010
0100
0000
1001
0000
0001
,
1000
0000
0010
0100
0000
0001
0010
0000
0100
0000
0010
1000
0000
1001
0000
1000
,
0100
0000
0010
0100
0000
0001
0010
0000
0100
0000
1000
0010
0000
1010
0000
0001
,
0100
0000
1000
0010
0000
0010
0100
0000
0001
0000
0010
0100
0000
1001
0001
0000
,
0010
0000
0100
1000
0000
0010
0100
0000
0001
0000
0010
0100
0000
1000
0100
0000
,
0010
0000
0001
0100
0000
0010
1000
0000
0001
0000
0100
0010
0000
1001
0001
0000
,
0010
0000
0100
1000
0000
0001
0100
0000
0010
0000
0100
1000
0000
0110
0100
0000
,
1000
0000
0100
0010
0000
1000
0100
0000
0010
0000
0001
0100
0000
0010
0001
0000
,
1000
0100
0010
0100
0010
0000
1001
0000
0100
0010
0001
0100
0010
0000
1100
0000
,
0001
0010
0100
0010
0001
0000
1100
0000
1000
0010
0100
0001
0010
0000
1001
0000
,
0100
0010
0100
0001
0010
0000
0101
0000
1000
0010
0100
0010
0001
0000
1100
0000
,
1000
0010
0100
0001
0010
0000
1100
0000
0010
0100
0001
0010
0100
0000
1010
0000
,
1100
0100
0010
0100
0001
0010
0100
0000
1000
0100
0010
0100
0001
0010
0100
0000
,
1001
0001
0010
0100
0010
1000
0100
0000
1000
0100
0010
0100
0001
0010
0100
0000
,
1001
0001
0100
0001
0100
1000
0100
0000
0011
0010
0100
1000
0100
0010
0001
0000
,
1100
0100
0010
0001
0011
0001
0010
0100
1100
0100
0010
0001
0101
0001
1000
0010
,
1010
0000
0100
0001
0000
0010
1000
0100
0010
0100
0001
0010
0100
0010
0001
0100
,
0110
0000
1000
0001
0000
0010
0100
0010
0001
0010
0100
1000
0100
0010
0100
0001
,
1001
0000
0100
0010
0000
0001
0010
0100
1000
0100
0010
0100
0001
0010
0100
1000
,
1100
0000
0010
0100
0000
0001
0010
0100
0010
0001
0100
0010
0001
0100
0010
0100
,
1100
0000
0010
0100
0000
0001
0010
0100
1000
0100
0010
0100
0001
0010
0100
0001
,
1001
0000
0100
0001
0000
0010
0100
0010
0100
0001
0010
0100
1000
0100
0010
0001
,
0101
0000
0010
1000
0000
0100
0010
0001
0100
0010
0100
0001
0010
0100
0010
1000
,
1001
0000
0100
0010
0000
1000
0100
0010
0100
0001
0010
0100
0010
0001
0100
0010
,
1010
0000
0100
0001
0000
0010
0100
1000
0100
0010
0100
0001
0010
0100
0010
0001
,
1001
0000
0100
0010
0000
0001
0010
0100
1000
0100
0010
0100
0001
0010
0100
0010
,
0011
0000
1000
0100
0000
0010
0100
0001
0010
0100
0010
1000
0100
0010
0100
0001
,
0011
0000
1000
0100
0000
0010
0001
0100
0010
0100
0001
0010
0100
1000
0100
0010
,
1010
0000
0001
0100
0000
0010
1000
0100
0010
0100
0001
0010
0100
0010
0001
0010
,
1010
0000
0100
0001
0000
1000
0100
0010
0100
0001
0010
0100
1000
0100
0010
0100
,
0101
0000
1000
0010
0000
0100
0001
0010
0100
0010
1000
0100
0010
0100
0001
0010
,
1010
0000
0100
0001
0000
0010
0100
0001
0010
0100
1000
0100
0010
0100
0001
1000
,
1001
0000
0010
0100
0000
1000
0010
0000
0100
0000
0001
0010
0000
0100
0010
0000
,
1000
0000
0100
0010
0000
0100
0001
0000
1000
0000
0100
0010
0000
0001
0100
0000
,
1000
0000
0010
0100
0000
0001
0100
0000
0010
0000
1000
0100
0000
0010
0100
0000
,
0001
0000
0010
0100
0000
1000
0010
0000
0100
0000
0001
0010
0000
0100
1000
0000
,
1001
0000
0001
0010
0000
0100
0010
0000
1000
0000
0100
0010
0000
0100
0001
0000
,
0010
0000
0100
1000
0000
0001
0010
0000
1000
0000
0100
0010
0000
1000
0100
0000
,
0010
0000
0001
0100
0000
0010
1000
0000
0100
0000
0010
0100
0000
1000
0001
0000
,
0010
0000
1000
1000
0000
0001
0001
0000
0100
0000
1000
1000
0000
0001
0001
0000
,
0010
1000
0010
0100
0001
0000
1100
0000
0010
0001
0010
0100
0010
0000
1100
0000
,
0100
0010
0001
0010
0100
0000
1001
0000
0010
0100
0001
0010
0100
0000
1010
0000
,
1000
0100
0010
0100
0001
0000
1100
0000
0010
0100
0010
0001
0100
0000
1010
0000
,
1000
0100
0010
0100
0001
0000
1010
0000
0001
0010
0100
0010
0001
0000
1100
0000
,
1001
0001
0010
0100
0001
0000
1100
0000
0010
0001
0010
0100
1000
0000
1010
0000
,
0101
0100
0010
0001
0100
0000
1010
0000
0100
0010
0001
0010
0100
0000
1001
0000
,
1100
1000
0100
0010
0100
0000
1010
0000
1001
0001
0010
0100
1000
0000
1010
0000
,
0101
0001
0010
0100
1100
0100
0010
0001
0101
0001
0010
0100
1100
0100
0010
0001
,
1001
0000
0100
0010
0000
0001
0100
0000
0010
0000
1000
0010
0100
0010
0001
0010
,
0100
0000
1000
0010
0000
0100
0001
0000
0010
0100
0000
0010
1000
0100
0010
0100
,
0001
0000
0010
0100
0000
1000
0100
0000
0010
0000
0001
0010
0100
1000
0100
0010
,
0001
0000
0000
0000
0000
0000
1000
0000
0000
0100
0000
0000
0000
0000
0000
0010
0000
0000
0100
0000
0000
0000
0000
0000
1000
0000
0000
0000
0000
0000
0001
0000
0000
0000
0000
0000
1000
0000
0001
0000
1000
0000
0001
0000
0000
0000
0000
0000
,
0110
0000
1000
0100
0000
0010
0100
0000
1000
0010
0100
0001
1000
0100
0010
0100
,
0001
0000
1000
0010
0000
0100
0001
0000
0010
0100
1000
0100
0010
0100
0001
0010
,
0100
0000
1000
0010
0000
0100
0001
0000
0010
0100
1000
0100
0010
0100
0001
0010
,
0100
0000
0000
0000
0000
0000
1000
0000
0000
0010
0000
0000
0000
0000
0000
0100
0000
0000
0001
0000
0000
0000
0000
0000
0010
0000
0000
0000
0000
0000
0100
0000
0000
0000
0000
0000
1000
0000
0100
0000
1000
0000
0001
0000
0000
0000
0000
0000
,
1000
0100
0010
0001
1000
0100
0010
0001
1000
0100
1000
0100
0010
0001
0010
0001
,
0100
1000
0100
1000
0010
0100
0010
0100
0001
0010
0001
0010
0100
1000
0100
1000
,
0010
0100
0010
0100
0001
0010
0001
0010
0100
1000
0100
1000
0010
0100
0010
0100
,
1000
0000
0000
0100
0000
0000
1000
0000
0000
0100
0000
0000
1000
0000
0000
0100
0000
0000
1000
0000
0000
0100
0000
0000
1000
0000
0000
0000
0000
0000
0001
0000
0000
0000
0000
0000
1000
0000
0010
0000
0100
0000
0010
0000
0000
0000
0000
0000
,
1000
0100
0010
0001
1000
0100
0010
0001
0100
0010
0001
0100
0010
0001
0010
0100
,
1000
0100
0010
0100
0001
0010
0100
1000
0100
0010
0100
0010
0001
0010
0100
1000
,
0100
0010
0100
0001
0010
0100
1000
0100
0010
0100
0010
0100
0001
0010
0001
0010
,
0100
0000
0000
1000
0000
0000
0100
0000
0000
1000
0000
0000
0001
0000
0000
0100
0000
0000
0001
0000
0000
0100
0000
0000
0001
0000
0000
0000
0000
0000
1000
0000
0000
0000
0000
0000
1000
0000
0100
0000
1000
0000
0100
0000
0000
0000
0000
0000
,
1001
0000
0100
0010
0000
1000
0100
0010
0100
0001
0010
0100
0010
0001
0100
0001
,
1001
0000
0010
0100
0000
0001
0010
0100
1000
0100
0010
0100
0001
0010
0100
0001
,
0101
0000
1000
0010
0000
0100
0001
0010
0100
1000
0100
0010
0100
0001
0010
0100
,
1100
0000
0000
0000
0000
0000
1000
0000
0000
0010
0000
0000
0000
0000
0000
0100
0000
0000
0001
0000
0000
0010
0000
0000
0100
0000
0000
1000
0000
0000
0010
0000
0000
0100
0000
0000
0010
0000
0100
0000
0010
0000
0100
0000
0000
0000
0000
0000
,
1001
0000
0100
0010
0000
0001
0010
0100
0010
1000
0100
0010
0001
0100
0010
0001
,
1001
0000
0100
0010
0000
0001
0010
0100
1000
0100
0010
0100
0001
0010
0100
0010
,
1010
0000
0100
0001
0000
0010
0100
1000
0100
0010
0100
0001
0010
0100
0001
1000
,
1001
0000
0000
0000
0000
0000
0100
0000
0000
0010
0000
0000
0000
0000
0000
0001
0000
0000
0010
0000
0000
0100
0000
0000
0010
0000
0000
0001
0000
0000
1000
0000
0000
0100
0000
0000
1000
0000
0100
0000
1000
0000
0100
0000
0000
0000
0000
0000
,
1001
0000
0100
0010
0000
0001
0010
0100
1000
0100
0010
0100
0001
0010
0100
1000
,
1100
0000
0100
0010
0000
0001
0100
0010
0001
0100
1000
0100
0010
0100
0001
0010
,
1010
0000
0100
0001
0000
0010
0100
0001
0010
0100
1000
0100
0010
0001
0010
0100
,
1100
0000
0000
0000
0000
0000
0100
0000
0000
0001
0000
0000
0000
0000
0000
0010
0000
0000
0100
0000
0000
0001
0000
0000
0010
0000
0000
0100
0000
0000
1000
0000
0000
0001
0000
0000
0001
0000
1000
0000
0001
0000
1000
0000
0000
0000
0000
0000
,
0101
0000
0010
1000
0000
0100
0010
0001
0100
0010
0001
0100
1000
0010
0100
0001
,
1001
0000
0010
0100
0000
0001
0010
0100
1000
0100
0010
0100
1000
0000
0000
0000
,
2200
0000
0000
0000
0000
0000
0000
0000
3300
0000
0000
0000
0000
0000
1001
0000
0000
0000
0000
0000
0110
0000
0000
0000
0000
0000
0000
0000
0000
2200
0000
0000
,
0000
0000
0000
0000
0000
0000
0000
0000
0000
0000
0000
0000
0000
0000
0000
0000
0000
0000
0000
0000
0000
0000
0000
0000
0000
0000
0000
0000
0000
0000
0000
0000
0000
0000
0000
0000
0000
0000
0000
0000
0000
0000
0000
0000
0000
0000
0000
0000
0000
0000
0000
0000
0000
0000
0000
0000
0000
0000
0000
0000
0000
0000
0000
0000
0000
0000
0000
0000
0000
0000
0000
0000
0000
0000
0000
0000
0000
0000
0000
0000
0000
0000
0000
0000
0000
0000
0000
0000
0000
0000
0000
0000
0000
0000
0000
0000
0000
0000
0000
0000
0000
0000
0000
0000
0000
0000
0000
0000
0000
0000
0000
0000
0000
0000
0000
0000
0000
0000
0000
0000
0000
0000
0000
0000
0000
0000
3300
0000
0000
0000
0000
0000
0000
0000
0000
0000
0000
0000
0000
0000
0000
0000
0000
0000
0001
0000
0000
0000
0000
0000
0000
0000
0010
0000
0000
0000
0000
0000
0000
0000
0100
0000
0000
0000
0000
0000
0000
0000
1000
0000
0000
0000
0000
0000
0000
0000
0000
0000
0000
0000
0000
0000
0000
0000
0000
0000
0000
0000
0000
0000
0000
0000
,
1001
0000
1000
1000
0000
0001
0001
0000
0100
0000
1000
1000
0000
0001
0001
0000
,
0100
0000
0010
0010
0000
0100
0100
0000
1000
0000
0010
0010
0000
0100
0100
0000
,
0001
0000
0010
0010
0000
0100
0100
0000
1000
0000
0010
0010
0000
1000
1000
0000
,
0100
0000
0000
0000
0000
0000
0010
0000
0000
0001
0000
0000
0000
0000
0000
0010
0000
0000
0100
0000
0000
0000
0000
0000
0010
0000
0000
0000
0000
0000
0001
0000
0000
0000
0000
0000
1000
0000
0001
0000
1000
0000
0010
0000
0000
0000
0000
0000
,
1001
0000
0100
0100
0000
0010
0010
0000
1000
0000
0100
0100
0000
0010
0010
0000
,
1000
0000
0001
0001
0000
0100
0100
0000
0010
0000
1000
1000
0000
0010
0010
0000
,
0100
0000
0001
0001
0000
0010
0010
0000
0100
0000
1000
1000
0000
0010
0010
0000
,
0100
0000
0000
0000
0000
0000
1000
0000
0000
0010
0000
0000
0000
0000
0000
0100
0000
0000
0001
0000
0000
0000
0000
0000
0010
0000
0000
0000
0000
0000
0100
0000
0000
0000
0000
0000
0001
0000
1000
0000
0001
0000
0100
0000
0000
0000
0000
0000
,
1001
0000
0100
0010
0000
1000
0100
0010
0100
0010
0001
0010
0100
1000
0100
0010
,
0011
0000
0100
1000
0000
0100
0010
0001
0010
0100
0010
0001
0010
0100
0010
0001
,
0101
0000
1000
0010
0000
0100
0001
0010
0100
0010
1000
0100
0010
0001
0010
0100
,
1100
0000
0000
0000
0000
0000
1000
0000
0000
0010
0000
0000
0000
0000
0000
0100
0000
0000
0001
0000
0000
0010
0000
0000
0100
0000
0000
1000
0000
0000
0100
0000
0000
0010
0000
0000
0100
0000
0010
0000
0100
0000
0010
0000
0000
0000
0000
0000
,
1100
0000
0100
0010
0000
0001
0100
0000
0010
0000
0100
0001
0000
0010
0100
0000
,
1001
0000
0100
0010
0000
1000
0100
0000
0010
0000
0001
0010
0000
0100
0010
0000
,
1001
0000
0100
0010
0000
0010
0100
0000
1100
0000
0010
0001
0000
0100
0010
0000
,
1100
0000
0000
0100
0000
0000
0010
0000
0000
0001
0000
0000
0011
0000
0000
0001
0000
0000
0010
0000
0000
0100
0000
0000
1100
0000
0000
0100
0000
0000
0010
0000
0000
0001
0000
0000
0001
0000
1000
0000
0100
0000
1000
0000
0000
0000
0000
0000
,
0011
0000
0100
0010
0000
1000
0100
0000
0010
0000
0100
1000
0000
0001
0010
0000
,
0100
0000
1000
0010
0000
0100
0001
0000
0010
0000
0100
1000
0000
0010
0100
0000
,
1000
0000
0010
0100
0000
0001
0010
0000
0100
0000
1000
0010
0000
0100
0001
0000
,
1000
0000
0100
0010
0000
0001
0010
0000
0100
0000
0001
0010
0000
0100
0010
0000
,
1000
0000
0100
0100
0000
0001
0001
0000
0010
0000
1000
1000
0000
0100
0100
0000
,
0010
0000
0001
0001
0000
0010
0010
0000
0100
0000
1000
1000
0000
0100
0100
0000
,
0010
0000
0001
0001
0000
0100
0100
0000
0010
0000
1000
1000
0000
0100
0100
0000
,
0010
0000
0100
0100
0000
0001
0001
0000
0010
0000
0100
0100
0000
0010
0010
0000
,
1001
0001
0010
0001
0010
0001
0010
0001
0010
0001
0010
0001
0010
0001
0010
0001
,
1000
0100
1000
0100
1000
0100
1000
0100
1000
0100
1000
0100
1000
0100
1000
0100
,
0010
0100
0010
0100
0010
0100
0010
0100
0010
0100
0010
0100
0010
0100
0010
0100
,
0001
1000
0001
1000
0001
1000
0001
1000
0001
1000
0001
1000
0001
1000
0001
1000
,
0100
0010
0100
0010
0100
0010
0100
0010
0100
0010
0100
0010
0100
0010
0100
0010
,
0100
1000
0100
1000
0100
1000
0100
1000
0100
1000
0100
1000
0100
1000
0100
1000
,
0010
0100
0010
0100
0010
0100
0010
0100
0010
0100
0010
0100
0010
0100
0010
0100
,
0001
0000
0000
1000
0000
0000
0001
0000
0000
1000
0000
0000
0001
0000
0000
1000
0000
0000
0001
0000
0000
1000
0000
0000
0001
0000
0000
1000
0000
0000
0001
0000
0000
1000
0000
0000
0001
0000
0100
0000
0001
0000
1000
0000
0000
0000
0000
0000
,
1001
0000
0010
0100
0000
0001
0010
0000
1100
0000
0010
0100
0000
0001
0010
0000
,
1001
0000
0010
0100
0000
0001
0010
0000
1100
0000
0010
0100
0000
0001
0010
0000
,
1100
0000
0010
0001
0000
0100
0001
0000
0011
0000
0100
1000
0000
0010
0100
0000
,
0011
0000
0100
1000
0000
0010
0100
0000
0011
0000
1000
0100
0000
0010
0100
0000
,
0011
0000
1000
0100
0000
0010
0100
0000
0011
0000
1000
0010
0000
0100
0001
0000
,
1100
0000
0010
0100
0000
0001
0010
0000
1100
0000
0010
0100
0000
0001
0010
0000
,
1100
0000
0010
0100
0000
0001
0010
0000
1100
0000
0010
0001
0000
0100
0010
0000
,
1100
0000
0001
0010
0000
0100
1000
0000
0110
0000
0001
0010
0000
0100
0010
0000
,
1001
0000
0100
0010
0000
1000
0100
0000
0010
0000
0001
0100
0000
1000
0010
0000
,
0001
0000
0010
0100
0000
0010
1000
0000
0100
0000
0001
0010
0000
0100
1000
0000
,
0001
0000
0100
0010
0000
1000
0100
0000
0010
0000
0001
0100
0000
0010
1000
0000
,
0100
0000
0001
0010
0000
0100
1000
0000
0010
0000
0100
0001
0000
0010
0100
0000
,
1000
0000
0010
0100
0000
0001
0010
0000
0100
0000
1000
0010
0000
0100
0001
0000
,
0010
0000
1000
0100
0000
0010
0100
0000
0001
0000
0010
0100
0000
1000
0010
0000
,
0100
0000
0001
0010
0000
0100
1000
0000
0010
0000
0100
0001
0000
1000
0010
0000
,
0100
0000
0001
0010
0000
0100
0001
0000
0010
0000
0100
0010
0000
1000
0100
0000
,
1001
0000
0100
0010
0000
0001
0010
0000
1000
0000
0100
0010
0000
0001
0100
0000
,
0010
0000
1000
0100
0000
0010
0100
0000
0001
0000
0010
0100
0000
1000
0010
0000
,
0100
0000
0001
0010
0000
0100
1000
0000
0010
0000
0100
0001
0000
0010
0100
0000
,
1000
0000
0010
0100
0000
0001
0010
0000
1000
0000
0100
0010
0000
0100
0001
0000
,
0010
0000
1000
0010
0000
0100
0001
0000
0010
0000
1000
0010
0000
0100
0001
0000
,
0010
0000
1000
0010
0000
0100
0001
0000
0010
0000
1000
0010
0000
0100
0001
0000
,
0010
0000
1000
0100
0000
0010
0001
0000
0100
0000
0010
1000
0000
0100
0010
0000
,
0001
0000
0010
0100
0000
0001
0010
0000
0100
0000
1000
0010
0000
0100
0010
0000
,
1001
0000
0010
0100
0000
0001
0010
0000
1100
0000
0100
0010
0000
0001
0100
0000
,
1010
0000
0100
0001
0000
0010
0100
0000
1010
0000
0001
0100
0000
0010
0100
0000
,
0011
0000
1000
0100
0000
0010
0100
0000
0011
0000
1000
0100
0000
0010
0100
0000
,
0011
0000
1000
0010
0000
0100
0001
0000
1010
0000
0100
0001
0000
0010
0100
0000
,
1000
0100
0010
0100
0010
1000
0100
1000
0100
0010
0100
0010
0001
0010
0100
0010
,
1000
0100
0010
0001
0010
0100
1000
0100
0010
0100
0001
0010
0100
0010
0100
0010
,
1000
0100
0010
0100
0001
0010
0100
0010
0001
0010
0100
0010
0001
0010
0100
0010
,
1000
0000
0000
0100
0000
0000
0010
0000
0000
0001
0000
0000
0100
0000
0000
0010
0000
0000
0001
0000
0000
0010
0000
0000
0100
0000
0000
0010
0000
0000
0001
0000
0000
0010
0000
0000
0001
0000
1000
0000
0001
0000
1000
0000
0001
0000
1000
0000
,
2002
0000
0000
0000
,
0000
0000
0000
3003
;

//---------------dance-single - MANIAC----------------
#NOTES:
     dance-single:
     MANIAC:
     Hard:
     10:
     0.814,0.864,0.212,0.014,0.830,1577.000,61.000,4.000,0.000,0.000:
0000
0000
0000
0000
,
0000
0000
0000
0000
,
0000
0000
0000
0000
,
0000
0000
0000
0000
,
1000
0000
0001
1000
0000
0100
1000
0000
0100
0000
0010
0000
0001
0000
0010
0000
,
0110
0000
1000
0010
0000
1000
0010
0000
0100
0000
0001
0000
0010
0000
0100
0000
,
0101
0000
0010
0100
0000
1000
0010
0000
0100
0000
0001
0000
0010
0000
1000
0000
,
1010
0000
0100
0001
0000
0100
0001
0000
0100
0000
0010
0000
0100
0000
1000
0000
,
1010
0000
0100
0001
0000
0100
0010
0000
1000
0000
0100
0000
0010
0000
0001
0000
,
0011
0000
1000
0100
0000
0010
1000
0000
0100
0000
0001
0000
0010
0000
1000
0000
,
1010
0000
0100
0010
0000
0100
0010
0000
1000
0000
0100
0000
0010
0000
0100
0000
,
0101
0000
0010
0001
0000
0010
0001
0000
0100
0000
0010
0000
0100
0000
1000
0000
,
1001
0000
0100
0010
0000
1000
0100
0000
0010
0000
0001
0000
0010
0000
1000
0000
,
0110
0000
0100
0010
0000
1000
0010
0000
0100
0000
0001
0000
0010
0000
0100
0000
,
0001
0010
0001
0000
0100
0000
0100
0000
0010
0100
0010
0000
1000
0000
0100
0000
,
1000
0010
1000
0000
0100
0010
0100
0000
0001
0100
0001
0000
1000
0100
1000
0000
,
0001
0000
0010
0100
0000
0010
0100
0000
0001
0000
0010
0000
0100
0000
1000
0000
,
0010
0000
0100
0001
0000
0100
0001
0000
0010
0000
0100
0000
1000
0000
0001
0000
,
0010
0000
0001
0100
0000
0001
0100
0000
0010
0000
0100
0000
1000
0000
0100
0000
,
0010
0000
0100
0001
0000
0100
0001
0000
0010
0000
0100
0000
1000
0000
0100
0000
,
1000
0000
0010
0100
0000
0010
0100
0000
0001
0000
0010
0000
0100
0000
1000
0000
,
0010
0000
0100
0001
0000
0100
0001
0000
0010
0000
0001
0000
0100
0000
0010
0000
,
0100
0000
1000
0010
0000
1000
0100
0000
0010
0000
0001
0000
0100
0000
0010
0000
,
1000
0000
0100
0010
0000
1000
0100
0000
0010
0000
0001
0000
0010
0000
0100
0000
,
0101
0000
0010
0100
0000
1000
0100
0000
0010
0000
0001
0000
0010
0000
0100
0000
,
0001
0000
0010
0100
0000
0010
0100
0000
0001
0000
0010
0000
0100
0000
1000
0000
,
0100
0000
0001
0010
0000
0100
0010
0000
1000
0000
0100
0000
0010
0000
0100
0000
,
0001
0000
0010
0100
0000
0001
0010
0000
0100
0000
1000
0000
0100
0000
0010
0000
,
0100
0000
0001
0010
0000
0001
0100
0000
0010
0000
1000
0000
0100
0000
0010
0000
,
0001
0000
0100
0010
0000
1000
0100
0000
0010
0000
0001
0000
0010
0000
0100
0000
,
0001
0000
0010
0100
0000
0001
0100
0000
0010
0000
0100
0000
0001
0000
0010
0000
,
1000
0000
0100
0010
0000
0001
0100
0000
0010
0000
0100
0000
0010
0000
0100
0000
,
1000
0000
0100
0010
0000
0100
0010
0000
0001
0000
0010
0100
0000
0010
0100
0000
,
1000
0000
0001
0010
0000
0001
0010
0000
0100
0000
1000
0100
0000
1000
0100
0000
,
0010
0000
0001
0010
0000
0001
0010
0000
0100
0000
1000
0100
0000
1000
0100
0000
,
0010
0000
0001
1000
0000
0001
1000
0000
0100
0000
1000
0001
0000
1000
0001
0000
,
0010
0000
0100
0001
0000
0100
0001
0000
0010
0000
0100
1000
0000
0100
1000
0000
,
0010
0000
1000
0010
0000
1000
0010
0000
0100
0000
0001
0100
0000
0001
0100
0000
,
0010
0000
1000
0001
0000
1000
0001
0000
0100
0000
0001
1000
0000
0001
1000
0000
,
0100
0000
0010
0001
0000
0010
0001
0000
0100
0000
1000
0100
0000
1000
0100
0000
,
0011
0000
0100
0010
0000
0100
0010
0000
1000
0000
0010
0100
0000
0010
0100
0000
,
0001
0000
1000
0100
0000
1000
0100
0000
0010
0000
0001
0010
0000
0001
0010
0000
,
0100
0000
1000
0001
0000
1000
0001
0000
0010
0000
0001
1000
0000
0001
1000
0000
,
0100
0000
1000
0010
0000
1000
0010
0000
0100
0000
0001
0010
0000
0001
0010
0000
,
1010
0000
0100
0001
0000
0100
0001
0000
0010
0000
1000
0100
0000
1000
0100
0000
,
1100
0000
0010
0001
0000
0010
0001
0000
0100
0000
0010
0100
0000
0010
0100
0000
,
0110
0000
0001
0010
0000
0001
0010
0000
0011
0000
0100
1000
0000
0100
1000
0000
,
1100
0100
0110
0010
0011
0001
1001
1000
,
1100
0000
0100
0010
0000
0001
0010
0000
0100
0000
1000
0000
0100
0000
0010
0000
,
0100
0000
1000
0001
0000
0001
1000
0000
0100
0000
0010
0000
0001
0000
0010
0000
,
0100
0000
0001
0010
0000
0010
0001
0000
0100
0000
1000
0000
0010
0000
0100
0000
,
0001
0000
0010
0100
0000
1000
0100
0000
0010
0000
0100
0000
0001
0000
0010
0000
,
1000
0000
0010
0100
0000
0001
0010
0000
0100
0000
1000
0000
0010
0000
0100
0000
,
0001
0000
0010
0100
0000
0001
0100
0000
0010
0000
0100
0000
1000
0000
0100
0000
,
0010
0000
0100
0001
0000
0100
0001
0000
0010
0000
0100
0000
1000
0000
0010
0000
,
0100
0000
0001
0010
0000
0001
0010
0000
0100
0000
1000
0000
0010
0000
0100
0000
,
0101
0000
0010
0100
0000
0010
0100
0000
1000
0000
0100
0000
0010
0000
0100
0000
,
0001
0000
0010
0100
0000
0010
0100
0000
1000
0000
0100
0000
0010
0000
0001
0000
,
0010
0000
0100
0001
0000
0100
0001
0000
0010
0000
0100
0000
1000
0000
0010
0000
,
0100
0000
0001
1000
0000
0001
1000
0000
0010
0000
0100
0000
0001
0000
0010
0000
,
0100
0000
1000
0010
0000
1000
0100
0000
0010
0000
0001
0000
0010
0000
0100
0000
,
0001
0000
1000
0100
0000
0100
1000
0000
0010
0000
0100
0000
0001
0000
0010
0000
,
0100
0000
0001
0100
0000
0100
0001
0000
0010
0000
1000
0000
0100
0000
0010
0000
,
0100
0000
0001
0010
0000
0010
0001
0000
0100
0000
1000
0000
0010
0000
0100
0000
,
1001
0000
0100
0010
0000
0100
0010
0000
0001
0000
0010
0100
0000
0010
0100
0000
,
1000
0000
0100
0010
0000
0100
0010
0000
0001
0000
1000
0100
0000
1000
0100
0000
,
0010
0000
0001
0010
0000
0001
0010
0000
0100
0000
1000
0100
0000
1000
0100
0000
,
0010
0000
0100
0001
0000
0100
0001
0000
0010
0000
0001
0100
0000
0001
0100
0000
,
0010
0000
1000
0100
0000
1000
0100
0000
0010
0000
0100
0010
0000
0100
0010
0000
,
0001
0000
0010
0100
0000
0010
0100
0000
1000
0000
0100
0010
0000
0100
0010
0000
,
0001
0000
0100
1000
0000
0100
1000
0000
0010
0000
0100
0001
0000
0100
0001
0000
,
0010
0000
1000
0010
0000
1000
0010
0000
0100
0000
0001
0100
0000
0001
0100
0000
,
0110
0000
1000
0001
0000
1000
0001
0000
0010
0000
0001
1000
0000
0001
1000
0000
,
0100
0000
1000
0100
0000
1000
0100
0000
0010
0000
0001
0010
0000
0001
0010
0000
,
0100
0000
0010
0100
0000
0010
0100
0000
1000
0000
0100
0010
0000
0100
0010
0000
,
0001
0000
0100
0010
0000
0100
0010
0000
1000
0000
0010
0100
0000
0010
0100
0000
,
1001
0000
0100
0010
0000
0100
0010
0000
0001
0000
0010
0100
0000
0010
0100
0000
,
0110
0000
1000
0100
0000
1000
0100
0000
0010
0000
0001
0010
0000
0001
0010
0000
,
0011
0000
0100
1000
0000
0100
1000
0000
1100
0000
0010
0001
0000
0010
0001
0000
,
0011
0001
0101
0100
0110
0010
1010
1000
,
1001
0100
0010
0001
,
0010
0100
1000
0100
,
0010
0100
0001
0010
,
0100
0010
0001
0010
,
0100
1000
0100
0010
,
0001
0010
0100
0001
,
0010
0100
1000
0100
,
0010
0100
0001
0010
,
1001
1000
0100
0010
0001
0010
0100
1000
,
0100
0010
0100
0001
0010
0100
1000
0100
,
0010
0100
0001
0010
0100
0010
0001
0010
,
0100
1000
0100
0010
0100
0010
0001
0010
,
1000
0100
0010
0100
0001
0010
0100
1000
,
0100
0010
0001
0010
0100
1000
0100
0010
,
0100
0001
0010
0100
1000
0100
0010
0100
,
0001
0010
0100
1000
0100
0010
0001
0100
,
1001
0000
1000
0100
0000
1000
0100
0000
0010
0000
0001
0000
0010
0000
0100
0000
,
1000
0000
0010
0100
0000
0010
0100
0000
0001
0000
0010
0000
0100
0000
1000
0000
,
0100
0000
0010
1000
0000
0010
1000
0000
0100
0000
0001
0000
0010
0000
0100
0000
,
1000
0000
0010
0100
0000
0010
0100
0000
0001
0000
0010
0000
0100
0000
1000
0000
,
0010
0000
0100
0001
0000
0100
0001
0000
0010
0000
0100
0000
0001
0000
0100
0000
,
0010
0000
1000
0100
0000
0010
0100
0000
0001
0000
0010
0000
0100
0000
1000
0000
,
0010
0000
0100
0010
0000
0100
0010
0000
0001
0000
0010
0000
0100
0000
0001
0000
,
0010
0000
0100
1000
0000
0100
1000
0000
1000
0000
0100
0000
0010
0000
0001
0000
,
0100
0010
1001
0010
0100
0010
1001
0100
,
0010
0100
1001
0100
0010
0100
1001
0100
,
0010
0100
1001
0010
0100
0001
0110
0001
,
0010
0100
1100
0010
0100
0001
0011
0100
,
1000
0010
0101
0010
1000
0100
0011
0100
,
0010
0100
1100
0010
0100
0001
0110
0000
,
2002
0000
0000
0000
,
0000
0000
0000
3003
,
1000
0000
0100
0010
0000
0100
0010
0000
0001
0000
0010
0100
0000
0010
0100
0000
,
1000
0000
0001
0010
0000
0001
0010
0000
0100
0000
1000
0100
0000
1000
0100
0000
,
0010
0000
0100
0010
0000
0100
0010
0000
0001
0000
1000
0100
0000
1000
0100
0000
,
0010
0000
0001
0010
0000
0001
0010
0000
0100
0000
0010
0000
1000
0100
1000
0000
,
0100
0000
0010
0001
0000
0010
0001
0000
0100
0000
0010
0100
0000
0010
0100
0000
,
1000
0000
0100
0010
0000
0100
0010
0000
0100
0000
0010
0001
0000
0010
0001
0000
,
0100
0000
1000
0010
0000
1000
0010
0000
0100
0000
0001
0010
0000
0001
0010
0000
,
0100
0000
1000
0010
0000
1000
0010
0000
0100
0000
0001
0000
0010
0100
0010
0000
,
0100
0000
0001
0010
0000
0001
0010
0000
0100
0000
1000
0010
0000
1000
0010
0000
,
0100
0000
0010
1000
0000
0010
1000
0000
0100
0000
0010
0001
0000
0010
0001
0000
,
0100
0000
0010
1000
0000
0010
1000
0000
0100
0000
0010
0100
0000
0010
0100
0000
,
0010
0000
0100
0010
0000
0100
0010
0000
0001
0000
0010
0000
0100
0001
0100
0000
,
0011
0000
0100
0010
0000
0100
0010
0000
1000
0000
0100
0010
0000
0100
0010
0000
,
0110
0000
0001
0010
0000
0001
0010
0000
0001
0000
0010
0001
0000
0010
0001
0000
,
0011
0000
0100
1000
0000
0100
1000
0000
1100
0000
1000
0100
0000
1000
0100
0000
,
1100
0100
0110
0010
0011
0001
1001
1000
,
1100
0000
0100
0010
0000
0100
0010
0000
0001
0000
0010
0100
0000
0010
0100
0000
,
1000
0000
0100
0001
0000
0100
0001
0000
0010
0000
0100
1000
0000
0100
1000
0000
,
0010
0000
0100
0001
0000
0100
0001
0000
0010
0000
1000
0100
0000
1000
0100
0000
,
0010
0000
0001
0010
0000
0001
0010
0000
0100
0000
1000
0000
0100
0010
0100
0000
,
1000
0000
0001
0010
0000
0001
0010
0000
0100
0000
1000
0010
0000
1000
0010
0000
,
0100
0000
0001
0010
0000
0001
0010
0000
0100
0000
1000
0010
0000
1000
0010
0000
,
0100
0000
0010
0100
0000
0010
0100
0000
0010
0000
0100
0010
0000
0100
0010
0000
,
0001
0000
0010
0001
0000
0010
0001
0000
0100
0000
0010
0100
0000
0010
0100
0000
,
1001
0000
0100
0010
0000
0100
0010
0000
0001
0000
0010
0100
0000
0010
0100
0000
,
1000
0000
0100
0010
0000
0100
0010
0000
0001
0000
0010
0100
0000
0010
0100
0000
,
0001
0000
0010
0001
0000
0010
0001
0000
0100
0000
0010
1000
0000
0010
1000
0000
,
0100
0000
0010
0001
0000
0010
0001
0000
0100
0000
1000
0010
0000
1000
0010
0000
,
0100
0000
0001
0100
0000
0001
0100
0000
0010
0000
1000
0100
0000
1000
0100
0000
,
0010
0000
1000
0001
0000
1000
0001
0000
0010
0000
0001
1000
0000
0001
1000
0000
,
0100
0000
0010
0100
0000
0010
0100
0000
0001
0000
0100
0010
0000
0100
0010
0000
,
1000
0000
0100
1000
0000
0100
1000
0000
0100
0000
0010
0001
0000
0010
0001
0000
,
0101
0000
0010
1000
0000
0010
1000
0000
0100
0000
1000
0010
0000
1000
0010
0000
,
0100
0000
0001
0010
0000
0001
0010
0000
0100
0000
1000
0010
0000
1000
0010
0000
,
0100
0000
0001
0010
0000
0001
0010
0000
0100
0000
0010
0100
0000
0010
0100
0000
,
1000
0000
0001
0010
0000
0001
0010
0000
0100
0000
0010
0001
0000
0010
0001
0000
,
0100
0000
1000
0010
0000
1000
0010
0000
0100
0000
0001
0010
0000
0001
0010
0000
,
0100
0000
1000
0001
0000
1000
0001
0000
0010
0000
0001
1000
0000
0001
1000
0000
,
0100
0000
0010
0100
0000
0010
0100
0000
1000
0000
0100
0010
0000
0100
0010
0000
,
0001
0000
1000
0100
0000
1000
0100
0000
0010
0000
0001
0010
0000
0001
0010
0000
,
0110
0000
1000
0100
0000
1000
0100
0000
0010
0000
0001
0010
0000
0001
0010
0000
,
0100
0000
0010
0100
0000
0010
0100
0000
0001
0000
1000
0100
0000
1000
0100
0000
,
0010
0000
0100
0010
0000
0100
0010
0000
0001
0000
1000
0100
0000
1000
0100
0000
,
0010
0000
0001
0100
0000
0001
0100
0000
0010
0000
1000
0100
0000
1000
0100
0000
,
0010
0000
0001
0100
0000
0001
0100
0000
0010
0000
1000
0100
0000
1000
0100
0000
,
0010
0000
0100
0010
0000
0100
0010
0000
0001
0000
0100
0001
0000
0100
0001
0000
,
0010
0000
1000
0100
0000
1000
0100
0000
0010
0000
0100
0001
0000
0100
0001
0000
,
0010
0000
1000
0001
0000
1000
0001
0000
0100
0000
0001
1000
0000
0001
1000
0000
,
1010
0000
0100
0001
0000
0100
0001
0000
0010
0000
0001
0100
0000
0001
0100
0000
,
0010
0000
1000
0100
0000
1000
0100
0000
0010
0000
0100
0001
0000
0100
0001
0000
,
0010
0000
1000
0001
0000
1000
0001
0000
0010
0000
0001
1000
0000
0001
1000
0000
,
0100
0000
0010
0001
0000
0010
0001
0000
0100
0000
0010
1000
0000
0010
1000
0000
,
0100
0000
1000
0100
0000
1000
0100
0000
0010
0000
0001
0010
0000
0001
0010
0000
,
0100
0000
1000
0001
0000
1000
0001
0000
0010
0000
0100
0001
0000
0100
0001
0000
,
0010
0000
0100
1000
0000
0100
1000
0000
0010
0000
1000
0100
0000
1000
0100
0000
,
0010
0000
0001
1000
0000
0001
1000
0000
0010
0000
1000
0001
0000
1000
0001
0000
,
0100
0000
0001
0010
0000
0001
0010
0000
0100
0000
1000
0100
0000
1000
0100
0000
,
0010
0000
0100
0010
0000
0100
0010
0000
0001
0000
1000
0100
0000
1000
0100
0000
,
0010
0000
0100
0001
0000
0100
0001
0000
0010
0000
1000
0100
0000
1000
0100
0000
,
0010
0000
0001
0100
0000
0001
0100
0000
0010
0000
1000
0001
0000
1000
0001
0000
,
0100
0000
0001
0010
0000
0001
0010
0000
0100
0000
1000
0001
0000
0100
0010
0000
,
0001
0000
0010
0100
0000
0001
1000
0000
0100
0000
1000
0100
0000
0010
0001
0000
,
0100
0000
0001
0010
0000
0100
1000
0000
0010
0000
0100
0001
0000
1000
0010
0000
,
0100
1000
0100
1000
0001
0010
0001
0010
0100
1000
0100
1000
0001
1000
0001
1000
,
2002
0000
0000
0000
,
0000
0000
0000
3003
;

//---------------dance-single - TRICK----------------
#NOTES:
     dance-single:
     TRICK:
     Medium:
     7:
     0.533,0.555,0.628,0.014,0.000,889.000,181.000,4.000,0.000,0.000:
0000
0000
0000
0000
,
0000
0000
0000
0000
,
0000
0000
0000
0000
,
0000
0000
0000
0000
,
1000
0001
1000
0000
0001
1000
0001
0000
,
1000
0100
1000
0000
0001
0100
0001
0000
,
0010
0100
0010
0000
0100
0010
0100
0000
,
1000
0100
1000
0100
1000
0000
1001
0000
,
1000
0100
1000
0100
1000
0100
1000
0000
,
0010
0001
0010
0001
0010
0001
0010
0000
,
0100
0010
0100
0010
0100
0010
0100
0000
,
1000
0001
1000
0001
1000
0001
1000
0000
,
1000
0100
1000
0100
1000
0100
1000
0001
,
1000
0001
1000
0001
1000
0001
1000
0001
,
0010
0001
0010
0001
0010
0001
0010
0001
,
0100
0010
0100
0010
0100
0010
0100
0000
,
1000
0100
0010
0100
0010
0000
0001
0000
,
0001
0010
0100
0010
0100
0000
1000
0000
,
0100
0010
0100
0010
1000
0000
0001
0000
,
0010
0100
0010
0100
0001
0000
1000
0000
,
1000
0001
1000
0001
0100
0000
0010
0000
,
0001
1000
0001
1000
0010
0000
0100
0000
,
1000
0010
1000
0010
0100
0000
0001
0000
,
0010
0001
0010
0001
0100
0000
0010
0000
,
1001
0000
1001
0000
0010
0100
0010
0000
,
0101
0000
0101
0000
0010
1000
0010
0000
,
1100
0000
1100
0000
0010
0001
0010
0000
,
0011
0000
0011
0000
1000
0100
1000
0000
,
1010
0000
0011
0000
1000
0001
0100
0000
,
0110
0000
1001
0000
1000
0001
0100
0000
,
0011
0000
1100
0000
0010
0001
0100
0000
,
1100
0000
0101
0000
0010
1000
0100
0000
,
1000
0000
0100
0000
0010
1000
0100
0000
,
0001
0000
0010
0000
0100
0010
1000
0000
,
0100
0000
0010
0000
0001
1000
0010
0000
,
0100
0000
0001
0000
1000
0001
0100
0000
,
0010
0000
0100
0000
0001
0010
0100
0000
,
1000
0000
0010
0000
0100
0001
0010
0000
,
1000
0000
0010
0000
0100
0001
0010
0000
,
1000
0000
0100
0000
0010
0001
0100
0000
,
1001
0000
0010
0000
0100
0001
0010
0000
,
1000
0000
0001
0000
0100
0010
0001
0000
,
1000
0000
0010
0000
0100
0001
0010
0000
,
1000
0000
0010
0000
0100
0010
0010
0000
,
1001
0100
0010
0100
,
1001
0000
0010
0100
0010
0100
0010
0000
,
1001
0010
0011
0100
,
1100
1001
0011
1001
,
1100
0000
1100
0000
1000
0001
1000
0000
,
0110
0000
0110
0000
0001
1000
0001
0000
,
1100
0000
1100
0000
0010
0001
0010
0000
,
0110
0000
0110
0000
0001
1000
0001
0000
,
1001
0000
1001
0000
0010
0100
0010
0000
,
1100
0000
1100
0000
0010
0001
0010
0000
,
0011
0000
0011
0000
1000
0100
1000
0000
,
1001
0000
1001
0000
0010
0100
0010
0000
,
1001
0000
1001
0000
0100
0010
0100
0000
,
0101
0000
0101
0000
0010
0100
0010
0000
,
1100
0000
1100
0000
1000
0001
1000
0000
,
0101
0000
0101
0000
0001
1000
0001
0000
,
0110
0000
1001
0000
0100
0010
0100
0000
,
0011
0000
1100
0000
0010
0001
0010
0000
,
1100
0000
0011
0000
1000
0100
1000
0000
,
1001
0000
0110
0000
0001
1000
0001
0000
,
0110
0000
1001
0000
1000
0001
1000
0000
,
1000
0000
0100
0000
0010
0100
0010
0000
,
0001
0000
0010
0000
0100
0010
0100
0000
,
1000
0000
0010
0000
0001
1000
0001
0000
,
0100
0000
0010
0000
0001
0010
0001
0000
,
0100
0000
0010
0000
1000
0100
1000
0000
,
0100
0000
0010
0000
0001
1000
0001
0000
,
0100
0000
0010
0000
1000
0100
1000
0000
,
0100
0000
0010
0000
0001
1000
0001
0000
,
0100
0000
0010
0000
1000
0001
1000
0000
,
0100
0000
0001
0000
1000
0100
0010
0000
,
0001
0000
0010
0000
0001
0100
1000
0000
,
1001
0000
0010
0100
0010
0000
0100
0000
,
1001
0000
0100
0010
0100
0010
0100
0000
,
1001
0010
1001
0010
,
1001
0101
0011
1100
,
1001
0010
0100
0001
,
0110
1000
0001
0010
,
1100
0010
0001
0100
,
0011
0100
0010
1000
,
0101
0010
1000
0100
,
0011
0100
1000
0010
,
0101
0010
0001
0100
,
1010
0100
0001
0100
,
1000
0100
1000
0100
1000
0100
1000
0010
,
1000
0010
1000
0010
1000
0010
1000
0001
,
0100
0001
0100
0001
0100
0001
0100
0010
,
1000
0010
1000
0010
1000
0010
1000
0000
,
1000
0001
1000
0001
1000
0001
1000
0000
,
0010
0100
0010
0100
0010
0100
0010
0000
,
0001
0010
0001
0010
0001
0010
0001
0000
,
1000
0100
1000
0100
1000
0100
1000
0000
,
1100
0000
1100
0000
0010
0100
0010
0000
,
0101
0000
0101
0000
0010
1000
0010
0000
,
1100
0000
1100
0000
0010
0001
0010
0000
,
0101
0000
0101
0000
0010
0100
0010
0000
,
1001
0000
1001
0000
0100
0001
0100
0000
,
0110
0000
0110
0000
0001
0100
0001
0000
,
1100
0000
1100
0000
0010
0001
0010
0000
,
0101
0000
0101
0000
0010
0100
0010
0000
,
1000
0101
0010
1100
,
0010
0101
0010
1100
,
0001
0110
1000
0110
,
0001
0110
1000
0101
,
0010
1100
0001
0110
,
1000
0110
0001
0110
,
2002
0000
0000
0000
,
0000
0000
0000
3003
,
1000
0100
1000
0000
0010
0000
0100
0000
,
0001
0010
0001
0000
0100
0000
0010
0000
,
1000
0100
1000
0000
0010
0000
0100
0000
,
0001
0010
0001
0000
0100
0010
0100
0000
,
1000
0100
1000
0000
0010
0000
0100
0000
,
0001
0010
0001
0000
0100
0000
0010
0000
,
1000
0100
1000
0000
0010
0000
0100
0000
,
0001
1000
0001
0000
0010
0100
0010
0000
,
1000
0100
0010
0000
1000
0000
0001
0000
,
1000
0001
0100
0000
0010
0000
0100
0000
,
0001
0010
0100
0000
1000
0000
0001
0000
,
0100
0010
1000
0000
1000
0001
0100
0000
,
0010
1000
0100
0000
0010
0000
0100
0000
,
0001
0010
0100
0000
0010
0000
0001
0000
,
0100
0010
1000
0000
0101
0000
0001
0000
,
0101
1001
0110
1001
,
1100
0000
1100
0000
0010
0001
0010
0000
,
0101
0000
0101
0000
0010
1000
0010
0000
,
0110
0000
0110
0000
1000
0001
1000
0000
,
1100
0000
1100
0000
0010
0001
0010
0000
,
0101
0000
0101
0000
0010
1000
0010
0000
,
0110
0000
0110
0000
0001
0010
0001
0000
,
1100
0000
1100
0000
0010
0001
0010
0000
,
0110
0000
0110
0000
0001
0010
0001
0000
,
1001
0000
0110
0000
0001
1000
0010
0000
,
1100
0000
0011
0000
1000
0100
0010
0000
,
0101
0000
1010
0000
0100
0001
0010
0000
,
1100
0000
0101
0000
0010
1000
0100
0000
,
1000
0001
1000
0001
1000
0001
1000
0001
,
0010
0001
0010
0001
0010
0001
0010
0001
,
0100
0001
0100
0001
0100
0001
0100
0001
,
1000
0001
1000
0001
1000
0001
1000
0001
,
1000
0110
0001
0110
,
1000
0110
0001
0110
,
1000
1100
0010
0101
,
1000
0110
0001
0110
,
1000
0101
0010
1100
,
0001
0110
1000
0101
,
0010
1100
0010
0101
,
0010
1100
0001
0110
,
1100
0000
1100
0000
0010
0100
0010
0000
,
0101
0000
0101
0000
0010
1000
0010
0000
,
1001
0000
1001
0000
0010
0100
0010
0000
,
1100
0000
1100
0000
0010
0001
0010
0000
,
0101
0000
0101
0000
0010
0100
0010
0000
,
1100
0000
1100
0000
0001
1000
0001
0000
,
1100
0000
1100
0000
0010
0001
0010
0000
,
1001
0000
1001
0000
0010
0100
0010
0000
,
1001
0100
0010
0001
,
0010
0100
1000
0010
,
0100
0001
0010
0100
,
1000
0000
0001
0000
0100
0001
0010
0000
,
1100
0010
0100
0001
,
0010
0100
1000
0010
,
0100
0001
0010
0100
,
1000
0000
0010
0000
0100
0001
1000
0000
,
0110
1000
0101
0010
,
1100
0010
1001
0100
,
0011
0100
1010
0001
,
1100
0010
1001
0010
,
1000
0001
1000
0001
1000
0001
1000
0001
,
0010
0001
0010
0001
0010
0001
0010
0001
,
0100
0001
0100
0001
0100
0001
0100
0001
,
0101
1100
0110
1001
,
0220
0000
0000
0000
,
0000
0000
0000
0330
;

//---------------dance-single - BASIC----------------
#NOTES:
     dance-single:
     BASIC:
     Easy:
     5:
     0.391,0.555,0.358,0.153,0.000,642.000,103.000,44.000,0.000,0.000:
0000
0000
0000
0000
,
0000
0000
0000
0000
,
0000
0000
0000
0000
,
0000
0000
0000
0000
,
1000
0100
0010
0001
,
0010
0100
0010
0100
,
1000
0100
0010
0100
,
0001
1000
0010
0100
,
1001
0100
0010
0001
,
0101
0010
1000
0100
,
1100
0010
0001
0100
,
0101
0010
0100
1000
,
1100
0010
0100
0001
,
0011
0010
0100
1000
,
1100
0010
0100
0001
,
0011
1000
0100
0010
,
0001
1000
0010
0100
,
0001
0010
0100
1000
,
0010
0100
0001
0010
,
0100
1000
0100
0010
,
0001
0100
0010
1000
,
0100
0010
0001
0100
,
0010
1000
0100
0010
,
0001
1000
0001
1000
,
0001
0100
0001
0010
,
0001
0100
0001
0010
,
0100
1000
0010
0100
,
0001
0010
0100
1000
,
0010
0100
0001
0010
,
0011
0001
1000
0100
,
1100
0010
0100
0001
,
0011
1000
1100
0010
,
0110
0001
0010
0001
,
0100
0001
1000
0010
,
0100
0001
0010
0001
,
1000
0100
0010
0100
,
0001
0010
0100
1000
,
0001
0100
0001
0010
,
0100
1000
0010
0100
,
0001
0010
0100
1000
,
0001
0100
0010
1000
,
0100
0010
0001
0100
,
0010
1000
0100
0010
,
0001
0100
0010
1000
,
1001
0100
0010
0001
,
0101
0010
0001
1000
,
1100
0010
0110
0001
,
0011
1001
1100
1010
,
1001
0001
0100
0010
,
1000
0100
0010
0001
,
0100
0010
1000
0100
,
0010
0001
0100
0010
,
1000
0100
0010
0001
,
0100
0010
1000
0100
,
0010
0001
0100
0010
,
1000
0100
0010
0001
,
0100
0010
1000
0100
,
0010
0001
0100
0010
,
1000
0100
0010
0001
,
1000
0001
0010
0001
,
0100
0010
1000
0100
,
0010
0001
0100
0010
,
1000
0100
0001
0010
,
0100
1000
0001
0100
,
1001
0010
0100
0001
,
0011
0001
1000
0100
,
1100
0010
0100
0001
,
1001
0010
0100
0010
,
1100
0001
0010
0001
,
0101
0010
1000
0100
,
0110
1000
0001
0010
,
0101
0001
0100
0010
,
1001
0100
0010
0001
,
1001
0100
1000
0100
,
0011
0001
0100
0010
,
1010
0100
0010
0001
,
0101
0010
1000
0100
,
1100
0010
0100
0001
,
0011
0001
1001
0100
,
1010
0110
0011
1001
,
0022
0000
0000
0033
,
2200
0000
0000
3300
,
2002
0000
0000
3003
,
0202
0000
0000
0303
,
2020
0000
0000
3030
,
2002
0000
0000
3003
,
0022
0000
0000
0033
,
2200
0000
0000
3300
,
1000
0100
0010
0001
,
0100
0010
1000
0100
,
0010
0001
0100
0010
,
0100
1000
0100
1000
,
0101
0010
1000
0100
,
0010
0001
0100
0010
,
1000
0100
0010
0001
,
0100
0010
1000
0001
,
0101
0010
1000
0100
,
1100
0010
0100
0001
,
0011
1000
0100
0010
,
0110
0001
1000
0100
,
0110
0001
0010
0001
,
1100
0010
0100
0001
,
1100
0010
0100
0001
,
0011
0001
1000
0100
,
0010
0110
0010
0110
,
0010
0110
0100
0110
,
0100
1100
1000
1100
,
1000
1001
0001
0011
,
0001
0011
1000
0100
,
0010
0100
0001
0010
,
2002
0000
0000
0000
,
0000
0000
0000
3003
,
1001
0010
0100
0001
,
0011
0100
1000
0100
,
1100
0010
0100
0010
,
0110
0001
0010
0001
,
0011
0001
1000
0100
,
1100
0010
0100
0001
,
0101
0010
1000
0100
,
1100
0010
0100
0001
,
0101
0010
1000
0100
,
1100
0010
0100
0001
,
0011
0001
1000
0010
,
1010
0010
0100
0001
,
1001
0001
0010
0100
,
1100
0010
0100
0001
,
0011
0001
1001
1000
,
1100
0110
0011
1100
,
1001
0100
0010
1000
,
0100
0010
0001
1000
,
0100
0010
0010
0100
,
0001
0001
1000
1000
,
0010
0100
0001
0010
,
0100
0100
1000
1000
,
0010
0100
0001
0001
,
0010
0100
1000
1000
,
0101
0010
1000
0100
,
0010
0001
0010
0100
,
1000
0001
0100
1000
,
0010
0001
0100
0010
,
1000
0100
0010
0001
,
0100
0010
1000
0100
,
0010
0001
0100
0010
,
1000
0001
0010
0100
,
1001
0001
0100
0001
,
0010
0100
1000
0001
,
0010
0100
1000
0010
,
0100
0001
0010
0100
,
0100
0010
1000
0001
,
0001
0010
0100
1000
,
1000
0010
0100
0001
,
0001
0010
0100
1000
,
0110
0001
0010
0100
,
1000
0010
0100
0001
,
0010
0100
1000
0010
,
0100
0001
0010
0100
,
1000
0001
0100
0010
,
1000
0100
0001
0010
,
0100
1000
0100
0001
,
0010
0100
0001
0010
,
1100
0100
0010
0001
,
1000
0100
0010
0010
,
0100
0001
0001
0010
,
0100
1000
1000
0010
,
0100
0001
0001
0010
,
0100
1000
0100
0010
,
0001
0100
0010
1000
,
0100
0010
0001
0100
,
2000
0000
3200
0000
,
0302
0000
0023
0000
,
0230
0000
2300
0000
,
3020
0000
0230
0300
,
2020
3030
0202
0303
,
2200
3300
0022
0033
,
2002
3003
0220
0330
,
2200
3300
0220
0330
,
2002
0000
0000
0000
,
0000
0000
0000
3003
;

//---------------dance-double - BASIC----------------
#NOTES:
     dance-double:
     BASIC:
     Easy:
     5:
     0.389,0.555,0.344,0.153,0.000,642.000,99.000,44.000,0.000,0.000:
00000000
00000000
00000000
00000000
,
00000000
00000000
00000000
00000000
,
00000000
00000000
00000000
00000000
,
00000000
00000000
00000000
00000000
,
01000000
00100000
00010000
00001000
,
00010000
00100000
00010000
00100000
,
01000000
00100000
00010000
00100000
,
00001000
01000000
00010000
00100000
,
00100000
00010000
00001000
00000100
,
00010100
00001000
00100000
00010000
,
00110000
00001000
00000100
00010000
,
00010100
00001000
00010000
00100000
,
00011000
00000100
00001000
00000010
,
00000110
00000100
00001000
00010000
,
00011000
00000100
00001000
00000010
,
00000110
00010000
00001000
00000100
,
00000001
00001000
00000010
00000100
,
00000001
00000010
00000100
00001000
,
00000010
00000100
00000001
00000010
,
00000100
00001000
00000100
00000010
,
00000010
00001000
00000100
00010000
,
00001000
00000100
00000010
00001000
,
00000100
00010000
00001000
00000100
,
00000010
00010000
00000010
00010000
,
00000100
00010000
00000100
00001000
,
00000100
00010000
00000100
00001000
,
00010000
00100000
00001000
00010000
,
00000100
00001000
00010000
00100000
,
00010000
00100000
00001000
00010000
,
00011000
00001000
01000000
00100000
,
01100000
00010000
00100000
00001000
,
00011000
01000000
01100000
00010000
,
01100000
00010000
00100000
00010000
,
01000000
00010000
10000000
00100000
,
01000000
00010000
00100000
00010000
,
10000000
01000000
00100000
01000000
,
00001000
00010000
00100000
01000000
,
00001000
00100000
00001000
00010000
,
00100000
01000000
00010000
00100000
,
00001000
00010000
00100000
01000000
,
00000100
00010000
00001000
00100000
,
00010000
00001000
00000100
00010000
,
00001000
00100000
00010000
00001000
,
00000100
00010000
00001000
00100000
,
00010010
00001000
00000100
00000010
,
00001010
00000100
00000010
00010000
,
00011000
00000100
00001100
00000010
,
00000110
00010010
00011000
00010100
,
00001001
00000001
00000100
00000010
,
00001000
00000100
00000010
00000001
,
00000100
00000010
00001000
00000100
,
00000010
00000001
00000100
00000010
,
00010000
00001000
00000100
00000010
,
00001000
00000100
00010000
00001000
,
00000100
00000010
00001000
00000100
,
00010000
00001000
00000100
00000010
,
00010000
00001000
00100000
00010000
,
00001000
00000100
00010000
00001000
,
00100000
00010000
00001000
00000100
,
00100000
00000100
00001000
00000100
,
00100000
00010000
01000000
00100000
,
00010000
00001000
00100000
00010000
,
01000000
00100000
00001000
00010000
,
00100000
01000000
00001000
00100000
,
10010000
00100000
01000000
00010000
,
00110000
00010000
10000000
01000000
,
11000000
00100000
01000000
00010000
,
10010000
00100000
01000000
00100000
,
01100000
00001000
00010000
00001000
,
00101000
00010000
01000000
00100000
,
00110000
01000000
00001000
00010000
,
00101000
00001000
00100000
00010000
,
00100000
00010000
00001000
00000100
,
00100000
00010000
00100000
00010000
,
00001100
00000100
00010000
00001000
,
00101000
00010000
00001000
00000100
,
00001010
00000100
00010000
00001000
,
00011000
00000100
00001000
00000010
,
00000110
00000010
00010010
00001000
,
00010100
00001100
00000110
00010010
,
00000022
00000000
00000000
00000033
,
00002200
00000000
00000000
00003300
,
00002002
00000000
00000000
00003003
,
00000202
00000000
00000000
00000303
,
00020200
00000000
00000000
00030300
,
00020020
00000000
00000000
00030030
,
00000220
00000000
00000000
00000330
,
00022000
00000000
00000000
00033000
,
00100000
00010000
00001000
00000100
,
00010000
00001000
00100000
00010000
,
00001000
00000100
00010000
00001000
,
00010000
00100000
00010000
00100000
,
00101000
00010000
01000000
00100000
,
00010000
00001000
00100000
00010000
,
01000000
00100000
00010000
00001000
,
00100000
00010000
01000000
00001000
,
01010000
00100000
10000000
01000000
,
11000000
00100000
01000000
00010000
,
00110000
10000000
01000000
00100000
,
01100000
00010000
10000000
01000000
,
00110000
00001000
00010000
00001000
,
01100000
00010000
00100000
00001000
,
01100000
00010000
00100000
00001000
,
00011000
00001000
01000000
00100000
,
00001000
00011000
00001000
00011000
,
00001000
00011000
00010000
00011000
,
00010000
00110000
00100000
00110000
,
00100000
00100000
00000100
00001100
,
00000010
00000110
00010000
00001000
,
00000100
00001000
00000010
00000100
,
00020020
00000000
00000000
00000000
,
00000000
00000000
00000000
00030030
,
00001001
00000010
00000100
00000001
,
00000011
00000100
00001000
00000100
,
00001100
00000010
00000100
00000010
,
00000110
00000001
00000010
00000001
,
00000110
00000010
00010000
00001000
,
00011000
00000100
00001000
00000010
,
00001010
00000100
00010000
00001000
,
00011000
00000100
00001000
00000010
,
00010100
00001000
00100000
00010000
,
00110000
00001000
00010000
00000100
,
00001100
00000100
00100000
00001000
,
00101000
00001000
00010000
00000100
,
01001000
00001000
00010000
00100000
,
01100000
00010000
00100000
00001000
,
00011000
00001000
01001000
01000000
,
01100000
00110000
00011000
01100000
,
10010000
01000000
00100000
10000000
,
01000000
00100000
00010000
10000000
,
01000000
00100000
00100000
01000000
,
00010000
00010000
10000000
10000000
,
00010000
00100000
00001000
00010000
,
00100000
00100000
01000000
01000000
,
00010000
00100000
00001000
00001000
,
00010000
00100000
01000000
01000000
,
00010100
00001000
00100000
00010000
,
00001000
00000100
00001000
00010000
,
00100000
00000100
00010000
00100000
,
00001000
00000100
00010000
00001000
,
00010000
00001000
00000100
00000010
,
00001000
00000100
00010000
00001000
,
00000100
00000010
00001000
00000100
,
00010000
00000010
00000100
00001000
,
00001001
00000001
00000100
00000001
,
00000010
00000100
00001000
00000001
,
00000010
00000100
00001000
00000010
,
00000100
00000001
00000010
00000100
,
00001000
00000100
00010000
00000010
,
00000010
00000100
00001000
00010000
,
00010000
00000100
00001000
00000010
,
00000010
00000100
00001000
00010000
,
00011000
00000100
00001000
00010000
,
00100000
00001000
00010000
00000100
,
00001000
00010000
00100000
00001000
,
00010000
00000100
00001000
00010000
,
01000000
00001000
00100000
00010000
,
01000000
00100000
00001000
00010000
,
00100000
01000000
00100000
00001000
,
00010000
00100000
00001000
00010000
,
11000000
01000000
00100000
00010000
,
10000000
01000000
00100000
00100000
,
01000000
00010000
00010000
00100000
,
01000000
10000000
10000000
00100000
,
00100000
00001000
00001000
00010000
,
00100000
01000000
00100000
00010000
,
00001000
00100000
00010000
01000000
,
00100000
00010000
00001000
00100000
,
00200000
00000000
00320000
00000000
,
00030200
00000000
00002300
00000000
,
00023000
00000000
00230000
00000000
,
00302000
00000000
00023000
00030000
,
00020200
00030300
00002020
00003030
,
00022000
00033000
00000220
00000330
,
00020020
00030030
00002200
00003300
,
00022000
00033000
00002200
00003300
,
00002002
00000000
00000000
00000000
,
00000000
00000000
00000000
00003003
;

//---------------dance-double - MANIAC----------------
#NOTES:
     dance-double:
     MANIAC:
     Hard:
     11:
     0.811,0.864,0.187,0.014,0.830,1577.000,54.000,4.000,0.000,0.000:
00000000
00000000
00000000
00000000
,
00000000
00000000
00000000
00000000
,
00000000
00000000
00000000
00000000
,
00000000
00000000
00000000
00000000
,
01000000
00000000
00001000
01000000
00000000
00100000
01000000
00000000
00100000
00000000
00010000
00000000
00001000
00000000
00010000
00000000
,
00110000
00000000
01000000
00010000
00000000
01000000
00010000
00000000
00100000
00000000
00001000
00000000
00010000
00000000
00100000
00000000
,
00101000
00000000
00010000
00100000
00000000
01000000
00010000
00000000
00100000
00000000
00001000
00000000
00010000
00000000
01000000
00000000
,
01010000
00000000
00100000
00001000
00000000
00100000
00001000
00000000
00100000
00000000
00010000
00000000
00100000
00000000
01000000
00000000
,
00101000
00000000
00010000
00000100
00000000
00010000
00001000
00000000
00100000
00000000
00010000
00000000
00001000
00000000
00000100
00000000
,
00001100
00000000
00100000
00010000
00000000
00001000
00100000
00000000
00010000
00000000
00000100
00000000
00001000
00000000
00100000
00000000
,
00101000
00000000
00010000
00001000
00000000
00010000
00001000
00000000
00100000
00000000
00010000
00000000
00001000
00000000
00010000
00000000
,
00010100
00000000
00001000
00000100
00000000
00001000
00000100
00000000
00010000
00000000
00001000
00000000
00010000
00000000
00100000
00000000
,
00010010
00000000
00001000
00000100
00000000
00010000
00001000
00000000
00000100
00000000
00000010
00000000
00000100
00000000
00010000
00000000
,
00001100
00000000
00001000
00000100
00000000
00010000
00000100
00000000
00001000
00000000
00000010
00000000
00000100
00000000
00001000
00000000
,
00000010
00000100
00000010
00000000
00001000
00000000
00001000
00000000
00000100
00001000
00000100
00000000
00010000
00000000
00001000
00000000
,
00010000
00000100
00010000
00000000
00001000
00000100
00001000
00000000
00000010
00001000
00000010
00000000
00010000
00001000
00010000
00000000
,
00000001
00000000
00000010
00000100
00000000
00000010
00000100
00000000
00000001
00000000
00000010
00000000
00000100
00000000
00001000
00000000
,
00000010
00000000
00000100
00000001
00000000
00000100
00000001
00000000
00000010
00000000
00000100
00000000
00001000
00000000
00000001
00000000
,
00000010
00000000
00000001
00000100
00000000
00000001
00000100
00000000
00000010
00000000
00000100
00000000
00001000
00000000
00000100
00000000
,
00000010
00000000
00000100
00000001
00000000
00000100
00000001
00000000
00000010
00000000
00000100
00000000
00001000
00000000
00000100
00000000
,
00010000
00000000
00000100
00001000
00000000
00000100
00001000
00000000
00000010
00000000
00000100
00000000
00001000
00000000
00010000
00000000
,
00000100
00000000
00001000
00000010
00000000
00001000
00000010
00000000
00000100
00000000
00000010
00000000
00001000
00000000
00000100
00000000
,
00001000
00000000
00010000
00000100
00000000
00010000
00001000
00000000
00000100
00000000
00000010
00000000
00001000
00000000
00000100
00000000
,
00010000
00000000
00001000
00000100
00000000
00010000
00001000
00000000
00000100
00000000
00000010
00000000
00000100
00000000
00001000
00000000
,
00010100
00000000
00001000
00010000
00000000
00100000
00010000
00000000
00001000
00000000
00000100
00000000
00001000
00000000
00010000
00000000
,
00000100
00000000
00001000
00010000
00000000
00001000
00010000
00000000
00000100
00000000
00001000
00000000
00010000
00000000
00100000
00000000
,
00010000
00000000
00000100
00001000
00000000
00010000
00001000
00000000
00100000
00000000
00010000
00000000
00001000
00000000
00010000
00000000
,
00000100
00000000
00001000
00010000
00000000
00000100
00001000
00000000
00010000
00000000
00100000
00000000
00010000
00000000
00001000
00000000
,
00100000
00000000
00001000
00010000
00000000
00001000
00100000
00000000
00010000
00000000
01000000
00000000
00100000
00000000
00010000
00000000
,
00001000
00000000
00100000
00010000
00000000
01000000
00100000
00000000
00010000
00000000
00001000
00000000
00010000
00000000
00100000
00000000
,
00001000
00000000
00010000
00100000
00000000
00001000
00100000
00000000
00010000
00000000
00100000
00000000
00001000
00000000
00010000
00000000
,
01000000
00000000
00100000
00010000
00000000
00001000
00100000
00000000
00010000
00000000
00100000
00000000
00010000
00000000
00100000
00000000
,
10000000
00000000
01000000
00100000
00000000
01000000
00100000
00000000
00010000
00000000
00100000
01000000
00000000
00100000
01000000
00000000
,
10000000
00000000
00010000
00100000
00000000
00010000
00100000
00000000
01000000
00000000
10000000
01000000
00000000
10000000
01000000
00000000
,
00100000
00000000
00010000
00100000
00000000
00010000
00100000
00000000
01000000
00000000
10000000
01000000
00000000
10000000
01000000
00000000
,
00100000
00000000
00010000
10000000
00000000
00010000
10000000
00000000
01000000
00000000
10000000
00010000
00000000
10000000
00010000
00000000
,
00010000
00000000
00100000
00001000
00000000
00100000
00001000
00000000
00010000
00000000
00100000
01000000
00000000
00100000
01000000
00000000
,
00010000
00000000
01000000
00010000
00000000
01000000
00010000
00000000
00100000
00000000
00001000
00100000
00000000
00001000
00100000
00000000
,
00010000
00000000
01000000
00001000
00000000
01000000
00001000
00000000
00100000
00000000
00001000
01000000
00000000
00001000
01000000
00000000
,
00100000
00000000
00010000
00001000
00000000
00010000
00001000
00000000
00100000
00000000
01000000
00100000
00000000
01000000
00100000
00000000
,
00001100
00000000
00010000
00001000
00000000
00010000
00001000
00000000
00100000
00000000
00001000
00010000
00000000
00001000
00010000
00000000
,
00000100
00000000
00100000
00010000
00000000
00100000
00010000
00000000
00001000
00000000
00000100
00001000
00000000
00000100
00001000
00000000
,
00010000
00000000
00100000
00000100
00000000
00100000
00000100
00000000
00001000
00000000
00000100
00100000
00000000
00000100
00100000
00000000
,
00010000
00000000
00100000
00001000
00000000
00100000
00001000
00000000
00010000
00000000
00000100
00001000
00000000
00000100
00001000
00000000
,
00010100
00000000
00001000
00000010
00000000
00001000
00000010
00000000
00000100
00000000
00010000
00001000
00000000
00010000
00001000
00000000
,
00011000
00000000
00000100
00000010
00000000
00000100
00000010
00000000
00001000
00000000
00000100
00001000
00000000
00000100
00001000
00000000
,
00001100
00000000
00000010
00000100
00000000
00000010
00000100
00000000
00000110
00000000
00001000
00010000
00000000
00001000
00010000
00000000
,
00011000
00001000
00001100
00000100
00000110
00000010
00010010
00010000
,
00001100
00000000
00000100
00000010
00000000
00000001
00000010
00000000
00000100
00000000
00001000
00000000
00000100
00000000
00000010
00000000
,
00000100
00000000
00001000
00000001
00000000
00000001
00001000
00000000
00000100
00000000
00000010
00000000
00000001
00000000
00000010
00000000
,
00000100
00000000
00000001
00000010
00000000
00000010
00000001
00000000
00000100
00000000
00001000
00000000
00000010
00000000
00000100
00000000
,
00000001
00000000
00000010
00000100
00000000
00001000
00000100
00000000
00000010
00000000
00000100
00000000
00000001
00000000
00000010
00000000
,
00010000
00000000
00000100
00001000
00000000
00000010
00000100
00000000
00001000
00000000
00010000
00000000
00000100
00000000
00001000
00000000
,
00000010
00000000
00000100
00001000
00000000
00000010
00001000
00000000
00000100
00000000
00001000
00000000
00010000
00000000
00001000
00000000
,
00000100
00000000
00001000
00000010
00000000
00001000
00000010
00000000
00000100
00000000
00001000
00000000
00010000
00000000
00000100
00000000
,
00001000
00000000
00000010
00000100
00000000
00000010
00000100
00000000
00001000
00000000
00010000
00000000
00000100
00000000
00001000
00000000
,
00010100
00000000
00001000
00010000
00000000
00001000
00010000
00000000
00100000
00000000
00010000
00000000
00001000
00000000
00010000
00000000
,
00000100
00000000
00001000
00010000
00000000
00001000
00010000
00000000
00100000
00000000
00010000
00000000
00001000
00000000
00000100
00000000
,
00001000
00000000
00010000
00000100
00000000
00010000
00000100
00000000
00001000
00000000
00010000
00000000
00100000
00000000
00001000
00000000
,
00010000
00000000
00000100
00100000
00000000
00000100
00100000
00000000
00001000
00000000
00010000
00000000
00000100
00000000
00001000
00000000
,
00100000
00000000
01000000
00010000
00000000
01000000
00100000
00000000
00010000
00000000
00001000
00000000
00010000
00000000
00100000
00000000
,
00001000
00000000
01000000
00100000
00000000
00100000
01000000
00000000
00010000
00000000
00100000
00000000
00001000
00000000
00010000
00000000
,
00100000
00000000
00001000
00100000
00000000
00100000
00001000
00000000
00010000
00000000
01000000
00000000
00100000
00000000
00010000
00000000
,
00100000
00000000
00001000
00010000
00000000
00010000
00001000
00000000
00100000
00000000
01000000
00000000
00010000
00000000
00100000
00000000
,
10010000
00000000
01000000
00100000
00000000
01000000
00100000
00000000
00010000
00000000
00100000
01000000
00000000
00100000
01000000
00000000
,
10000000
00000000
01000000
00100000
00000000
01000000
00100000
00000000
00010000
00000000
10000000
01000000
00000000
10000000
01000000
00000000
,
00100000
00000000
00010000
00100000
00000000
00010000
00100000
00000000
01000000
00000000
10000000
01000000
00000000
10000000
01000000
00000000
,
00100000
00000000
01000000
00010000
00000000
01000000
00010000
00000000
00100000
00000000
00010000
01000000
00000000
00010000
01000000
00000000
,
00010000
00000000
01000000
00100000
00000000
01000000
00100000
00000000
00010000
00000000
00100000
00010000
00000000
00100000
00010000
00000000
,
00001000
00000000
00010000
00100000
00000000
00010000
00100000
00000000
01000000
00000000
00100000
00010000
00000000
00100000
00010000
00000000
,
00001000
00000000
00100000
01000000
00000000
00100000
01000000
00000000
00010000
00000000
00100000
00001000
00000000
00100000
00001000
00000000
,
00010000
00000000
01000000
00010000
00000000
01000000
00010000
00000000
00100000
00000000
00001000
00100000
00000000
00001000
00100000
00000000
,
00011000
00000000
00100000
00000100
00000000
00100000
00000100
00000000
00001000
00000000
00000100
00100000
00000000
00000100
00100000
00000000
,
00010000
00000000
00100000
00010000
00000000
00100000
00010000
00000000
00001000
00000000
00000100
00001000
00000000
00000100
00001000
00000000
,
00010000
00000000
00001000
00010000
00000000
00001000
00010000
00000000
00100000
00000000
00010000
00001000
00000000
00010000
00001000
00000000
,
00000100
00000000
00010000
00001000
00000000
00010000
00001000
00000000
00100000
00000000
00001000
00010000
00000000
00001000
00010000
00000000
,
00010010
00000000
00001000
00000100
00000000
00001000
00000100
00000000
00000010
00000000
00000100
00001000
00000000
00000100
00001000
00000000
,
00001100
00000000
00010000
00001000
00000000
00010000
00001000
00000000
00000100
00000000
00000010
00000100
00000000
00000010
00000100
00000000
,
00000110
00000000
00001000
00010000
00000000
00001000
00010000
00000000
00011000
00000000
00000100
00000010
00000000
00000100
00000010
00000000
,
00000110
00000010
00001010
00001000
00001100
00000100
00010100
00010000
,
00001001
00000100
00000010
00000001
,
00000010
00000100
00001000
00000100
,
00000010
00000100
00000001
00000010
,
00000100
00000010
00000001
00000010
,
00001000
00010000
00001000
00000100
,
00000010
00000100
00001000
00000010
,
00000100
00001000
00010000
00001000
,
00000100
00001000
00000010
00000100
,
00100000
00100000
00010000
00001000
00000100
00001000
00010000
00100000
,
00010000
00001000
00010000
00000100
00001000
00010000
00100000
00010000
,
00001000
00010000
00000100
00001000
00010000
00001000
00000100
00001000
,
00010000
00100000
00010000
00001000
00010000
00001000
00000100
00001000
,
01000000
00100000
00010000
00100000
00001000
00010000
00100000
01000000
,
00100000
00010000
00001000
00010000
00100000
01000000
00100000
00010000
,
00100000
00001000
00010000
00100000
01000000
00100000
00010000
00100000
,
00001000
00010000
00100000
01000000
00100000
00010000
00001000
00100000
,
10010000
00000000
10000000
01000000
00000000
10000000
01000000
00000000
00100000
00000000
00010000
00000000
00100000
00000000
01000000
00000000
,
10000000
00000000
00100000
01000000
00000000
00100000
01000000
00000000
00010000
00000000
00100000
00000000
01000000
00000000
10000000
00000000
,
01000000
00000000
00100000
10000000
00000000
00100000
10000000
00000000
01000000
00000000
00010000
00000000
00100000
00000000
01000000
00000000
,
10000000
00000000
00100000
01000000
00000000
00100000
01000000
00000000
00010000
00000000
00100000
00000000
01000000
00000000
10000000
00000000
,
00010000
00000000
00100000
00001000
00000000
00100000
00001000
00000000
00010000
00000000
00100000
00000000
00001000
00000000
00100000
00000000
,
00010000
00000000
01000000
00100000
00000000
00010000
00100000
00000000
00001000
00000000
00010000
00000000
00100000
00000000
01000000
00000000
,
00010000
00000000
00100000
00010000
00000000
00100000
00010000
00000000
00001000
00000000
00010000
00000000
00100000
00000000
00001000
00000000
,
00010000
00000000
00100000
01000000
00000000
00100000
01000000
00000000
01000000
00000000
00100000
00000000
00010000
00000000
00001000
00000000
,
00010000
00001000
00100000
00001000
00010000
00001000
00100000
00010000
,
00001000
00010000
00100000
00010000
00001000
00010000
00100000
00010000
,
00001000
00010000
00100000
00001000
00010000
00000100
00011000
00000100
,
00001000
00010000
00110000
00001000
00010000
00000100
00001100
00010000
,
00010000
00000100
00001010
00000100
00010000
00001000
00000110
00001000
,
00000100
00001000
00011000
00000100
00001000
00000010
00001100
00000000
,
00020020
00000000
00000000
00000000
,
00000000
00000000
00000000
00030030
,
00001000
00000000
00000100
00000010
00000000
00000100
00000010
00000000
00000001
00000000
00000010
00000100
00000000
00000010
00000100
00000000
,
00001000
00000000
00000001
00000010
00000000
00000001
00000010
00000000
00000100
00000000
00001000
00000100
00000000
00001000
00000100
00000000
,
00000010
00000000
00000100
00000010
00000000
00000100
00000010
00000000
00000001
00000000
00001000
00000100
00000000
00001000
00000100
00000000
,
00000010
00000000
00000001
00000010
00000000
00000001
00000010
00000000
00000100
00000000
00000010
00000000
00001000
00000100
00001000
00000000
,
00001000
00000000
00000100
00000010
00000000
00000100
00000010
00000000
00001000
00000000
00000100
00001000
00000000
00000100
00001000
00000000
,
00010000
00000000
00001000
00000100
00000000
00001000
00000100
00000000
00001000
00000000
00000100
00000010
00000000
00000100
00000010
00000000
,
00001000
00000000
00010000
00000100
00000000
00010000
00000100
00000000
00001000
00000000
00000010
00000100
00000000
00000010
00000100
00000000
,
00001000
00000000
00010000
00000100
00000000
00010000
00000100
00000000
00001000
00000000
00000010
00000000
00000100
00001000
00000100
00000000
,
00010000
00000000
00000100
00001000
00000000
00000100
00001000
00000000
00010000
00000000
00100000
00001000
00000000
00100000
00001000
00000000
,
00010000
00000000
00001000
00100000
00000000
00001000
00100000
00000000
00010000
00000000
00001000
00000100
00000000
00001000
00000100
00000000
,
00010000
00000000
00001000
00100000
00000000
00001000
00100000
00000000
00010000
00000000
00001000
00010000
00000000
00001000
00010000
00000000
,
00001000
00000000
00010000
00001000
00000000
00010000
00001000
00000000
00000100
00000000
00001000
00000000
00010000
00000100
00010000
00000000
,
00011000
00000000
00100000
00010000
00000000
00100000
00010000
00000000
01000000
00000000
00100000
00010000
00000000
00100000
00010000
00000000
,
00110000
00000000
00001000
00010000
00000000
00001000
00010000
00000000
00001000
00000000
00010000
00001000
00000000
00010000
00001000
00000000
,
00011000
00000000
00100000
01000000
00000000
00100000
01000000
00000000
01100000
00000000
01000000
00100000
00000000
01000000
00100000
00000000
,
01100000
00100000
00110000
00010000
00011000
00001000
01001000
01000000
,
11000000
00000000
01000000
00100000
00000000
01000000
00100000
00000000
00010000
00000000
00100000
01000000
00000000
00100000
01000000
00000000
,
10000000
00000000
01000000
00010000
00000000
01000000
00010000
00000000
00100000
00000000
01000000
10000000
00000000
01000000
10000000
00000000
,
00100000
00000000
01000000
00010000
00000000
01000000
00010000
00000000
00100000
00000000
10000000
01000000
00000000
10000000
01000000
00000000
,
00100000
00000000
00010000
00100000
00000000
00010000
00100000
00000000
01000000
00000000
10000000
00000000
01000000
00100000
01000000
00000000
,
01000000
00000000
00001000
00010000
00000000
00001000
00010000
00000000
00100000
00000000
01000000
00010000
00000000
01000000
00010000
00000000
,
00100000
00000000
00001000
00010000
00000000
00001000
00010000
00000000
00100000
00000000
01000000
00010000
00000000
01000000
00010000
00000000
,
00100000
00000000
00010000
00100000
00000000
00010000
00100000
00000000
00010000
00000000
00100000
00010000
00000000
00100000
00010000
00000000
,
00001000
00000000
00010000
00001000
00000000
00010000
00001000
00000000
00100000
00000000
00010000
00100000
00000000
00010000
00100000
00000000
,
00100000
00000000
00010000
00001000
00000000
00010000
00001000
00000000
00000100
00000000
00001000
00010000
00000000
00001000
00010000
00000000
,
00100000
00000000
00010000
00001000
00000000
00010000
00001000
00000000
00000100
00000000
00001000
00010000
00000000
00001000
00010000
00000000
,
00000100
00000000
00001000
00000100
00000000
00001000
00000100
00000000
00010000
00000000
00001000
00100000
00000000
00001000
00100000
00000000
,
00010000
00000000
00001000
00000100
00000000
00001000
00000100
00000000
00010000
00000000
00100000
00001000
00000000
00100000
00001000
00000000
,
00001000
00000000
00000010
00001000
00000000
00000010
00001000
00000000
00000100
00000000
00010000
00001000
00000000
00010000
00001000
00000000
,
00000100
00000000
00010000
00000010
00000000
00010000
00000010
00000000
00000100
00000000
00000010
00010000
00000000
00000010
00010000
00000000
,
00001000
00000000
00000100
00001000
00000000
00000100
00001000
00000000
00000010
00000000
00001000
00000100
00000000
00001000
00000100
00000000
,
00010000
00000000
00001000
00010000
00000000
00001000
00010000
00000000
00001000
00000000
00000100
00000010
00000000
00000100
00000010
00000000
,
00000101
00000000
00000010
00001000
00000000
00000010
00001000
00000000
00000100
00000000
00001000
00000010
00000000
00001000
00000010
00000000
,
00000100
00000000
00000001
00000010
00000000
00000001
00000010
00000000
00000100
00000000
00001000
00000010
00000000
00001000
00000010
00000000
,
00000100
00000000
00000001
00000010
00000000
00000001
00000010
00000000
00000100
00000000
00000010
00000100
00000000
00000010
00000100
00000000
,
00001000
00000000
00000001
00000010
00000000
00000001
00000010
00000000
00000100
00000000
00000010
00000001
00000000
00000010
00000001
00000000
,
00001000
00000000
00010000
00000100
00000000
00010000
00000100
00000000
00001000
00000000
00000010
00000100
00000000
00000010
00000100
00000000
,
00001000
00000000
00010000
00000010
00000000
00010000
00000010
00000000
00000100
00000000
00000010
00010000
00000000
00000010
00010000
00000000
,
00001000
00000000
00000100
00001000
00000000
00000100
00001000
00000000
00010000
00000000
00001000
00000100
00000000
00001000
00000100
00000000
,
00000010
00000000
00010000
00001000
00000000
00010000
00001000
00000000
00000100
00000000
00000010
00000100
00000000
00000010
00000100
00000000
,
00011000
00000000
00100000
00010000
00000000
00100000
00010000
00000000
00001000
00000000
00000100
00001000
00000000
00000100
00001000
00000000
,
00010000
00000000
00001000
00010000
00000000
00001000
00010000
00000000
00000100
00000000
00100000
00010000
00000000
00100000
00010000
00000000
,
00001000
00000000
00010000
00001000
00000000
00010000
00001000
00000000
00000100
00000000
00100000
00010000
00000000
00100000
00010000
00000000
,
00001000
00000000
00000100
00010000
00000000
00000100
00010000
00000000
00001000
00000000
00100000
00010000
00000000
00100000
00010000
00000000
,
00010000
00000000
00001000
00100000
00000000
00001000
00100000
00000000
00010000
00000000
01000000
00100000
00000000
01000000
00100000
00000000
,
00010000
00000000
00100000
00010000
00000000
00100000
00010000
00000000
00001000
00000000
00100000
00001000
00000000
00100000
00001000
00000000
,
00010000
00000000
01000000
00100000
00000000
01000000
00100000
00000000
00010000
00000000
00100000
00001000
00000000
00100000
00001000
00000000
,
00010000
00000000
01000000
00001000
00000000
01000000
00001000
00000000
00100000
00000000
00001000
01000000
00000000
00001000
01000000
00000000
,
10100000
00000000
01000000
00010000
00000000
01000000
00010000
00000000
00100000
00000000
00010000
01000000
00000000
00010000
01000000
00000000
,
00100000
00000000
10000000
01000000
00000000
10000000
01000000
00000000
00100000
00000000
01000000
00010000
00000000
01000000
00010000
00000000
,
00100000
00000000
10000000
00010000
00000000
10000000
00010000
00000000
00100000
00000000
00010000
10000000
00000000
00010000
10000000
00000000
,
01000000
00000000
00100000
00010000
00000000
00100000
00010000
00000000
01000000
00000000
00100000
10000000
00000000
00100000
10000000
00000000
,
00100000
00000000
01000000
00100000
00000000
01000000
00100000
00000000
00010000
00000000
00001000
00010000
00000000
00001000
00010000
00000000
,
00100000
00000000
01000000
00001000
00000000
01000000
00001000
00000000
00010000
00000000
00100000
00001000
00000000
00100000
00001000
00000000
,
00010000
00000000
00100000
01000000
00000000
00100000
01000000
00000000
00010000
00000000
01000000
00100000
00000000
01000000
00100000
00000000
,
00010000
00000000
00001000
01000000
00000000
00001000
01000000
00000000
00010000
00000000
01000000
00001000
00000000
01000000
00001000
00000000
,
00010000
00000000
00000100
00001000
00000000
00000100
00001000
00000000
00010000
00000000
00100000
00010000
00000000
00100000
00010000
00000000
,
00001000
00000000
00010000
00001000
00000000
00010000
00001000
00000000
00000100
00000000
00100000
00010000
00000000
00100000
00010000
00000000
,
00001000
00000000
00010000
00000100
00000000
00010000
00000100
00000000
00001000
00000000
00100000
00010000
00000000
00100000
00010000
00000000
,
00001000
00000000
00000100
00010000
00000000
00000100
00010000
00000000
00001000
00000000
00100000
00000100
00000000
00100000
00000100
00000000
,
00001000
00000000
00000010
00000100
00000000
00000010
00000100
00000000
00001000
00000000
00010000
00000010
00000000
00001000
00000100
00000000
,
00000010
00000000
00000100
00001000
00000000
00000010
00010000
00000000
00001000
00000000
00010000
00001000
00000000
00000100
00000010
00000000
,
00001000
00000000
00000010
00000100
00000000
00001000
00010000
00000000
00000100
00000000
00001000
00000010
00000000
00010000
00000100
00000000
,
00001000
00010000
00001000
00010000
00000010
00000100
00000010
00000100
00001000
00010000
00001000
00010000
00000010
00010000
00000010
00010000
,
00002002
00000000
00000000
00000000
,
00000000
00000000
00000000
00003003
;

//---------------dance-double - WHAT THE F#$%?!!!----------------
#NOTES:
     dance-double:
     WHAT THE F#$%?!!!:
     Challenge:
     14:
     1.000,1.000,0.483,0.021,1.000,2151.000,139.000,6.000,0.000,0.000:
00000000
00000000
00000000
00000000
,
00000000
00000000
00000000
00000000
,
00000000
00000000
00000000
00000000
,
00000000
00000000
00000000
00000000
,
01100000
00000000
01000000
00001000
00000000
00010000
00100000
01000000
00100000
00010000
00100000
00001000
00010000
00100000
00010000
00001000
,
00101000
00000000
01000000
00100000
00000000
00010000
00100000
00001000
00010000
00100000
01000000
00100000
00010000
00001000
00010000
00100000
,
01100000
00000000
00010000
01000000
00000000
00100000
00010000
00001000
01000000
00100000
00010000
00100000
00001000
00010000
00100000
00001000
,
01001000
00000000
00010000
00100000
00000000
01000000
00100000
00010000
00100000
00001000
00010000
00100000
01000000
00100000
00010000
00100000
,
00010100
00000000
00100000
00001000
00000000
00010000
00001000
00000100
00010000
00001000
00100000
00010000
00001000
00010000
00000100
00001000
,
00011000
00000000
00100000
00000100
00000000
00001000
00010000
00000100
00001000
00010000
00001000
00100000
00010000
00001000
00000100
00010000
,
00010100
00000000
00100000
00001000
00000000
00100000
00010000
00001000
00010000
00000100
00001000
00010000
00001000
00100000
00010000
00001000
,
00101000
00000000
00000100
00010000
00000000
00100000
00010000
00001000
00010000
00000100
00001000
00010000
00100000
00010000
00001000
00000100
,
00000110
00000000
00010000
00000100
00000000
00001000
00000010
00000100
00001000
00000100
00001000
00010000
00001000
00000100
00001000
00000010
,
00010010
00000000
00000100
00000010
00000000
00010000
00001000
00000100
00001000
00000010
00000100
00001000
00000100
00000010
00001000
00000100
,
00000110
00000000
00001000
00010000
00000000
00000100
00000010
00001000
00000100
00001000
00010000
00001000
00000100
00001000
00000010
00000100
,
00001100
00000000
00010000
00000010
00000000
00010000
00001000
00000100
00001000
00000010
00000100
00001000
00000100
00000010
00001000
00000100
,
00001000
00000100
00000010
00000001
00001000
00000100
00000010
00000100
00000010
00000001
00000010
00000100
00001000
00000100
00000010
00000100
,
00000001
00000010
00000100
00000010
00000100
00000001
00000010
00000100
00000010
00000100
00000010
00000100
00001000
00000100
00000010
00000100
,
00000010
00000001
00000100
00000010
00000001
00000100
00000010
00000100
00001000
00000100
00000010
00000100
00000001
00000010
00000100
00000010
,
00000001
00000100
00000010
00000100
00001000
00000100
00000010
00000100
00000010
00000001
00000010
00000100
00000010
00000001
00000100
00000010
,
00010100
00000000
00001000
00000010
00000000
00010000
00001000
00000100
00001000
00000010
00000100
00001000
00000100
00000010
00000100
00001000
,
00011000
00000000
00000100
00001000
00000000
00000010
00000100
00001000
00010000
00001000
00000100
00001000
00000010
00000100
00001000
00000100
,
00000110
00000000
00010000
00000100
00000000
00010000
00001000
00000100
00001000
00000010
00000100
00001000
00000100
00000010
00000100
00001000
,
00001010
00000000
00010000
00000100
00000000
00010000
00001000
00000100
00001000
00000010
00000100
00001000
00000100
00000010
00000100
00001000
,
00110000
00000000
00100000
00000100
00000000
00001000
00010000
00000100
00001000
00010000
00001000
00000100
00010000
00001000
00000100
00010000
,
00010100
00000000
00001000
00100000
00000000
00010000
00001000
00010000
00001000
00000100
00001000
00010000
00001000
00000100
00001000
00010000
,
00010100
00000000
00100000
00001000
00000000
00010000
00001000
00010000
00000100
00001000
00010000
00100000
00010000
00001000
00010000
00000100
,
00100000
00000000
00001000
00010000
00000000
00100000
00010000
00001000
00010000
00000100
00001000
00010000
00001000
00000100
00001000
00010000
,
01100000
00000000
00010000
00100000
00000000
01000000
00100000
00010000
00100000
00001000
00010000
00100000
00010000
00001000
00100000
00010000
,
01010000
00000000
01000000
00001000
00000000
00100000
00010000
00001000
00100000
00010000
00001000
00010000
00100000
01000000
00100000
00010000
,
00011000
00000000
01000000
00100000
00000000
00010000
00100000
00001000
00010000
00100000
01000000
00100000
00010000
00100000
00001000
00010000
,
01010000
00000000
00100000
00010000
00000000
00001000
00010000
00100000
00010000
00001000
00010000
00100000
00010000
00001000
00010000
00100000
,
11000000
00000000
00100000
10000000
00000000
00100000
01000000
00000000
00010000
00000000
00100000
01000000
00000000
10010000
00000000
00010000
,
10000000
00000000
00100000
01000000
00000000
00010000
00100000
00000000
01000000
00000000
00100000
10000000
00000000
10010000
00000000
10000000
,
01000000
00000000
00100000
01000000
00000000
00010000
00100000
00000000
01000000
00000000
10000000
00100000
00000000
10100000
00000000
00010000
,
01000000
00000000
10000000
00100000
00000000
00100000
01000000
00000000
00010000
00000000
00100000
01000000
00000000
10010000
00010000
00000000
,
00010000
00000000
00100000
01000000
00000000
00010000
00100000
00000000
00001000
00000000
00010000
00100000
00000000
01000000
00100000
00000000
,
00010000
00000000
00001000
00100000
00000000
00010000
01000000
00000000
00001000
00000000
00100000
00010000
00000000
01001000
00001000
00000000
,
00010000
00000000
00100000
01000000
00000000
00001000
00100000
00000000
00010000
00000000
00100000
01000000
00000000
00110000
00100000
00000000
,
01000000
00000000
00100000
00010000
00000000
01000000
00100000
00000000
00010000
00000000
00001000
00100000
00000000
00010000
00001000
00000000
,
00100000
00010000
00001000
00010000
00001000
00000000
00100000
00000000
00010000
00001000
00000100
00010000
00001000
00000000
00110000
00000000
,
00000100
00001000
00010000
00001000
00000100
00000000
00110000
00000000
00100000
00001000
00010000
00000100
00001000
00000000
00100000
00000000
,
00010000
00001000
00010000
00000100
00001000
00000000
00010100
00000000
00100000
00001000
00010000
00001000
00000100
00000000
00110000
00000000
,
00100000
00001000
00010000
00000100
00001000
00000000
00110000
00000000
00001000
00010000
00000100
00001000
00010000
00000000
00101000
00000000
,
00011000
00001000
00000100
00001000
00000010
00000100
00001000
00000000
00010000
00001000
00000100
00001000
00000010
00000100
00001000
00000000
,
00010010
00000010
00000100
00001000
00000100
00010000
00001000
00000000
00010000
00001000
00000100
00001000
00000010
00000100
00001000
00000000
,
00010010
00000010
00001000
00000010
00001000
00010000
00001000
00000000
00000110
00000100
00001000
00010000
00001000
00000100
00000010
00000000
,
00011000
00001000
00000100
00000010
00000110
00000010
00000100
00001000
00011000
00001000
00000100
00000010
00001010
00000010
00010000
00000100
,
00001010
00000000
00000100
00000001
00000000
00000010
00001000
00000100
00000010
00000100
00000001
00000010
00000100
00000010
00000001
00000100
,
00000110
00000000
00001000
00000001
00000000
00000010
00000100
00000010
00000001
00000010
00000100
00001000
00000100
00000010
00000100
00000001
,
00001001
00000000
00000100
00000010
00000000
00000001
00000010
00000100
00001000
00000100
00000010
00000100
00000001
00000010
00000100
00001000
,
00001100
00000000
00000010
00000100
00000000
00000001
00000010
00000100
00000010
00000001
00000100
00000010
00000001
00000100
00000010
00000100
,
00011000
00000000
00000100
00001000
00000000
00000010
00000100
00001000
00010000
00001000
00000100
00001000
00000010
00000100
00001000
00000010
,
00010010
00000000
00001000
00000010
00000000
00000100
00001000
00000100
00001000
00000010
00000100
00001000
00010000
00001000
00000100
00000010
,
00001010
00000000
00000100
00010000
00000000
00001000
00000100
00000010
00001000
00000100
00001000
00000010
00000100
00001000
00000100
00010000
,
00010010
00000000
00001000
00000100
00000000
00010000
00001000
00000100
00001000
00000010
00000100
00001000
00000100
00000010
00001000
00000100
,
00101000
00000000
00010000
00000100
00000000
00001000
00010000
00100000
00010000
00001000
00010000
00000100
00001000
00010000
00001000
00000100
,
00100000
00000000
00010000
00001000
00000000
00000100
00001000
00010000
00100000
00010000
00001000
00010000
00000100
00001000
00010000
00001000
,
00001100
00000000
00100000
00010000
00000000
00001000
00010000
00000100
00001000
00010000
00001000
00100000
00010000
00001000
00010000
00000100
,
00001100
00000000
00100000
00010000
00000000
00001000
00000100
00010000
00001000
00010000
00000100
00001000
00010000
00100000
00010000
00001000
,
01010000
00000000
00001000
00100000
00000000
00010000
01000000
00100000
00010000
00100000
00001000
00010000
00100000
00010000
00001000
00010000
,
01010000
00000000
00100000
00001000
00000000
01000000
00100000
00010000
00100000
00001000
00010000
00100000
01000000
00100000
00010000
00100000
,
00101000
00000000
01000000
00010000
00000000
00100000
00001000
00010000
00100000
00010000
01000000
00100000
00010000
00100000
00001000
00010000
,
01010000
00000000
00100000
00001000
00000000
00010000
00100000
00001000
00010000
00100000
01000000
00100000
00010000
00100000
00001000
01000000
,
10010000
00000000
00100000
01000000
00000000
10000000
00100000
00000000
01000000
00000000
00010000
00100000
00000000
01000000
00100000
00000000
,
10000000
00000000
01000000
00100000
00000000
01000000
00010000
00000000
10000000
00000000
01000000
00100000
00000000
00010000
01000000
00000000
,
10000000
00000000
00100000
01000000
00000000
00010000
01000000
00000000
00100000
00000000
10000000
01000000
00000000
00100000
01000000
00000000
,
00010000
00000000
00100000
01000000
00000000
10000000
00100000
00000000
01000000
00000000
00010000
00100000
00000000
01000000
10000000
00000000
,
01001000
00000000
00001000
00010000
00000000
00100000
00010000
00000000
01000000
00000000
00100000
00010000
00000000
00100000
00001000
00000000
,
00010000
00000000
00100000
01000000
00000000
00001000
00010000
00000000
01000000
00000000
00100000
00010000
00000000
01000000
00100000
00000000
,
00010000
00000000
00001000
00100000
00000000
00010000
01000000
00000000
00100000
00000000
00010000
00100000
00000000
01000000
00001000
00000000
,
00010000
00000000
01000000
01000000
00000000
00001000
00001000
00000000
00100000
00000000
01000000
01000000
00000000
00001000
00001000
00000000
,
00001000
00100000
00001000
00010000
00000100
00000000
00110000
00000000
00001000
00000100
00001000
00010000
00001000
00000000
00110000
00000000
,
00010000
00001000
00000100
00001000
00010000
00000000
00100000
00000000
00001000
00010000
00000100
00001000
00010000
00000000
00101000
00000000
,
00100000
00010000
00001000
00010000
00000100
00000000
00110000
00000000
00001000
00010000
00001000
00000100
00010000
00000000
00101000
00000000
,
00100000
00010000
00001000
00010000
00000100
00000000
00101000
00000000
00000100
00001000
00010000
00001000
00000100
00000000
00110000
00000000
,
00010010
00000010
00000100
00001000
00000010
00000000
00011000
00000000
00000100
00000010
00000100
00001000
00010000
00000000
00010100
00000000
,
00001010
00001000
00000100
00000010
00001000
00000000
00010100
00000000
00001000
00000100
00000010
00000100
00001000
00000000
00010010
00000000
,
00011000
00010000
00001000
00000100
00001000
00000000
00010100
00000000
00010010
00000010
00000100
00001000
00010000
00000000
00010100
00000000
,
00001010
00000010
00000100
00001000
00011000
00001000
00000100
00000010
00001010
00000010
00000100
00001000
00011000
00001000
00000100
00000010
,
00001001
00000000
00000100
00000010
00000000
00000001
00000100
00000000
00000010
00000000
00001000
00000010
00000100
00000010
00000001
00000010
,
00000100
00000000
00001000
00000010
00000000
00000100
00000001
00000000
00000010
00000100
00000000
00000010
00001000
00000100
00000010
00000100
,
00000001
00000000
00000010
00000100
00000000
00001000
00000100
00000000
00000010
00000000
00000001
00000010
00000100
00001000
00000100
00000010
,
00000001
00000000
00000000
00000000
00000000
00000000
00001000
00000000
00000000
00000100
00000000
00000000
00000000
00000000
00000000
00000010
00000000
00000000
00000100
00000000
00000000
00000000
00000000
00000000
00001000
00000000
00000000
00000000
00000000
00000000
00000001
00000000
00000000
00000000
00000000
00000000
00001000
00000000
00000001
00000000
00001000
00000000
00000001
00000000
00000000
00000000
00000000
00000000
,
00001100
00000000
00010000
00001000
00000000
00000100
00001000
00000000
00010000
00000100
00001000
00000010
00010000
00001000
00000100
00001000
,
00000010
00000000
00010000
00000100
00000000
00001000
00000010
00000000
00000100
00001000
00010000
00001000
00000100
00001000
00000010
00000100
,
00001000
00000000
00010000
00000100
00000000
00001000
00000010
00000000
00000100
00001000
00010000
00001000
00000100
00001000
00000010
00000100
,
00001000
00000000
00000000
00000000
00000000
00000000
00010000
00000000
00000000
00000100
00000000
00000000
00000000
00000000
00000000
00001000
00000000
00000000
00000010
00000000
00000000
00000000
00000000
00000000
00000100
00000000
00000000
00000000
00000000
00000000
00001000
00000000
00000000
00000000
00000000
00000000
00010000
00000000
00001000
00000000
00010000
00000000
00000010
00000000
00000000
00000000
00000000
00000000
,
00100000
00010000
00001000
00000100
00100000
00010000
00001000
00000100
00100000
00010000
00100000
00010000
00001000
00000100
00001000
00000100
,
00010000
00100000
00010000
00100000
00001000
00010000
00001000
00010000
00000100
00001000
00000100
00001000
00010000
00100000
00010000
00100000
,
00001000
00010000
00001000
00010000
00000100
00001000
00000100
00001000
00010000
00100000
00010000
00100000
00001000
00010000
00001000
00010000
,
00100000
00000000
00000000
00010000
00000000
00000000
00100000
00000000
00000000
00010000
00000000
00000000
00100000
00000000
00000000
00010000
00000000
00000000
00100000
00000000
00000000
00010000
00000000
00000000
00100000
00000000
00000000
00000000
00000000
00000000
00000100
00000000
00000000
00000000
00000000
00000000
00100000
00000000
00001000
00000000
00010000
00000000
00001000
00000000
00000000
00000000
00000000
00000000
,
01000000
00100000
00010000
00001000
01000000
00100000
00010000
00001000
00100000
00010000
00001000
00100000
00010000
00001000
00010000
00100000
,
01000000
00100000
00010000
00100000
00001000
00010000
00100000
01000000
00100000
00010000
00100000
00010000
00001000
00010000
00100000
01000000
,
00100000
00010000
00100000
00001000
00010000
00100000
01000000
00100000
00010000
00100000
00010000
00100000
00001000
00010000
00001000
00010000
,
00100000
00000000
00000000
01000000
00000000
00000000
00100000
00000000
00000000
01000000
00000000
00000000
00001000
00000000
00000000
00100000
00000000
00000000
00001000
00000000
00000000
00100000
00000000
00000000
00001000
00000000
00000000
00000000
00000000
00000000
01000000
00000000
00000000
00000000
00000000
00000000
01000000
00000000
00100000
00000000
01000000
00000000
00100000
00000000
00000000
00000000
00000000
00000000
,
10010000
00000000
01000000
00100000
00000000
10000000
01000000
00100000
01000000
00010000
00100000
01000000
00100000
00010000
01000000
00010000
,
10010000
00000000
00100000
01000000
00000000
00010000
00100000
01000000
10000000
01000000
00100000
01000000
00010000
00100000
01000000
00010000
,
01010000
00000000
10000000
00100000
00000000
01000000
00010000
00100000
01000000
10000000
01000000
00100000
01000000
00010000
00100000
01000000
,
11000000
00000000
00000000
00000000
00000000
00000000
10000000
00000000
00000000
00100000
00000000
00000000
00000000
00000000
00000000
01000000
00000000
00000000
00010000
00000000
00000000
00100000
00000000
00000000
01000000
00000000
00000000
10000000
00000000
00000000
00100000
00000000
00000000
01000000
00000000
00000000
00100000
00000000
01000000
00000000
00100000
00000000
01000000
00000000
00000000
00000000
00000000
00000000
,
01001000
00000000
00100000
00010000
00000000
00001000
00010000
00100000
00010000
01000000
00100000
00010000
00001000
00100000
00010000
00001000
,
01001000
00000000
00100000
00010000
00000000
00001000
00010000
00100000
01000000
00100000
00010000
00100000
00001000
00010000
00100000
00010000
,
01010000
00000000
00100000
00001000
00000000
00010000
00100000
01000000
00100000
00010000
00100000
00001000
00010000
00100000
00001000
01000000
,
01001000
00000000
00000000
00000000
00000000
00000000
00100000
00000000
00000000
00010000
00000000
00000000
00000000
00000000
00000000
00001000
00000000
00000000
00010000
00000000
00000000
00100000
00000000
00000000
00010000
00000000
00000000
00001000
00000000
00000000
01000000
00000000
00000000
00100000
00000000
00000000
01000000
00000000
00100000
00000000
01000000
00000000
00100000
00000000
00000000
00000000
00000000
00000000
,
00100000
00000000
00010000
00001000
00000000
00000100
00001000
00010000
00100000
00010000
00001000
00010000
00000100
00001000
00010000
00100000
,
00110000
00000000
00010000
00001000
00000000
00000100
00010000
00001000
00000100
00010000
00100000
00010000
00001000
00010000
00000100
00001000
,
00101000
00000000
00010000
00000100
00000000
00001000
00010000
00000100
00001000
00010000
00100000
00010000
00001000
00000100
00001000
00010000
,
00110000
00000000
00000000
00000000
00000000
00000000
00010000
00000000
00000000
00000100
00000000
00000000
00000000
00000000
00000000
00001000
00000000
00000000
00010000
00000000
00000000
00000100
00000000
00000000
00001000
00000000
00000000
00010000
00000000
00000000
00100000
00000000
00000000
00000100
00000000
00000000
00000100
00000000
00100000
00000000
00000100
00000000
00100000
00000000
00000000
00000000
00000000
00000000
,
00001010
00000000
00000100
00010000
00000000
00001000
00000100
00000010
00001000
00000100
00000010
00001000
00010000
00000100
00001000
00000010
,
00010010
00000000
00000100
00001000
00000000
00000010
00000100
00001000
00010000
00001000
00000100
00001000
00010000
00000000
00000000
00000000
,
00022000
00000000
00000000
00000000
00000000
00000000
00000000
00000000
00033000
00000000
00000000
00000000
00000000
00000000
00010010
00000000
00000000
00000000
00000000
00000000
00001100
00000000
00000000
00000000
00000000
00000000
00000000
00000000
00000000
00022000
00000000
00000000
,
00000000
00000000
00000000
00000000
00000000
00000000
00000000
00000000
00000000
00000000
00000000
00000000
00000000
00000000
00000000
00000000
00000000
00000000
00000000
00000000
00000000
00000000
00000000
00000000
00000000
00000000
00000000
00000000
00000000
00000000
00000000
00000000
00000000
00000000
00000000
00000000
00000000
00000000
00000000
00000000
00000000
00000000
00000000
00000000
00000000
00000000
00000000
00000000
00000000
00000000
00000000
00000000
00000000
00000000
00000000
00000000
00000000
00000000
00000000
00000000
00000000
00000000
00000000
00000000
00000000
00000000
00000000
00000000
00000000
00000000
00000000
00000000
00000000
00000000
00000000
00000000
00000000
00000000
00000000
00000000
00000000
00000000
00000000
00000000
00000000
00000000
00000000
00000000
00000000
00000000
00000000
00000000
00000000
00000000
00000000
00000000
00000000
00000000
00000000
00000000
00000000
00000000
00000000
00000000
00000000
00000000
00000000
00000000
00000000
00000000
00000000
00000000
00000000
00000000
00000000
00000000
00000000
00000000
00000000
00000000
00000000
00000000
00000000
00000000
00000000
00000000
00033000
00000000
00000000
00000000
00000000
00000000
00000000
00000000
00000000
00000000
00000000
00000000
00000000
00000000
00000000
00000000
00000000
00000000
00000010
00000000
00000000
00000000
00000000
00000000
00000000
00000000
00000100
00000000
00000000
00000000
00000000
00000000
00000000
00000000
00001000
00000000
00000000
00000000
00000000
00000000
00000000
00000000
00010000
00000000
00000000
00000000
00000000
00000000
00000000
00000000
00000000
00000000
00000000
00000000
00000000
00000000
00000000
00000000
00000000
00000000
00000000
00000000
00000000
00000000
00000000
00000000
,
00001001
00000000
00001000
00001000
00000000
00000001
00000001
00000000
00000100
00000000
00001000
00001000
00000000
00000001
00000001
00000000
,
00000100
00000000
00000010
00000010
00000000
00000100
00000100
00000000
00001000
00000000
00000010
00000010
00000000
00000100
00000100
00000000
,
00000001
00000000
00000010
00000010
00000000
00000100
00000100
00000000
00001000
00000000
00000010
00000010
00000000
00001000
00001000
00000000
,
00000100
00000000
00000000
00000000
00000000
00000000
00000010
00000000
00000000
00000001
00000000
00000000
00000000
00000000
00000000
00000010
00000000
00000000
00000100
00000000
00000000
00000000
00000000
00000000
00000010
00000000
00000000
00000000
00000000
00000000
00000001
00000000
00000000
00000000
00000000
00000000
00001000
00000000
00000001
00000000
00001000
00000000
00000010
00000000
00000000
00000000
00000000
00000000
,
00010010
00000000
00001000
00001000
00000000
00000100
00000100
00000000
00010000
00000000
00001000
00001000
00000000
00000100
00000100
00000000
,
00010000
00000000
00000010
00000010
00000000
00001000
00001000
00000000
00000100
00000000
00010000
00010000
00000000
00000100
00000100
00000000
,
00001000
00000000
00000010
00000010
00000000
00000100
00000100
00000000
00001000
00000000
00010000
00010000
00000000
00000100
00000100
00000000
,
00001000
00000000
00000000
00000000
00000000
00000000
00010000
00000000
00000000
00000100
00000000
00000000
00000000
00000000
00000000
00001000
00000000
00000000
00000010
00000000
00000000
00000000
00000000
00000000
00000100
00000000
00000000
00000000
00000000
00000000
00001000
00000000
00000000
00000000
00000000
00000000
00000010
00000000
00010000
00000000
00000010
00000000
00001000
00000000
00000000
00000000
00000000
00000000
,
00100000
00000000
00010000
00001000
00000000
00100000
00010000
00001000
00010000
00001000
00000100
00001000
00010000
00100000
00010000
00001000
,
00001100
00000000
00010000
00100000
00000000
00010000
00001000
00000100
00001000
00010000
00001000
00000100
00001000
00010000
00001000
00000100
,
00010100
00000000
00100000
00001000
00000000
00010000
00000100
00001000
00010000
00001000
00100000
00010000
00001000
00000100
00001000
00010000
,
00110000
00000000
00000000
00000000
00000000
00000000
00100000
00000000
00000000
00001000
00000000
00000000
00000000
00000000
00000000
00010000
00000000
00000000
00000100
00000000
00000000
00001000
00000000
00000000
00010000
00000000
00000000
00100000
00000000
00000000
00010000
00000000
00000000
00001000
00000000
00000000
00010000
00000000
00001000
00000000
00010000
00000000
00001000
00000000
00000000
00000000
00000000
00000000
,
01100000
00000000
00100000
00010000
00000000
00001000
00100000
00000000
00010000
00000000
00100000
00001000
00000000
00010000
00100000
00000000
,
01001000
00000000
00100000
00010000
00000000
01000000
00100000
00000000
00010000
00000000
00001000
00010000
00000000
00100000
00010000
00000000
,
01001000
00000000
00100000
00010000
00000000
00010000
00100000
00000000
01100000
00000000
00010000
00001000
00000000
00100000
00010000
00000000
,
01100000
00000000
00000000
00100000
00000000
00000000
00010000
00000000
00000000
00001000
00000000
00000000
00011000
00000000
00000000
00001000
00000000
00000000
00010000
00000000
00000000
00100000
00000000
00000000
01100000
00000000
00000000
00100000
00000000
00000000
00010000
00000000
00000000
00001000
00000000
00000000
00001000
00000000
01000000
00000000
00100000
00000000
01000000
00000000
00000000
00000000
00000000
00000000
,
00110000
00000000
01000000
00100000
00000000
10000000
01000000
00000000
00100000
00000000
01000000
10000000
00000000
00010000
00100000
00000000
,
01000000
00000000
10000000
00100000
00000000
01000000
00010000
00000000
00100000
00000000
01000000
10000000
00000000
00100000
01000000
00000000
,
10000000
00000000
00100000
01000000
00000000
00010000
00100000
00000000
01000000
00000000
10000000
00100000
00000000
01000000
00010000
00000000
,
10000000
00000000
01000000
00100000
00000000
00010000
00100000
00000000
01000000
00000000
00010000
00100000
00000000
01000000
00100000
00000000
,
01000000
00000000
00100000
00100000
00000000
00001000
00001000
00000000
00010000
00000000
01000000
01000000
00000000
00100000
00100000
00000000
,
00010000
00000000
00001000
00001000
00000000
00010000
00010000
00000000
00100000
00000000
01000000
01000000
00000000
00100000
00100000
00000000
,
00010000
00000000
00001000
00001000
00000000
00100000
00100000
00000000
00010000
00000000
01000000
01000000
00000000
00100000
00100000
00000000
,
00010000
00000000
00100000
00100000
00000000
00001000
00001000
00000000
00010000
00000000
00100000
00100000
00000000
00010000
00010000
00000000
,
00100000
00000100
00001000
00000100
00001000
00000100
00001000
00000100
00001000
00000100
00001000
00000100
00001000
00000100
00001000
00000100
,
00100000
00010000
00100000
00010000
00100000
00010000
00100000
00010000
00100000
00010000
00100000
00010000
00100000
00010000
00100000
00010000
,
00001000
00010000
00001000
00010000
00001000
00010000
00001000
00010000
00001000
00010000
00001000
00010000
00001000
00010000
00001000
00010000
,
00000100
00100000
00000100
00100000
00000100
00100000
00000100
00100000
00000100
00100000
00000100
00100000
00000100
00100000
00000100
00100000
,
00001000
00000100
00001000
00000100
00001000
00000100
00001000
00000100
00001000
00000100
00001000
00000100
00001000
00000100
00001000
00000100
,
00001000
00010000
00001000
00010000
00001000
00010000
00001000
00010000
00001000
00010000
00001000
00010000
00001000
00010000
00001000
00010000
,
00000100
00001000
00000100
00001000
00000100
00001000
00000100
00001000
00000100
00001000
00000100
00001000
00000100
00001000
00000100
00001000
,
00000010
00000000
00000000
00010000
00000000
00000000
00000010
00000000
00000000
00010000
00000000
00000000
00000010
00000000
00000000
00010000
00000000
00000000
00000010
00000000
00000000
00010000
00000000
00000000
00000010
00000000
00000000
00010000
00000000
00000000
00000010
00000000
00000000
00010000
00000000
00000000
00000010
00000000
00001000
00000000
00000010
00000000
00010000
00000000
00000000
00000000
00000000
00000000
,
00001001
00000000
00000010
00000100
00000000
00000001
00000010
00000000
00001100
00000000
00000010
00000100
00000000
00000001
00000010
00000000
,
00001001
00000000
00000010
00000100
00000000
00000001
00000010
00000000
00001100
00000000
00000010
00000100
00000000
00000001
00000010
00000000
,
00001100
00000000
00000010
00000001
00000000
00000100
00000001
00000000
00000011
00000000
00000100
00001000
00000000
00000010
00000100
00000000
,
00000011
00000000
00000100
00001000
00000000
00000010
00000100
00000000
00000011
00000000
00001000
00000100
00000000
00000010
00000100
00000000
,
00000110
00000000
00010000
00001000
00000000
00000100
00001000
00000000
00000110
00000000
00010000
00000100
00000000
00001000
00000010
00000000
,
00011000
00000000
00000100
00001000
00000000
00000010
00000100
00000000
00011000
00000000
00000100
00001000
00000000
00000010
00000100
00000000
,
00011000
00000000
00000100
00001000
00000000
00000010
00000100
00000000
00011000
00000000
00000100
00000010
00000000
00001000
00000100
00000000
,
00011000
00000000
00000010
00000100
00000000
00001000
00010000
00000000
00001100
00000000
00000010
00000100
00000000
00001000
00000100
00000000
,
00100000
00000000
00010000
00001000
00000000
00100000
00010000
00000000
00001000
00000000
00000100
00010000
00000000
00100000
00001000
00000000
,
00000100
00000000
00001000
00010000
00000000
00001000
00100000
00000000
00010000
00000000
00000100
00001000
00000000
00010000
00100000
00000000
,
00000100
00000000
00010000
00001000
00000000
00100000
00010000
00000000
00001000
00000000
00000100
00010000
00000000
00001000
00100000
00000000
,
00010000
00000000
00000100
00001000
00000000
00010000
00100000
00000000
00001000
00000000
00010000
00000100
00000000
00001000
00010000
00000000
,
01000000
00000000
00010000
00100000
00000000
00001000
00010000
00000000
00100000
00000000
01000000
00010000
00000000
00100000
00001000
00000000
,
00010000
00000000
01000000
00100000
00000000
00010000
00100000
00000000
00001000
00000000
00010000
00100000
00000000
01000000
00010000
00000000
,
00100000
00000000
00001000
00010000
00000000
00100000
01000000
00000000
00010000
00000000
00100000
00001000
00000000
01000000
00010000
00000000
,
00100000
00000000
00001000
00010000
00000000
00100000
00001000
00000000
00010000
00000000
00100000
00010000
00000000
01000000
00100000
00000000
,
10010000
00000000
01000000
00100000
00000000
00010000
00100000
00000000
10000000
00000000
01000000
00100000
00000000
00010000
01000000
00000000
,
00100000
00000000
10000000
01000000
00000000
00100000
01000000
00000000
00010000
00000000
00100000
01000000
00000000
10000000
00100000
00000000
,
01000000
00000000
00010000
00100000
00000000
01000000
10000000
00000000
00100000
00000000
01000000
00010000
00000000
00100000
01000000
00000000
,
10000000
00000000
00100000
01000000
00000000
00010000
00100000
00000000
10000000
00000000
01000000
00100000
00000000
01000000
00010000
00000000
,
00010000
00000000
01000000
00010000
00000000
00100000
00001000
00000000
00010000
00000000
01000000
00010000
00000000
00100000
00001000
00000000
,
00010000
00000000
01000000
00010000
00000000
00100000
00001000
00000000
00010000
00000000
01000000
00010000
00000000
00100000
00001000
00000000
,
00010000
00000000
01000000
00100000
00000000
00010000
00001000
00000000
00100000
00000000
00010000
01000000
00000000
00100000
00010000
00000000
,
00001000
00000000
00010000
00100000
00000000
00001000
00010000
00000000
00100000
00000000
01000000
00010000
00000000
00100000
00010000
00000000
,
00100000
00000000
00001000
00010000
00000000
00000100
00001000
00000000
00110000
00000000
00010000
00001000
00000000
00000100
00010000
00000000
,
00101000
00000000
00010000
00000100
00000000
00001000
00010000
00000000
00101000
00000000
00000100
00010000
00000000
00001000
00010000
00000000
,
00001100
00000000
00100000
00010000
00000000
00001000
00010000
00000000
00001100
00000000
00100000
00010000
00000000
00001000
00010000
00000000
,
00001100
00000000
00100000
00001000
00000000
00010000
00000100
00000000
00101000
00000000
00010000
00000100
00000000
00001000
00010000
00000000
,
00010000
00001000
00000100
00001000
00000100
00010000
00001000
00010000
00001000
00000100
00001000
00000100
00000010
00000100
00001000
00000100
,
00010000
00001000
00000100
00000010
00000100
00001000
00010000
00001000
00000100
00001000
00000010
00000100
00001000
00000100
00001000
00000100
,
00010000
00001000
00000100
00001000
00000010
00000100
00001000
00000100
00000010
00000100
00001000
00000100
00000010
00000100
00001000
00000100
,
00010000
00000000
00000000
00001000
00000000
00000000
00000100
00000000
00000000
00000010
00000000
00000000
00001000
00000000
00000000
00000100
00000000
00000000
00000010
00000000
00000000
00000100
00000000
00000000
00001000
00000000
00000000
00000100
00000000
00000000
00000010
00000000
00000000
00000100
00000000
00000000
00000010
00000000
00001000
00000000
00000010
00000000
00001000
00000000
00000010
00000000
00001000
00000000
,
00002002
00000000
00000000
00000000
,
00000000
00000000
00000000
00003003
;

//---------------dance-double - TRICK----------------
#NOTES:
     dance-double:
     TRICK:
     Medium:
     7:
     0.528,0.555,0.594,0.014,0.000,889.000,171.000,4.000,0.000,0.000:
00000000
00000000
00000000
00000000
,
00000000
00000000
00000000
00000000
,
00000000
00000000
00000000
00000000
,
00000000
00000000
00000000
00000000
,
01000000
00001000
01000000
00000000
00001000
01000000
00001000
00000000
,
01000000
00100000
01000000
00000000
00001000
00100000
00001000
00000000
,
00010000
00100000
00010000
00000000
00100000
00010000
00100000
00000000
,
01000000
00100000
01000000
00100000
01000000
00000000
01001000
00000000
,
00100000
00010000
00100000
00010000
00100000
00010000
00100000
00000000
,
00001000
00000100
00001000
00000100
00001000
00000100
00001000
00000000
,
00010000
00001000
00010000
00001000
00010000
00001000
00010000
00000000
,
00100000
00000100
00100000
00000100
00100000
00000100
00100000
00000000
,
00010000
00001000
00010000
00001000
00010000
00001000
00010000
00000010
,
00010000
00000010
00010000
00000010
00010000
00000010
00010000
00000010
,
00000100
00000010
00000100
00000010
00000100
00000010
00000100
00000010
,
00001000
00000100
00001000
00000100
00001000
00000100
00001000
00000000
,
00001000
00000100
00000010
00000100
00000010
00000000
00000001
00000000
,
00000001
00000010
00000100
00000010
00000100
00000000
00001000
00000000
,
00000100
00000010
00000100
00000010
00001000
00000000
00000001
00000000
,
00000010
00000100
00000010
00000100
00000001
00000000
00001000
00000000
,
00010000
00000010
00010000
00000010
00001000
00000000
00000100
00000000
,
00000010
00010000
00000010
00010000
00000100
00000000
00001000
00000000
,
00010000
00000100
00010000
00000100
00001000
00000000
00000010
00000000
,
00000100
00000010
00000100
00000010
00001000
00000000
00000100
00000000
,
00100000
00000000
00100000
00000000
00001000
00010000
00001000
00000000
,
00010100
00000000
00010100
00000000
00001000
00100000
00001000
00000000
,
00110000
00000000
00110000
00000000
00001000
00000100
00001000
00000000
,
00001100
00000000
00001100
00000000
00100000
00010000
00100000
00000000
,
01010000
00000000
00011000
00000000
01000000
00001000
00100000
00000000
,
00110000
00000000
01001000
00000000
01000000
00001000
00100000
00000000
,
00011000
00000000
01100000
00000000
00010000
00001000
00100000
00000000
,
01100000
00000000
00101000
00000000
00010000
01000000
00100000
00000000
,
10000000
00000000
01000000
00000000
00100000
10000000
01000000
00000000
,
00010000
00000000
00100000
00000000
01000000
00100000
10000000
00000000
,
01000000
00000000
00100000
00000000
00010000
10000000
00100000
00000000
,
01000000
00000000
00010000
00000000
10000000
00010000
01000000
00000000
,
00010000
00000000
00100000
00000000
00001000
00010000
00100000
00000000
,
01000000
00000000
00010000
00000000
00100000
00001000
00010000
00000000
,
01000000
00000000
00010000
00000000
00100000
00001000
00010000
00000000
,
01000000
00000000
00100000
00000000
00010000
00001000
00100000
00000000
,
00100000
00000000
00001000
00000000
00010000
00000100
00001000
00000000
,
00100000
00000000
00000100
00000000
00010000
00001000
00000100
00000000
,
00100000
00000000
00001000
00000000
00010000
00000100
00001000
00000000
,
00100000
00000000
00001000
00000000
00010000
00001000
00001000
00000000
,
00010010
00001000
00000100
00001000
,
00010010
00000000
00000100
00001000
00000100
00001000
00000100
00000000
,
00010010
00000100
00000110
00001000
,
00011000
00010010
00000110
00010010
,
00001100
00000000
00001100
00000000
00001000
00000001
00001000
00000000
,
00000110
00000000
00000110
00000000
00000001
00001000
00000001
00000000
,
00001100
00000000
00001100
00000000
00000010
00000001
00000010
00000000
,
00000110
00000000
00000110
00000000
00000001
00001000
00000001
00000000
,
00010010
00000000
00010010
00000000
00000100
00001000
00000100
00000000
,
00011000
00000000
00011000
00000000
00000100
00000010
00000100
00000000
,
00000110
00000000
00000110
00000000
00010000
00001000
00010000
00000000
,
00010010
00000000
00010010
00000000
00000100
00001000
00000100
00000000
,
00100000
00000000
00100000
00000000
00010000
00001000
00010000
00000000
,
00010100
00000000
00010100
00000000
00001000
00010000
00001000
00000000
,
00110000
00000000
00110000
00000000
00100000
00000100
00100000
00000000
,
00010100
00000000
00010100
00000000
00000100
00100000
00000100
00000000
,
00110000
00000000
01001000
00000000
00100000
00010000
00100000
00000000
,
00011000
00000000
01100000
00000000
00010000
00001000
00010000
00000000
,
01100000
00000000
00011000
00000000
01000000
00100000
01000000
00000000
,
01001000
00000000
00110000
00000000
00001000
01000000
00001000
00000000
,
01100000
00000000
10010000
00000000
10000000
00010000
10000000
00000000
,
10000000
00000000
01000000
00000000
00100000
01000000
00100000
00000000
,
00010000
00000000
00100000
00000000
01000000
00100000
01000000
00000000
,
10000000
00000000
00100000
00000000
00010000
10000000
00010000
00000000
,
00100000
00000000
00010000
00000000
00001000
00010000
00001000
00000000
,
00100000
00000000
00010000
00000000
01000000
00100000
01000000
00000000
,
00100000
00000000
00010000
00000000
00001000
01000000
00001000
00000000
,
00100000
00000000
00010000
00000000
01000000
00100000
01000000
00000000
,
00010000
00000000
00001000
00000000
00000100
00100000
00000100
00000000
,
00010000
00000000
00001000
00000000
00100000
00000100
00100000
00000000
,
00010000
00000000
00000100
00000000
00100000
00010000
00001000
00000000
,
00000100
00000000
00001000
00000000
00000100
00010000
00100000
00000000
,
00010010
00000000
00000100
00001000
00000100
00000000
00001000
00000000
,
00010010
00000000
00001000
00000100
00001000
00000100
00001000
00000000
,
00010010
00000100
00010010
00000100
,
00010010
00001010
00000110
00011000
,
00001001
00000010
00000100
00000001
,
00000110
00001000
00000001
00000010
,
00001100
00000010
00000001
00000100
,
00000011
00000100
00000010
00001000
,
00001010
00000100
00010000
00001000
,
00000110
00001000
00010000
00000100
,
00001010
00000100
00000010
00001000
,
00010100
00001000
00000010
00001000
,
00100000
00010000
00100000
00010000
00100000
00010000
00100000
00001000
,
00100000
00001000
00100000
00001000
00100000
00001000
00100000
00000100
,
00010000
00000100
00010000
00000100
00010000
00000100
00010000
00001000
,
00100000
00001000
00100000
00001000
00100000
00001000
00100000
00000000
,
01000000
00001000
01000000
00001000
01000000
00001000
01000000
00000000
,
00010000
00100000
00010000
00100000
00010000
00100000
00010000
00000000
,
00001000
00010000
00001000
00010000
00001000
00010000
00001000
00000000
,
01000000
00100000
01000000
00100000
01000000
00100000
01000000
00000000
,
11000000
00000000
11000000
00000000
00100000
01000000
00100000
00000000
,
01010000
00000000
01010000
00000000
00100000
10000000
00100000
00000000
,
11000000
00000000
11000000
00000000
00100000
00010000
00100000
00000000
,
01010000
00000000
01010000
00000000
00100000
01000000
00100000
00000000
,
01001000
00000000
01001000
00000000
00100000
00001000
00100000
00000000
,
00110000
00000000
00110000
00000000
00001000
00100000
00001000
00000000
,
01100000
00000000
01100000
00000000
00010000
00001000
00010000
00000000
,
00101000
00000000
00101000
00000000
00010000
00100000
00010000
00000000
,
00100000
00010100
00001000
00110000
,
00001000
00010100
00001000
00110000
,
00000100
00011000
00100000
00011000
,
00000100
00011000
00100000
00010100
,
00000100
00011000
00000010
00001100
,
00010000
00001100
00000010
00001100
,
00020020
00000000
00000000
00000000
,
00000000
00000000
00000000
00030030
,
00001000
00000100
00001000
00000000
00000010
00000000
00000100
00000000
,
00000001
00000010
00000001
00000000
00000100
00000000
00000010
00000000
,
00001000
00000100
00001000
00000000
00000010
00000000
00000100
00000000
,
00000001
00000010
00000001
00000000
00000100
00000010
00000100
00000000
,
00010000
00001000
00010000
00000000
00000100
00000000
00001000
00000000
,
00000010
00000100
00000010
00000000
00001000
00000000
00000100
00000000
,
00010000
00001000
00010000
00000000
00000100
00000000
00001000
00000000
,
00000010
00010000
00000010
00000000
00000100
00001000
00000100
00000000
,
00100000
00010000
00001000
00000000
00100000
00000000
00000100
00000000
,
00100000
00000100
00010000
00000000
00001000
00000000
00010000
00000000
,
00000100
00001000
00010000
00000000
00100000
00000000
00000100
00000000
,
00010000
00001000
00100000
00000000
00100000
00000100
00010000
00000000
,
00010000
01000000
00100000
00000000
00010000
00000000
00100000
00000000
,
00001000
00010000
00100000
00000000
00010000
00000000
00001000
00000000
,
00100000
00010000
01000000
00000000
00101000
00000000
00001000
00000000
,
00101000
01001000
00110000
01001000
,
11000000
00000000
11000000
00000000
00100000
00010000
00100000
00000000
,
01010000
00000000
01010000
00000000
00100000
10000000
00100000
00000000
,
01100000
00000000
01100000
00000000
10000000
00010000
10000000
00000000
,
11000000
00000000
11000000
00000000
00100000
00010000
00100000
00000000
,
00101000
00000000
00101000
00000000
00010000
01000000
00010000
00000000
,
00110000
00000000
00110000
00000000
00001000
00010000
00001000
00000000
,
01100000
00000000
01100000
00000000
00010000
00001000
00010000
00000000
,
00110000
00000000
00110000
00000000
00001000
00010000
00001000
00000000
,
00100000
00000000
00011000
00000000
00000100
00100000
00001000
00000000
,
00110000
00000000
00001100
00000000
00100000
00010000
00001000
00000000
,
00010100
00000000
00101000
00000000
00010000
00000100
00001000
00000000
,
00110000
00000000
00010100
00000000
00001000
00100000
00010000
00000000
,
00010000
00000010
00010000
00000010
00010000
00000010
00010000
00000010
,
00000100
00000010
00000100
00000010
00000100
00000010
00000100
00000010
,
00001000
00000010
00001000
00000010
00001000
00000010
00001000
00000010
,
00010000
00000010
00010000
00000010
00010000
00000010
00010000
00000010
,
00001000
00000110
00000001
00000110
,
00001000
00000110
00000001
00000110
,
00001000
00001100
00000010
00000101
,
00001000
00000110
00000001
00000110
,
00010000
00001010
00000100
00011000
,
00000010
00001100
00010000
00001010
,
00000100
00011000
00000100
00001010
,
00000100
00011000
00000010
00001100
,
00110000
00000000
00110000
00000000
00001000
00010000
00001000
00000000
,
00010100
00000000
00010100
00000000
00001000
00100000
00001000
00000000
,
00100000
00000000
00100000
00000000
00001000
00010000
00001000
00000000
,
00110000
00000000
00110000
00000000
00001000
00000100
00001000
00000000
,
00101000
00000000
00101000
00000000
00010000
00100000
00010000
00000000
,
01100000
00000000
01100000
00000000
00001000
01000000
00001000
00000000
,
01100000
00000000
01100000
00000000
00010000
00001000
00010000
00000000
,
01001000
00000000
01001000
00000000
00010000
00100000
00010000
00000000
,
10010000
01000000
00100000
00010000
,
00100000
01000000
10000000
00100000
,
01000000
00010000
00100000
01000000
,
10000000
00000000
00010000
00000000
01000000
00010000
00100000
00000000
,
01100000
00010000
00100000
00001000
,
00010000
00100000
01000000
00010000
,
00100000
00001000
00010000
00100000
,
01000000
00000000
00010000
00000000
00100000
00001000
01000000
00000000
,
00011000
00100000
00010100
00001000
,
00110000
00001000
00100000
00010000
,
00001100
00010000
00101000
00000100
,
00110000
00001000
00100000
00001000
,
00010000
00000010
00010000
00000010
00010000
00000010
00010000
00000010
,
00000100
00000010
00000100
00000010
00000100
00000010
00000100
00000010
,
00001000
00000010
00001000
00000010
00001000
00000010
00001000
00000010
,
00001010
00011000
00001100
00010010
,
00000220
00000000
00000000
00000000
,
00000000
00000000
00000000
00000330
;
