#TITLE:Endless Flyer;
#SUBTITLE:;
#ARTIST:TJ_MS-DOM;
#TITLETRANSLIT:;
#SUBTITLETRANSLIT:;
#ARTISTTRANSLIT:;
#CREDIT:;
#BANNER:endless-bn.png;
#BACKGROUND:endless-bg.png;
#LYRICSPATH:;
#CDTITLE:;
#MUSIC:utopia2.mp3;
#OFFSET:-0.010;
#SAMPLESTART:67.200;
#SAMPLELENGTH:20.000;
#SELECTABLE:YES;
#BPMS:0.000=100.000,112.000=160.000;
#STOPS:;
#BGCHANGES:;
// cache tags:
#FIRSTBEAT:0.000;
#LASTBEAT:416.000;
#SONGFILENAME:Songs/Community Keyboard Megapack - Volume 2/(Moogy) Endless Flyer/endless.sm;
#HASMUSIC:1;
#HASBANNER:1;
#MUSICLENGTH:181.244;
// end cache tags

//---------------dance-single - ----------------
#NOTES:
     dance-single:
     :
     Challenge:
     12:
     1.000,1.000,1.000,0.000,1.000,1486.000,279.000,0.000,0.000,0.000:  // measure 1
1001
0000
0000
0000
,  // measure 2
0101
0000
0000
0000
,  // measure 3
1100
0000
0000
0000
,  // measure 4
1001
0000
0000
0000
,  // measure 5
0011
0000
0000
0000
,  // measure 6
1010
0000
0000
0000
,  // measure 7
1001
0000
0000
0000
,  // measure 8
0110
0000
0000
0000
,  // measure 9
1001
0000
0100
0000
0010
0000
0100
0000
1000
0000
0100
0000
0010
1000
0010
0000
0100
0000
0010
0000
0001
0000
0100
0000
0010
0000
1000
0000
0001
0000
0100
0000
,  // measure 10
1000
0100
1000
0100
0100
0010
0010
0001
0010
0100
0001
1000
0100
0010
0010
0100
,  // measure 11
1001
0100
0001
1000
0010
0010
0001
0001
0100
1000
0010
1000
0001
0100
0010
0100
,  // measure 12
1001
0000
0110
0000
1000
0000
0001
0000
1000
0000
0001
0000
0100
1000
0010
0100
0001
0000
0110
0000
1000
0000
0110
0000
0001
0000
1000
0000
0010
0000
0100
0000
,  // measure 13
0001
0000
0010
0000
0100
0000
1000
0000
0010
0000
0010
0000
0001
0000
0100
1000
0010
0000
0001
0000
0001
0000
0100
0000
0100
0000
0010
0000
1100
0000
0001
0000
,  // measure 14
1100
0100
0100
0100
0010
0001
1000
0010
0100
0011
1100
1100
0011
1000
0010
0100
,  // measure 15
0001
0010
1000
0001
0100
1010
1010
0010
0010
0100
0100
0010
0100
0001
1000
0010
,  // measure 16
1100
0000
0001
0000
0110
0000
1000
0000
0101
1000
0010
0100
1000
0010
0100
0001
1000
0000
0010
0000
0100
0000
0010
0000
0010
0000
0001
0000
0001
0000
0010
0000
,  // measure 17
1001
0000
0010
0000
1000
0000
0001
0000
0100
0000
0010
0000
0001
0100
0010
0001
0100
0000
1000
0000
1001
0000
0100
0000
0010
0000
1001
0000
0010
0000
0100
0000
,  // measure 18
1100
0010
0001
0100
1000
0001
0100
0010
0100
0001
1100
0010
0100
1000
0010
0001
,  // measure 19
1001
0001
1000
0010
0100
0001
0010
0100
1000
0010
1100
0001
0010
0100
0001
0010
,  // measure 20
1100
0000
0010
0000
1000
0000
0001
0000
0100
0000
0010
0000
1000
0100
0001
0010
0100
1000
0010
0000
1100
0000
0010
0000
0100
0000
1000
0000
0001
0000
0010
0000
,  // measure 21
0101
0000
0010
0000
1000
0000
0001
0000
0110
0000
1100
0010
0100
0001
1000
0010
0100
0000
0001
0000
1100
0000
0010
0000
0100
0000
0001
0000
0010
0000
0100
0000
,  // measure 22
1100
0001
0010
0001
1000
0100
1000
0001
0010
1000
0101
0100
1000
0001
0010
1000
,  // measure 23
0011
1000
0100
1000
0001
0010
0001
1000
0100
0001
1010
0010
0001
1000
0100
1000
,  // measure 24
0011
0000
0100
0000
1000
0000
0001
0000
0101
0000
1010
0100
0001
1000
0010
0100
0001
0010
0100
1000
0001
0010
1000
0001
0100
0010
1000
0100
0010
0001
1000
0100
,  // measure 25
1001
0010
0010
1000
0100
0001
0100
0100
1000
0100
0101
0100
0010
0010
0010
1000
,  // measure 26
0110
1000
1000
0100
0001
0010
0001
0001
0100
0001
0011
0001
1000
1000
1000
0100
,  // measure 27
0110
0001
0001
0010
1000
0100
1000
1000
0010
1000
1100
1000
0001
0001
0001
0010
,  // measure 28
0011
0100
1000
0010
0100
0001
1000
0100
0010
0001
0100
0010
1000
0001
0100
0001
0100
1000
0001
0010
0100
1000
0100
0010
0001
1000
0100
0010
0001
1000
0010
0100
,  // measure 29
1001
0000
0000
1010
0000
0001
1010
0100
,  // measure 30
1100
0000
0000
1001
0000
1000
0110
0001
,  // measure 31
1010
0000
0000
1001
0000
0100
1001
0100
,  // measure 32
1001
0000
0000
1001
0000
0010
1001
0100
,  // measure 33
0101
0000
0000
1001
0000
1000
0110
0001
,  // measure 34
1001
0000
0000
0101
0000
1000
0110
0001
,  // measure 35
1100
0000
0000
0101
0000
0100
1001
0010
,  // measure 36
1001
0000
0000
1001
0000
1000
0110
0001
,  // measure 37
1100
0001
0100
0001
1000
0010
0101
0010
0001
0010
0101
1000
0110
0001
1010
0100
,  // measure 38
0011
1000
0010
1000
0001
0100
1010
0100
1000
0100
1010
0001
0110
1000
0110
0001
,  // measure 39
1010
0100
1000
0100
0010
0001
1100
0001
0100
0001
1100
0010
1001
0100
0011
1000
,  // measure 40
0101
0010
0001
0010
0100
1000
0011
1000
0010
1000
0011
0100
1001
0100
1010
0100
,  // measure 41
0011
1000
0010
1000
0001
0100
1010
0100
1000
0100
1010
0001
0110
1000
0101
0010
,  // measure 42
0101
0010
0001
0010
0100
1000
0011
1000
0010
1000
0011
0100
1001
0010
1100
0001
,  // measure 43
1100
0001
0100
0001
1000
0010
0101
0010
0001
0010
0101
1000
0110
0001
1010
0100
,  // measure 44
0011
1000
0010
1000
0001
0100
1010
0100
1000
0100
1010
0001
0110
1000
0101
0010
,  // measure 45
1100
0010
0001
0010
0100
1000
0010
0100
0001
0100
0010
1000
0100
0001
0100
1000
,  // measure 46
0010
0001
0100
1000
0010
0001
0100
1000
0010
0001
0010
0100
1000
0010
0100
0001
,  // measure 47
0100
0001
0100
0001
1000
0010
0001
1000
0100
1000
0001
0010
1000
0100
1000
0010
,  // measure 48
0001
0100
1000
0010
0001
0100
1000
0010
0001
0100
0001
1000
0010
0001
1000
0100
,  // measure 49
1000
0100
0010
1000
0001
0100
1000
0001
0010
0001
1000
0100
0001
0010
0001
0100
,  // measure 50
1000
0010
0001
0100
1000
0010
0001
0100
1000
0010
1000
0001
0100
1000
0001
0010
,  // measure 51
0001
0100
1000
0100
0010
0001
0100
0010
1000
0010
0100
0001
0010
1000
0010
0001
,  // measure 52
0100
1000
0010
0001
0100
1000
0010
0001
0100
1000
0100
0010
0001
0100
0010
1000
,  // measure 53
0110
0001
0100
0001
1000
0010
0101
0010
0001
0010
0101
1000
0110
0001
1010
0100
,  // measure 54
0011
0100
0001
0010
0100
1000
0011
1000
0010
1000
0011
0100
1001
0010
1100
0001
,  // measure 55
1010
0100
1000
0100
0010
0001
1100
0001
0100
0001
1100
0010
1001
0100
0011
1000
,  // measure 56
0011
1000
0010
1000
0001
0100
1010
0100
1000
0100
1010
0001
0110
1000
0101
1000
,  // measure 57
0011
1000
0010
1000
0001
0100
1010
0100
1000
0100
1010
0001
0110
1000
0101
1000
,  // measure 58
0011
1000
0010
1000
0001
0100
1010
0100
1000
0100
1010
0001
0110
1000
0011
0100
,  // measure 59
1010
0100
1000
0100
0010
0001
1100
0001
0100
0001
1100
0010
1001
0100
0011
1000
,  // measure 60
0101
0010
0001
0010
0100
1000
0011
1000
0010
1000
0011
0100
1001
0010
1100
0001
,  // measure 61
1100
0001
0100
0001
1000
0010
0101
0010
0001
0010
0101
1000
0110
0001
1010
0100
,  // measure 62
1010
0001
0100
0001
1000
0010
0101
0010
0001
0010
0101
1000
0110
0001
1010
0001
,  // measure 63
1100
0001
0100
0001
1000
0010
0101
0010
0001
0010
0101
1000
0110
0001
1100
0010
,  // measure 64
0101
0010
0001
0010
0100
1000
0011
1000
0010
1000
0011
0100
1001
0010
1100
0001
,  // measure 65
1010
0100
1000
0100
0010
0001
1100
0001
0100
0001
1100
0010
1001
0100
0011
1000
,  // measure 66
0011
1000
0010
1000
0001
0100
1010
0100
1000
0100
1010
0001
0110
1000
0101
1000
,  // measure 67
0011
1000
0010
1000
0001
0100
1010
0100
1000
0100
1010
0001
0110
1000
0101
1000
,  // measure 68
0011
0100
1000
0100
0010
0001
1100
0001
0100
0001
1100
0010
1001
0100
0011
1000
,  // measure 69
0101
1000
0010
0001
0100
1000
0010
0001
0100
1000
0100
0010
0001
0100
0010
1000
,  // measure 70
0001
0100
1000
0010
0001
0100
1000
0010
0001
0100
0001
1000
0010
0001
1000
0010
,  // measure 71
0100
1000
0010
0001
0100
1000
0010
0001
0100
1000
0100
0010
0001
0100
0010
1000
,  // measure 72
0001
0100
1000
0010
0001
0100
1000
0010
0001
0100
0001
1000
0010
0001
1000
0100
,  // measure 73
1000
0010
0001
0100
1000
0010
0001
0100
1000
0010
1000
0001
0100
1000
0001
0010
,  // measure 74
0100
0001
0100
1000
0010
0001
0100
1000
0010
0001
0010
0100
1000
0010
0100
0001
,  // measure 75
0010
0001
0100
1000
0010
0001
0100
1000
0010
0001
0010
0100
1000
0010
0100
0001
,  // measure 76
0010
0001
0100
1000
0010
0001
0100
1000
0010
0001
0010
0100
1000
0010
0100
0001
,  // measure 77
1100
0001
0100
0001
1000
0010
0101
0010
0001
0010
0101
1000
0110
0001
1010
0100
,  // measure 78
0011
0100
0001
0010
0100
1000
0011
1000
0010
1000
0011
0100
1001
0010
1100
0001
,  // measure 79
1010
0100
1000
0100
0010
0001
1100
0001
0100
0001
1100
0010
1001
0100
0011
1000
,  // measure 80
0011
1000
0010
1000
0001
0100
1010
0100
1000
0100
1010
0001
0110
1000
0101
1000
,  // measure 81
0011
1000
0010
1000
0001
0100
1010
0100
1000
0100
1010
0001
0110
1000
0011
0100
,  // measure 82
1010
0100
0010
1000
0001
0100
1010
0100
1000
0100
1010
0001
0110
1000
0011
0100
,  // measure 83
1010
0100
1000
0100
0010
0001
1100
0001
0100
0001
1100
0010
1001
0100
0011
1000
,  // measure 84
0101
0010
0001
0010
0100
1000
0011
1000
0010
1000
0011
0100
1001
0010
1100
0001
,  // measure 85
1100
0001
0100
0001
1000
0010
0101
0010
0001
0010
0101
1000
0110
0001
1100
0010
,  // measure 86
0101
0010
0001
0010
0100
1000
0011
1000
0010
1000
0011
0100
1001
0010
1100
0001
,  // measure 87
1010
0100
1000
0100
0010
0001
1100
0001
0100
0001
1100
0010
1001
0100
0011
1000
,  // measure 88
0011
1000
0010
1000
0001
0100
1010
0100
1000
0100
1010
0001
0110
1000
0101
1000
,  // measure 89
0011
1000
0010
1000
0001
0100
1010
0100
1000
0100
1010
0001
0110
1000
0101
0010
,  // measure 90
0101
1000
0010
1000
0001
0100
1010
0100
1000
0100
1010
0001
0110
1000
0101
0010
,  // measure 91
1100
0010
1000
0100
0010
0001
1100
0001
0100
0001
1100
0010
1001
0100
0011
1000
,  // measure 92
0101
0010
0001
0010
0100
1000
0011
1000
0010
1000
0011
0100
1001
0010
1100
0001
,  // measure 93
0010
0001
0010
0100
1000
0010
0100
0001
0100
0010
1000
0100
0001
0100
1000
0010
,  // measure 94
0001
0010
1000
0001
0100
1000
0001
0010
0001
1000
0100
0001
0010
0001
0100
1000
,  // measure 95
0100
0001
0010
0100
1000
0010
0100
0001
0100
0010
1000
0100
0001
0100
1000
0010
,  // measure 96
1000
0100
0001
1000
0010
0001
1000
0100
1000
0001
0010
1000
0100
1000
0010
0001
,  // measure 97
1000
0100
0001
1000
0010
0001
1000
0100
1000
0001
0010
1000
0100
1000
0010
0001
,  // measure 98
1000
0100
0001
1000
0010
0001
1000
0100
1000
0001
0010
1000
0100
1000
0010
0001
,  // measure 99
0100
0001
0010
0100
1000
0010
0100
0001
0100
0010
1000
0100
0001
0100
1000
0010
,  // measure 100
0100
1000
0100
0010
0001
0100
0010
1000
0010
0100
0001
0010
1000
0010
0001
0100
,  // measure 101
0010
0000
0100
1000
0010
0000
1000
0000
0010
0100
0010
0001
0010
0100
1000
0000
,  // measure 102
1000
0000
0001
0100
1000
0000
0100
0000
1000
0001
1000
0010
1000
0001
0100
0000
,  // measure 103
0001
0100
1000
0010
0001
0000
0010
0000
0001
1000
0001
0100
0001
1000
0010
0000
,  // measure 104
0100
0000
0010
0001
0100
0000
0001
0000
0100
0010
0100
1000
0100
0010
0001
0010
,  // measure 105
1100
0000
0000
0000
;
