#TITLE:Through the Loop;
#SUBTITLE:;
#ARTIST:Pendulum;
#TITLETRANSLIT:;
#SUBTITLETRANSLIT:;
#ARTISTTRANSLIT:;
#CREDIT:;
#BANNER:throughtheloopbn.png;
#BACKGROUND:throughtheloopbg.png;
#LYRICSPATH:;
#CDTITLE:;
#MUSIC:throughtheloop.ogg;
#OFFSET:0.009;
#SAMPLESTART:67.200;
#SAMPLELENGTH:19.200;
#SELECTABLE:YES;
#BPMS:0.000=175.000;
#STOPS:;
#BGCHANGES:;
// cache tags:
#FIRSTBEAT:4.000;
#LASTBEAT:581.500;
#SONGFILENAME:Songs/Pendulum/Through the Loop/throughtheloop.sm;
#HASMUSIC:1;
#HASBANNER:1;
#MUSICLENGTH:207.000;
// end cache tags

//---------------dance-single - I. Pyles----------------
#NOTES:
     dance-single:
     I. Pyles:
     Beginner:
     1:
     0.025,0.034,0.000,0.000,0.000,36.000,0.000,0.000,0.000,0.000:

0000
0000
0000
0000
,
0001
0000
0000
0000
,
0000
0000
0000
0000
,
0000
0000
0000
0000
,
0000
0000
0000
0000
,
0010
0000
0000
0000
,
0000
0000
0000
0000
,
0000
0000
0000
0000
,
0000
0000
0000
0000
,
0010
0000
0000
0000
,
0000
0000
0000
0000
,
0000
0000
0000
0000
,
0000
0000
0000
0000
,
1000
0000
0000
0000
,
0000
0000
0000
0000
,
0000
0000
0000
0000
,
0000
0000
0000
0000
,
0100
0000
0000
0000
,
0000
0000
0000
0000
,
0000
0000
0000
0000
,
0000
0000
0000
0000
,
0010
0000
0000
0000
,
0000
0000
0000
0000
,
0000
0000
0000
0000
,
0000
0000
0000
0000
,
0010
0000
0000
0000
,
0000
0000
0000
0000
,
0000
0000
0000
0000
,
0000
0000
0000
0000
,
0010
0000
0000
0000
,
0000
0000
0000
0000
,
0000
0000
0000
0000
,
0000
0000
0000
0000
,
0010
0000
0000
0000
,
0000
0000
0000
0000
,
0000
0000
0000
0000
,
0000
0000
0000
0000
,
1000
0000
0000
0000
,
0000
0000
0000
0000
,
0000
0000
0000
0000
,
0000
0000
0000
0000
,
1000
0000
0000
0000
,
0000
0000
0000
0000
,
0000
0000
0000
0000
,
0000
0000
0000
0000
,
0100
0000
0000
0000
,
0000
0000
0000
0000
,
0000
0000
0000
0000
,
0000
0000
0000
0000
,
1000
0000
0000
0000
,
0000
0000
0000
0000
,
0000
0000
0000
0000
,
0000
0000
0000
0000
,
0010
0000
0000
0000
,
0000
0000
0000
0000
,
0000
0000
0000
0000
,
0000
0000
0000
0000
,
0010
0000
0000
0000
,
0000
0000
0000
0000
,
0000
0000
0000
0000
,
0000
0000
0000
0000
,
1000
0000
0000
0000
,
0000
0000
0000
0000
,
0000
0000
0000
0000
,
0000
0000
0000
0000
,
0100
0000
0000
0000
,
0000
0000
0000
0000
,
0000
0000
0000
0000
,
0000
0000
0000
0000
,
0100
0000
0000
0000
,
0000
0000
0000
0000
,
0000
0000
0000
0000
,
0000
0000
0000
0000
,
0100
0000
0000
0000
,
0000
0000
0000
0000
,
0000
0000
0000
0000
,
0000
0000
0000
0000
,
0010
0000
0000
0000
,
0000
0000
0000
0000
,
0000
0000
0000
0000
,
0000
0000
0000
0000
,
1000
0000
0000
0000
,
0000
0000
0000
0000
,
0000
0000
0000
0000
,
0000
0000
0000
0000
,
1000
0000
0000
0000
,
0000
0000
0000
0000
,
0000
0000
0000
0000
,
0000
0000
0000
0000
,
1000
0000
0000
0000
,
0000
0000
0000
0000
,
0000
0000
0000
0000
,
0000
0000
0000
0000
,
0010
0000
0000
0000
,
0000
0000
0000
0000
,
0000
0000
0000
0000
,
0000
0000
0000
0000
,
0010
0000
0000
0000
,
0000
0000
0000
0000
,
0000
0000
0000
0000
,
0000
0000
0000
0000
,
0010
0000
0000
0000
,
0000
0000
0000
0000
,
0000
0000
0000
0000
,
0000
0000
0000
0000
,
0010
0000
0000
0000
,
0000
0000
0000
0000
,
0000
0000
0000
0000
,
0000
0000
0000
0000
,
1000
0000
0000
0000
,
0000
0000
0000
0000
,
0000
0000
0000
0000
,
0000
0000
0000
0000
,
0010
0000
0000
0000
,
0000
0000
0000
0000
,
0000
0000
0000
0000
,
0000
0000
0000
0000
,
1000
0000
0000
0000
,
0000
0000
0000
0000
,
0000
0000
0000
0000
,
0000
0000
0000
0000
,
1000
0000
0000
0000
,
0000
0000
0000
0000
,
0000
0000
0000
0000
,
0000
0000
0000
0000
,
0001
0000
0000
0000
,
0000
0000
0000
0000
,
0000
0000
0000
0000
,
0000
0000
0000
0000
,
0100
0000
0000
0000
,
0000
0000
0000
0000
,
0000
0000
0000
0000
,
0000
0000
0000
0000
,
0010
0000
0000
0000
,
0000
0000
0000
0000
,
0000
0000
0000
0000
,
0000
0000
0000
0000
,
0100
0000
0000
0000
,
0000
0000
0000
0000
,
0000
0000
0000
0000
,
0000
0000
0000
0000
,
0010
0000
0000
0000
;

//---------------dance-single - I. Pyles----------------
#NOTES:
     dance-single:
     I. Pyles:
     Easy:
     3:
     0.172,0.307,0.126,0.000,0.000,223.000,26.000,0.000,0.000,0.000:



0000
0000
0000
0000
,
0010
0010
0000
0000
,
0000
0000
0000
0000
,
1000
0000
0001
0000
,
1000
0000
0001
0000
,
0100
0100
0000
0000
,
0000
0000
0000
0000
,
0010
0000
0100
0000
,
0010
0000
0100
0000
,
0010
0010
0000
0000
,
0000
0000
0000
0000
,
1000
0000
0001
0000
,
1000
0000
0001
0000
,
0100
0100
0000
0000
,
0000
0000
0000
0000
,
0010
0000
0100
0000
,
0010
0000
1000
0000
,
1000
0001
0000
0000
,
1000
0000
0000
0000
,
0001
1000
0000
0000
,
0001
0000
0000
0000
,
0010
0100
0000
0000
,
0010
0100
0000
0000
,
0100
0010
0000
0000
,
0010
0000
0000
0000
,
0100
0100
0000
0000
,
0000
0000
0000
0000
,
0000
0000
0000
0000
,
0000
0000
0000
0000
,
1000
0000
0001
0000
,
1000
0000
0001
0000
,
1000
0000
0001
0000
,
1000
0000
0001
0000
,
1000
0000
0010
0000
,
1000
0000
0100
0000
,
1000
0000
0001
0000
,
1000
0010
0100
0001
,
1000
0000
0100
0000
,
0010
0000
0001
0000
,
1000
0000
0010
0000
,
0100
0001
0010
0100
,
1000
0000
0001
0000
,
0010
0000
0100
0000
,
1000
0000
0001
0000
,
0100
0010
1000
0001
,
1000
0000
0000
0000
,
0001
0000
0000
0000
,
1000
0000
0000
0000
,
0110
0000
0000
0000
,
1001
0000
0000
0000
,
0101
0000
0000
0000
,
1100
0000
0000
0000
,
1001
1000
0001
1000
,
1001
0000
0000
0000
,
1010
0000
0000
0000
,
1000
0000
0000
0000
,
0001
0000
0000
0100
,
1001
0000
0000
0000
,
1010
0000
0000
0000
,
1001
0000
0000
0000
,
0011
0000
0000
0000
,
1001
0000
0000
0000
,
1010
0000
0000
0000
,
0001
0010
0100
0000
,
1000
0000
0001
0000
,
1000
0001
0000
0000
,
0001
1000
0000
0000
,
1000
0000
0000
0000
,
0000
0000
0000
0000
,
0001
1000
0000
0000
,
1000
0001
0000
0000
,
0001
1000
0000
0000
,
1000
1000
0000
0010
,
1000
0001
0000
0000
,
0001
1000
0000
0000
,
0000
0000
0000
0000
,
0000
0000
0000
0000
,
0010
0100
0000
0000
,
0100
0010
0000
0000
,
0010
0100
0000
0000
,
0010
0010
0000
0010
,
1000
0000
0010
0000
,
1000
0000
0100
0000
,
1000
0000
0001
0000
,
1000
0001
0010
0100
,
1000
0000
0100
0000
,
0010
0000
0001
0000
,
1000
0000
0010
0000
,
0100
0001
0010
0100
,
1000
0000
0001
0000
,
0010
0000
0100
0000
,
1000
0000
0001
0000
,
0100
0010
1000
0001
,
1000
0000
0000
0000
,
0001
0000
0000
0000
,
1000
0000
0000
0000
,
0110
0000
0000
0000
,
1001
0000
0000
0000
,
1010
0000
0000
0000
,
0011
0000
0000
0000
,
1001
0001
1000
0001
,
1001
0000
0000
0000
,
0101
0000
0000
0000
,
0001
0000
0000
0000
,
1000
0000
0000
0010
,
1001
0000
0000
0000
,
0101
0000
0000
0000
,
1001
0000
0000
0000
,
1100
0000
0000
0000
,
1001
0000
0000
0000
,
0101
0000
0000
0000
,
1000
0100
0010
0000
,
0001
0000
1000
0000
,
0001
1000
0000
0000
,
1000
0001
0000
0000
,
0001
0000
0000
0000
,
0000
0000
0000
0000
,
1000
0001
0000
0000
,
0001
1000
0000
0000
,
1000
0001
0000
0000
,
0001
0001
0000
0100
,
0001
1000
0000
0000
,
1000
0001
0000
0000
,
0000
0000
0000
0000
,
0000
0000
0000
0000
,
0100
0010
0000
0000
,
0010
0100
0000
0000
,
0100
0010
0000
0000
,
0100
0100
0000
0100
,
0010
0010
0000
0000
,
0000
0000
0000
0000
,
0000
0000
0000
0000
,
0000
0000
0000
0000
,
0100
0100
0000
0000
,
0000
0000
0000
0000
,
0000
0000
0000
0000
,
0000
0000
0000
0000
,
0010
0010
0000
0000
,
0000
0000
0000
0000
,
0000
0000
0000
0000
,
0000
0000
0000
0000
,
0100
0100
0000
0000
;

//---------------dance-single - I. Pyles----------------
#NOTES:
     dance-single:
     I. Pyles:
     Medium:
     7:
     0.413,0.562,0.232,0.155,0.029,515.000,48.000,32.000,51.000,0.000:






0000
0000
0000
0000
,
00M0
00M0
00M0
00M0
,
0000
0000
0000
0000
,
1000
1000
0100
0000
0010
0100
0000
0100
,
0010
0000
0010
0100
0000
0100
0010
0000
,
0M00
0M00
0M00
0M00
,
0000
0000
0000
0000
,
0001
0001
0010
0000
0100
0010
0000
0010
,
0100
0000
0100
0010
0000
0010
0100
0000
,
00M0
00M0
00M0
00M0
,
0000
0000
0000
0000
,
1000
1000
0100
0000
0010
0100
0000
0100
,
0010
0000
0010
0100
0000
0100
0010
0000
,
0M00
0M00
0M00
0M00
,
0000
0000
0000
0000
,
0001
0001
0010
0000
0100
0010
0000
0010
,
0100
0000
0100
0010
0000
0010
0100
0000
,
1000
1000
0001
0000
0100
0001
0000
1000
,
0001
0000
0100
0001
0000
1000
0001
0000
,
1000
1000
0100
0000
1000
0001
0000
1000
,
0100
0000
1000
0001
0000
1000
0100
0000
,
1000
1000
0001
0000
0010
0001
0000
1000
,
0001
0001
1000
0000
0010
1000
0000
0001
,
1000
1000
0010
0000
0100
0010
0000
0010
,
0100
0000
0100
0010
0000
0010
0100
0000
,
00M0
00M0
00M0
00M0
,
0000
000M
0M00
00M0
0M00
000M
M000
00M0
0M00
00M0
M000
000M
,
0000
0000
0000
0000
,
0000
0000
0000
0000
,
0001
1000
0001
1000
,
0001
1000
0001
1000
,
0001
1000
0001
1000
,
0001
1000
0001
1000
,
0001
0000
0011
0000
0000
1100
0000
0000
,
0001
0000
1000
0010
0010
0000
0100
0000
,
0001
0000
1000
0100
0100
0000
0010
0000
,
0001
0000
0000
1000
1000
0000
0001
0000
,
1000
0000
1010
0000
0000
0101
0000
0000
,
1000
0000
0001
0010
0010
0000
0100
0000
,
1000
0000
0001
0100
0100
0000
0010
0000
,
1000
0000
0000
0001
0001
0000
1000
0000
,
0001
0000
0101
0000
0000
1010
0000
0000
,
0001
0000
1000
0100
0100
0000
0010
0000
,
0001
0000
1000
0010
0010
0000
0100
0000
,
0001
0000
0000
1000
1000
0000
0001
0000
,
1000
0100
0010
0000
0100
0010
0000
0000
,
0001
0100
0010
0000
0100
0010
0000
0000
,
1000
0100
0010
0000
0100
0010
0000
0000
,
0004
4000
0000
0000
0000
0000
0000
0000
0000
3003
0000
0000
,
1001
0000
0201
0300
1002
0003
0010
0000
,
1001
0000
1200
0300
2001
3000
0001
0000
,
0100
0000
0000
0000
0010
0000
0000
0100
0000
0000
0010
0000
0000
0100
0000
0000
,
0010
0010
1000
0001
,
1001
0000
1200
0300
2001
3000
0010
0000
,
1001
0000
0201
0300
1002
0003
0010
0000
,
0001
0001
0010
0000
0100
0010
0000
0010
,
0100
0000
0100
0010
0000
0010
0100
0000
,
1001
0000
0001
0000
1000
0001
0000
0000
,
1001
0000
1000
0000
0001
1000
0000
0000
,
0002
0000
1000
0000
0000
0100
0000
0000
,
2003
0100
0000
3000
,
1001
0000
1000
0000
0001
1000
0000
0000
,
1001
0000
0001
0000
1000
0001
0000
1000
,
0200
0000
0000
0000
2300
0000
0000
0000
3002
0000
0000
0003
0010
0000
0100
0000
,
2000
0000
3010
0200
0000
0000
0320
0000
,
1030
1000
0001
0000
0100
0001
0000
1000
,
0001
0000
0100
0001
0000
1000
0001
0000
,
0040
0000
0000
0000
,
0000
0000
0000
0030
,
0001
0001
1000
0000
0100
1000
0000
0001
,
1000
1000
0001
0000
0100
0001
0000
1000
,
0001
0001
1000
0000
0100
1000
0000
1000
,
0010
0000
0010
0000
0000
0010
0010
0000
,
1000
1000
0010
0000
0100
0010
0000
0010
,
0100
0000
0100
0010
0000
0010
0100
0000
,
0001
0001
0001
0001
,
0001
0001
0001
0001
,
1000
1000
0001
0000
0010
0001
0000
1000
,
0001
0001
1000
0000
0010
1000
0000
0001
,
1000
1000
0001
0000
0010
0001
0000
0010
,
0001
0000
0001
0000
0000
0001
0001
0000
,
1000
0000
1100
0000
0000
0011
0000
0000
,
1000
0000
0001
0100
0100
0000
0010
0000
,
1000
0000
0001
0010
0010
0000
0100
0000
,
1000
0000
0000
0001
0001
0000
1000
0000
,
0001
0000
0101
0000
0000
1010
0000
0000
,
0001
0000
1000
0100
0100
0000
0010
0000
,
0001
0000
1000
0010
0010
0000
0100
0000
,
0001
0000
0000
1000
1000
0000
0001
0000
,
1000
0000
1010
0000
0000
0101
0000
0000
,
1000
0000
0001
0010
0010
0000
0100
0000
,
1000
0000
0001
0100
0100
0000
0010
0000
,
1000
0000
0000
0001
0001
0000
1000
0000
,
0001
0010
0100
0000
0010
0100
0000
0000
,
1000
0010
0100
0000
0010
0100
0000
0000
,
0001
0010
0100
0000
0010
0100
0000
0000
,
4000
0004
0000
0000
0000
0000
0000
0000
0000
3003
0000
0000
,
1001
0000
0021
0030
1002
0003
1010
0000
,
1001
0000
1200
0300
2001
3000
0110
0000
,
0010
0000
0000
0000
0100
0000
0000
0010
0000
0000
0100
0000
0000
0010
0000
0000
,
0100
0100
0001
1000
,
1001
0000
0021
0030
1002
0003
0100
0000
,
1001
0000
1020
0030
2001
3000
0100
0000
,
1000
1000
0100
0000
0010
0100
0000
0100
,
0010
0000
0010
0000
0000
0010
0010
0000
,
1001
0000
1000
0000
0001
1000
0000
0000
,
1001
0000
0001
0000
1000
0001
0000
0000
,
2000
0000
0000
0000
,
3002
0000
0000
0003
,
1001
0000
0001
0000
1000
0001
0000
0000
,
1001
0000
1000
0000
0001
1000
0000
0001
,
0020
0000
0000
0000
0032
0000
0000
0000
2003
0000
0000
3000
0100
0000
0010
0000
,
0002
0000
0103
0020
0000
0000
0230
0000
,
0301
0001
1000
0000
0010
1000
0000
0001
,
1000
0000
0010
1000
0000
0001
1000
0000
,
0400
0000
0000
0000
,
0000
0000
0000
0300
,
1000
1000
0001
0000
0010
0001
0000
1000
,
0001
0001
1000
0000
0010
1000
0000
0001
,
1000
1000
0001
0000
0010
0001
0000
0001
,
0100
0000
0100
0000
0000
0100
0100
0000
,
0001
0001
0100
0000
0010
0100
0000
0100
,
0010
0000
0010
0100
0000
0100
0010
0000
,
1000
1000
1000
1000
,
1000
1000
1000
1000
,
0001
0001
1000
0000
0100
1000
0000
0001
,
1000
1000
0001
0000
0100
0001
0000
1000
,
0001
0001
1000
0000
0100
1000
0000
0100
,
1000
0000
1000
0000
0000
1000
1000
0000
,
00M0
00M0
00M0
00M0
,
0000
0000
0000
0000
,
0000
0000
0000
0000
,
0000
0000
0000
0000
,
0M00
0M00
0M00
0M00
,
0000
0000
0000
0000
,
0000
0000
0000
0000
,
0000
0000
0000
0000
,
00M0
00M0
00M0
00M0
,
0000
0000
0000
0000
,
0000
0000
0000
0000
,
0000
0000
0000
0000
,
0M00
0M00
0M00
0M00
,
0000
0000
0000
0000
,
0000
0000
0000
0000
,
0000
0000
0000
0000
,
0000
0000
0000
MMMM
0000
0000
0000
0000
;

//---------------dance-single - I. Pyles----------------
#NOTES:
     dance-single:
     I. Pyles:
     Hard:
     10:
     0.674,0.808,0.208,0.159,0.312,901.000,43.000,33.000,55.000,0.000:








0000
0000
0000
0000
,
00M0
00M0
00M0
00M0
,
0000
0000
0000
0000
,
1000
0000
1000
0000
0010
0000
1000
0001
1000
0000
0100
0000
1000
0001
1000
0000
,
0010
0000
1000
0001
1000
0000
0100
0000
1000
0001
1000
0000
0010
0000
0000
0000
,
0M00
0M00
0M00
0M00
,
0000
0000
0000
0000
,
0001
0000
0001
0000
0100
0000
0001
1000
0001
0000
0010
0000
0001
1000
0001
0000
,
0100
0000
0001
1000
0001
0000
0010
0000
0001
1000
0001
0000
0100
0000
0000
0000
,
00M0
00M0
00M0
00M0
,
0000
0000
0000
0000
,
1000
0000
1000
0000
0010
0000
1000
0001
1000
0000
0100
0000
1000
0001
1000
0000
,
0010
0000
1000
0001
1000
0000
0100
0000
1000
0001
1000
0000
0010
0000
0000
0000
,
0M00
0M00
0M00
0M00
,
0000
0000
0000
0000
,
0001
0000
0001
0000
0010
0000
0001
1000
0001
0000
0100
0000
0001
1000
0001
0000
,
0010
0000
0001
1000
0001
0000
0100
0000
0001
1000
0001
0000
0010
0000
0000
0000
,
0001
0000
0001
0000
0010
0000
0100
1000
0100
0000
0010
0000
0001
1000
0001
0000
,
0010
0000
0100
1000
0100
0000
0010
0000
0001
1000
0001
0000
0010
0000
0000
0000
,
0001
0001
0010
0100
1000
0010
0100
0001
,
0010
0100
1000
0010
0100
0001
0010
0000
,
0001
0000
0001
0000
0100
0000
0010
1000
0010
0000
0100
0000
0001
1000
0001
0000
,
0100
0000
0100
0000
0010
0000
0100
0001
0100
0000
0010
0000
1000
0001
1000
0000
,
0001
0010
0001
0000
1000
0000
0100
0000
0010
0000
0001
0000
0100
0000
0010
0000
,
1000
0100
0010
0001
0100
0010
1000
0000
,
00M0
00M0
00M0
00M0
,
0000
000M
0M00
00M0
0M00
000M
M000
00M0
0M00
00M0
M000
000M
,
0000
0000
0000
0000
,
0000
0000
0000
0000
,
0M01
1M00
0M01
1M00
,
0001
1000
0001
1000
,
0001
1000
0001
1000
,
0001
1000
0001
1000
,
0001
1000
0010
1000
0001
0010
0100
1000
,
0001
1000
0010
0100
0100
0001
0010
0100
,
1000
0001
0010
0100
0100
1000
0010
0100
,
0001
1000
0010
1000
0001
0010
0100
1000
,
0001
1000
0010
1000
0001
0010
0100
1000
,
0001
1000
0010
0100
0100
0001
0010
0100
,
1000
0001
0010
0001
1000
0010
0100
0001
,
1000
0001
0010
0100
0100
1000
0010
0100
,
0001
1000
0010
1000
0001
0010
0100
1000
,
0001
1000
0010
0100
0100
0001
0010
0100
,
1000
0001
1000
0010
1000
0001
0010
0100
,
1000
0001
0010
0001
1000
0010
0100
0001
,
1000
0000
1000
0000
0010
0000
1000
0001
1000
0000
0010
0000
0100
0001
0100
0000
,
0010
0000
1000
0000
0100
0000
0010
0001
0010
0000
0100
0000
1000
0001
1000
0000
,
0001
0010
0100
1000
0010
0100
0001
1000
,
0001
0010
0100
1000
0001
0100
0010
1000
0001
0010
0000
0000
,
1001
0000
0000
0000
0201
0000
0300
0000
1002
0000
0003
0000
0001
1000
0000
1000
,
0001
0000
0000
0000
1200
0000
0300
0000
2001
0000
3000
0000
0001
0100
0000
0100
,
0010
0000
0000
0000
0110
0000
0000
0101
0000
0000
0110
0000
0000
0101
0000
0000
,
1010
0010
1000
0001
,
1001
0000
0000
0000
1200
0000
0300
0000
2001
0000
3000
0000
1000
0001
0000
0001
,
1000
0000
0000
0000
0201
0000
0300
0000
1002
0000
0003
0000
0001
1000
0000
1000
,
0001
0000
0001
0000
0010
0000
0100
1000
0100
0000
0010
0000
0001
1000
0001
0000
,
0010
0000
0100
1000
0100
0000
0010
0000
0001
1000
0001
0000
0010
0000
0000
0000
,
1001
0000
0001
0000
0100
0000
0010
1000
0010
0000
0100
0000
0000
0000
0000
0000
,
1001
0000
0001
0000
0010
0000
0100
1000
0100
0000
0010
0000
0000
0000
0000
0000
,
0002
0000
1000
0000
0000
0100
0000
0000
,
2003
0000
0000
0000
0100
0000
0000
0000
3000
0000
1000
0000
0001
0010
0001
0000
,
1001
0000
1000
0000
0100
0000
0010
0001
0010
0000
0100
0000
0000
0000
0000
0000
,
1001
0000
1000
0000
0010
0000
0100
0001
0100
0000
0010
0000
1000
0001
1000
0000
,
0200
0000
0000
0000
2300
0000
0000
0000
3002
0000
0000
0003
0010
0001
0010
0001
,
2000
0000
3010
0200
0000
0000
0320
0000
,
1030
0000
1000
0000
0100
0000
1000
0001
1000
0000
0010
0000
1000
0001
1000
0000
,
0100
0000
1000
0001
1000
0000
0010
0000
1000
0001
1000
0000
0010
0000
0100
0000
,
0001
0010
0100
0010
0001
1000
0001
0010
,
0100
0010
0100
0010
0100
0010
0001
1000
,
0001
0000
0001
0000
0010
0000
0100
1000
0100
0000
0010
0000
0000
0000
0000
0000
,
0001
0000
0001
0000
0100
0000
0010
1000
0010
0000
0100
0000
0000
0000
0000
0000
,
0001
0000
0001
0000
0010
0000
0100
1000
0100
0000
0010
0000
0000
0000
0000
0000
,
0010
0000
0000
0000
0010
0000
0000
0000
0001
1000
0010
0000
0010
0000
0000
0000
,
1000
0000
1000
0000
0010
0000
1000
0001
1000
0000
0100
0000
1000
0001
1000
0000
,
0010
0000
0100
0000
0001
0000
1000
0100
1000
0000
0001
0000
1000
0010
1000
0000
,
0001
1000
0001
1000
0001
1000
0001
1000
,
0001
1000
0001
1000
0001
1000
0001
1000
,
0001
0000
0001
0000
0010
0000
0100
1000
0100
0000
0010
0000
0001
1000
0001
0000
,
0010
0000
0010
0000
0100
0000
1000
0001
1000
0000
0010
0000
1000
0001
1000
0000
,
0100
0000
0100
0000
0010
0000
0100
1000
0100
0000
0010
0000
0001
1000
0001
0000
,
0010
0000
0100
1000
0100
0000
0010
0000
0001
1000
0010
0000
0010
0000
0000
0000
,
1001
1000
0010
1000
0001
0010
0100
1000
,
0001
1000
0010
0100
0100
0001
0010
0100
,
1000
0001
0010
0100
0100
1000
0010
0100
,
0001
1000
0010
1000
0001
0010
0100
1000
,
0001
1000
0010
1000
0001
0010
0100
1000
,
0001
1000
0010
0100
0100
0001
0010
0100
,
1000
0001
0010
0001
1000
0010
0100
0001
,
1000
0001
0010
0100
0100
1000
0010
0100
,
0001
1000
0010
1000
0001
0010
0100
1000
,
0001
1000
0010
0100
0100
0001
0010
0100
,
1000
0001
1000
0010
1000
0001
0010
0100
,
1000
0001
0010
0001
1000
0010
0100
0001
,
1000
0001
0010
0001
1000
0010
0100
0001
,
1000
0001
0010
0100
0100
1000
0010
0100
,
0001
1000
0010
1000
0001
0010
0100
1000
,
0001
0000
0010
0000
0100
0000
1000
0000
0001
0000
0100
0000
0010
0000
1000
0000
0001
0000
0020
0000
0000
0030
0000
0000
,
1001
0000
0021
0030
1002
0003
1010
0000
,
1001
0000
1200
0300
2001
3000
0110
0000
,
1010
0000
0000
0000
0110
0000
0000
1010
0000
0000
0110
0000
0000
1010
0000
0000
,
0101
0100
0001
1000
,
1001
0000
0000
0000
0021
0000
0030
0000
1002
0000
0003
0000
0001
1000
0000
1000
,
0001
0000
0000
0000
1020
0000
0030
0000
2001
0000
3000
0000
1000
0001
0000
0001
,
1000
0000
1000
0000
0100
0000
0010
0001
0010
0000
0100
0000
1000
0001
1000
0000
,
0100
0000
0010
0001
0010
0000
0100
0000
1000
0001
0010
0000
0010
0000
0000
0000
,
1001
0000
1000
0000
0010
0000
0100
0001
0100
0000
0010
0000
0000
0000
0000
0000
,
1001
0000
1000
0000
0100
0000
0010
0001
0010
0000
0100
0000
0000
0000
0000
0000
,
2000
0000
0000
0000
,
3002
0000
0000
0000
0000
0000
0000
0000
0003
0000
0001
0000
1000
0100
1000
0000
,
1001
0000
0001
0000
0010
0000
0100
1000
0100
0000
0010
0000
0000
0000
0000
0000
,
1001
0000
0001
0000
0100
0000
0010
1000
0010
0000
0100
0000
0001
1000
0001
0000
,
0020
0000
0000
0000
0032
0000
0000
0000
2003
0000
0000
3000
0100
1000
0100
1000
,
0002
0000
0103
0020
0000
0000
0230
0000
,
0301
0000
0001
0000
0010
0000
0001
1000
0001
0000
0100
0000
0001
1000
0001
0000
,
0010
0000
0001
1000
0001
0000
0100
0000
0001
1000
0001
0000
0100
0000
0010
0000
,
1000
0100
0010
0100
1000
0001
1000
0100
,
0010
0100
0010
0100
0010
0100
1000
0001
,
1000
0000
1000
0000
0100
0000
0010
0001
0010
0000
0100
0000
0000
0000
0000
0000
,
1000
0000
1000
0000
0010
0000
0100
0001
0100
0000
0010
0000
0000
0000
0000
0000
,
1000
0000
1000
0000
0100
0000
0010
0001
0010
0000
0100
0000
0000
0000
0000
0000
,
0100
0000
0000
0000
0100
0000
0000
0000
1000
0001
0100
0000
0100
0000
0000
0000
,
0001
0000
0001
0000
0100
0000
0001
1000
0001
0000
0010
0000
0001
1000
0001
0000
,
0100
0000
0010
0000
1000
0000
0001
0010
0001
0000
1000
0000
0001
0100
0001
0000
,
1000
0001
1000
0001
1000
0001
1000
0001
,
1000
0001
1000
0001
1000
0001
1000
0001
,
1000
0000
1000
0000
0100
0000
0010
0001
0010
0000
0100
0000
1000
0001
1000
0000
,
0100
0000
0100
0000
0010
0000
0001
1000
0001
0000
0100
0000
0001
1000
0001
0000
,
0010
0000
0010
0000
0100
0000
0010
0001
0010
0000
0100
0000
1000
0001
1000
0000
,
0100
0000
0010
0001
0010
0000
0100
0000
1000
0001
0100
0000
0100
0000
0000
0000
,
00M0
00M0
00M0
00M0
,
0000
0000
0000
0000
,
0000
0000
0000
0000
,
0000
0000
0000
0000
,
0M00
0M00
0M00
0M00
,
0000
0000
0000
0000
,
0000
0000
0000
0000
,
0000
0000
0000
0000
,
00M0
00M0
00M0
00M0
,
0000
0000
0000
0000
,
0000
0000
0000
0000
,
0000
0000
0000
0000
,
0M00
0M00
0M00
0M00
,
0000
0000
0000
0000
,
0000
0000
0000
0000
,
0000
0000
0000
0000
,
0000
0000
0000
MMMM
0000
0000
0000
0000
;

//---------------dance-single - I. Pyles----------------
#NOTES:
     dance-single:
     I. Pyles:
     Challenge:
     11:
     0.834,1.000,0.150,0.082,0.891,1161.000,31.000,17.000,83.000,0.000:











0000
0000
0000
0000
,
00M0
00M0
00M0
00M0
,
0000
0000
0000
0000
,
1000
0000
1000
0000
0010
0000
0100
0001
0100
0001
0010
0000
0100
1000
0100
1000
,
0001
0000
0100
0001
0100
0001
0010
0000
0100
1000
0100
1000
0001
0000
0000
0000
,
0M00
0M00
0M00
0M00
,
0000
0000
0000
0000
,
1000
0000
1000
0000
0010
0000
0100
0001
0100
0001
1000
0000
0100
0010
0100
0010
,
0001
0000
0100
0001
0100
0001
1000
0000
0100
0010
0100
0010
0001
0000
0000
0000
,
00M0
00M0
00M0
00M0
,
0000
0000
0000
0000
,
1000
0000
1000
0000
0010
0000
1000
0001
1000
0001
0010
0000
0100
1000
0100
1000
,
0010
0000
1000
0001
1000
0001
0010
0000
0100
1000
0100
1000
0010
0000
0000
0000
,
0M00
0M00
0M00
0M00
,
0000
0000
0000
0000
,
1000
0000
1000
0000
0010
0000
0100
0001
0100
0001
0010
0000
0100
0010
0100
0010
,
0001
0000
0100
0001
0100
0001
0010
0000
0100
0010
0100
0010
0001
0000
0000
0000
,
1000
0000
1000
0000
0010
0000
0100
0001
0010
0000
0100
0000
1000
0010
0100
0000
,
0010
0000
0100
0001
0010
0000
0100
0000
1000
0010
0100
0000
0010
0000
0000
0000
,
1000
0000
1000
0000
0010
0000
0100
0001
0100
0001
0010
0000
0100
1000
0100
1000
,
0001
0000
0100
0001
0100
0001
0010
0000
0100
1000
0100
1000
0001
0000
0000
0000
,
1000
0000
1000
0000
0010
0000
0100
0001
0010
0000
0100
0000
1000
0010
0100
0000
,
0100
0000
0001
0000
0010
0000
0100
1000
0010
0000
0100
0000
0001
0010
0100
0000
,
0010
0001
0100
0000
0010
0000
0100
0001
0100
0001
1000
0000
0100
0010
0100
0010
,
0001
0000
0100
0001
0100
0001
1000
0000
0100
0010
0100
0010
0001
0000
0000
0000
,
00M0
00M0
00M0
00M0
,
0000
000M
0M00
00M0
0M00
000M
M000
00M0
0M00
00M0
M000
000M
,
0000
0000
0000
0000
,
0000
0000
0000
0000
,
0M01
1M00
0M01
1M00
,
0001
1000
0001
1000
,
0001
1000
0001
1000
,
0001
1000
0001
1000
,
0001
1000
0010
1000
0001
0010
0100
1000
,
0001
1000
0010
0100
0100
0001
0010
0100
,
1000
0000
0001
0000
0010
0000
0100
0000
0100
0000
1000
0000
0010
1000
0001
0100
,
0001
0000
1000
0000
0010
0000
0100
0000
0100
0000
0001
0000
0010
0000
0100
1000
,
0001
1000
0010
1000
0001
0010
0100
1000
,
0001
1000
0010
0100
0100
0001
0010
0100
,
1000
0001
0010
0100
0100
1000
0010
0100
,
0001
0000
1000
0000
0010
0000
0100
0000
0100
0000
0001
0000
0010
0000
0100
1000
,
0001
1000
0010
1000
0001
0010
0100
1000
,
0001
1000
0010
0100
0100
0001
0010
0100
,
1000
0000
0001
0000
0010
0000
0100
0000
0100
0000
1000
0000
0010
0000
0100
0001
,
1000
0000
0001
0000
0010
0000
0100
0000
0100
0000
1000
0000
0010
0000
0100
0001
,
1000
0000
1000
0000
0010
0000
0100
0001
0100
0001
0010
0000
0100
1000
0100
1000
,
0001
0000
0000
1000
0001
0000
1000
0100
1000
0100
0010
0000
0100
1000
0100
1000
,
0001
0000
1000
0100
1000
0100
0010
0000
0100
1000
0100
1000
0001
0000
1000
0100
,
1000
0010
0100
0001
1000
0100
0010
0001
1000
0010
0000
0000
,
1001
0000
0000
0000
0101
0000
0100
0001
1000
0001
0010
M00M
0010
1000
0000
1000
,
0001
0000
0000
0000
1100
0000
0100
1000
0001
1000
0010
M00M
0010
0001
0000
0001
,
0100
0000
0000
0000
0110
0000
0000
0101
0000
0000
0110
0000
0000
0101
0000
0000
,
1010
0000
0000
0000
1001
0000
0001
0010
0100
0010
0100
1000
0010
1000
0100
1000
,
0001
0000
0000
0000
1100
0000
0100
1000
0001
1000
0010
M00M
0010
0001
0000
0001
,
1000
0000
0000
0000
0101
0000
0100
0001
1000
0001
0010
M00M
0010
1000
0000
1000
,
0001
0000
0001
0000
0100
0000
0010
1000
0010
1000
0001
0000
0010
0100
0010
0100
,
1000
0000
0010
1000
0010
1000
0001
0000
0010
0100
0010
0100
1000
0000
0000
0000
,
1001
0000
0000
0000
0001
0000
0000
0000
0010
0000
0000
0000
0100
0000
1000
0000
0001
0000
1000
0000
0010
0000
0000
M00M
0000
0000
0010
0000
0000
0000
0001
0000
,
1000
0000
0000
0000
1000
0000
0000
0000
0010
0000
0000
0000
0100
0000
0001
0000
1000
0000
0001
0000
0010
0000
0000
M00M
0000
0000
0010
0000
0000
0000
1000
0000
,
0001
0010
0001
0010
0100
1000
0010
1000
0010
1000
0100
0010
0001
0010
0001
0010
,
0100
1000
0100
1000
0001
0100
0010
0100
0010
0100
0001
1000
0100
1000
0010
1000
,
0001
0000
0000
0000
0001
0000
0000
0000
0010
0000
0000
0000
0100
0000
1000
0000
0001
0000
1000
0000
0010
0000
0000
M00M
0000
0000
0010
0000
0000
0000
0001
0000
,
1000
0000
0000
0000
1000
0000
0000
0000
0010
0000
0000
0000
0100
0000
0001
0000
1000
0000
0001
0000
0010
0000
0000
M00M
0000
0000
0010
0000
0000
0000
1000
0000
,
0200
0000
0000
0000
2300
0000
0000
0000
3002
0000
0000
0003
0010
0001
0010
0001
,
2000
0000
3010
0200
0000
0000
0320
0000
,
1030
0000
1000
0000
0100
0000
0010
0001
0010
0001
0100
0000
0010
0100
0010
0100
,
0001
0000
0000
0100
0001
0000
0010
0001
0010
0001
0100
0000
0010
0100
0010
0100
,
0001
0010
0100
0010
0001
1000
0001
0010
,
0100
0010
0100
0010
0100
0010
0001
1000
,
0001
0000
0001
0000
0010
0000
0100
1000
0010
0000
0100
0000
0001
0010
0100
0000
,
0010
0000
0010
0000
0100
0000
1000
0010
0100
0000
0010
0000
0100
0001
0010
0000
,
0100
0000
0100
0000
0010
0000
0000
0100
0010
0001
0010
0000
0000
0100
0010
0001
,
0010
0000
0000
0001
0010
0000
0001
1000
0001
1000
0010
0000
0010
0000
0000
0000
,
1000
0000
1000
0000
0100
0000
0010
0001
0010
0001
1000
0000
0010
0100
0010
0100
,
0001
0000
0000
0100
0001
0000
0010
0001
0010
0001
1000
0000
0010
0100
0010
0100
,
0001
1000
0001
1000
0001
1000
0001
1000
,
0001
0000
0100
0001
0010
0000
0100
0000
1000
0010
0100
0000
0010
0000
1000
0000
,
0001
0000
0001
0000
0010
0000
0100
1000
0010
0000
0100
0000
0001
0010
0100
0000
,
0010
0000
0010
0000
0100
0000
1000
0010
0100
0000
0010
0000
0100
0001
0010
0000
,
0001
0100
0010
0000
0100
0000
0010
1000
0010
1000
0001
0000
0010
0100
0010
0100
,
1000
0000
0001
0100
0010
0000
0100
0001
0100
0001
1000
0000
1000
0000
0001
0000
,
1001
0001
0010
0001
1000
0010
0100
0001
,
0010
0001
1000
0000
0010
0000
0100
0000
0100
0000
0001
0000
0010
0000
0100
0000
,
0010
0001
1000
0000
0010
0000
1000
0000
0001
0000
0010
0000
0100
1000
0001
0010
,
0001
0000
1000
0000
0010
0000
1000
0000
0001
0000
0010
0000
0100
0000
0010
0001
,
1000
0001
0010
0001
1000
0010
0100
0001
,
0010
0001
1000
0000
0010
0000
0100
0000
0100
0000
0001
0000
0010
0000
0100
0000
,
0010
0001
1000
0000
0010
0000
1000
0000
0001
0000
0010
0000
0100
1000
0001
0010
,
0001
0000
1000
0000
0010
0000
1000
0000
0001
0000
0010
0000
0100
0000
0010
0001
,
1000
0001
0010
0001
1000
0010
0100
0001
,
0010
0001
1000
0000
0010
0000
0100
0000
0100
0000
0001
0000
0010
0000
0100
0000
,
0010
0001
1000
0000
0010
0000
1000
0000
0001
0000
0010
0000
0100
1000
0001
0010
,
0001
0000
1000
0000
0010
0000
1000
0000
0001
0000
0010
0000
0100
0000
0010
0001
,
1000
0001
1000
0001
0010
0001
1000
0001
1000
0001
0100
0001
1000
0001
0100
0001
,
0010
0100
1000
0100
0010
0001
1000
0010
1000
0010
0100
0001
0010
0001
1000
0001
,
1000
0000
0010
0100
0001
1000
0100
1000
0100
1000
0001
1000
0010
1000
0010
1000
,
0001
0000
0010
0000
0100
0000
1000
0000
0001
0000
0100
0000
0010
0000
1000
0000
0001
0000
0020
0000
0000
0030
0000
0000
,
1001
0000
0021
0030
1002
0003
1010
0000
,
1001
0000
1200
0300
2001
3000
0110
0000
,
1010
0000
0000
0000
0110
0000
0000
1010
0000
0000
0110
0000
0000
1010
0000
0000
,
0101
0000
0000
0000
1001
0000
1000
0010
0100
0010
0100
0001
0010
0001
0100
0001
,
1000
0000
0000
0000
0101
0000
0100
0001
1000
0001
0010
M00M
0010
1000
0000
1000
,
0001
0000
0000
0000
1100
0000
0100
1000
0001
1000
0010
M00M
0010
0001
0000
0001
,
1000
0000
1000
0000
0100
0000
0010
0001
0010
0001
1000
0000
0010
0100
0010
0100
,
0001
0000
1000
0100
0010
0000
0100
1000
0100
1000
0001
0000
0001
0000
0000
0000
,
1001
0000
0000
0000
1000
0000
0000
0000
0010
0000
0000
0000
0100
0000
0001
0000
1000
0000
0001
0000
0010
0000
0000
M00M
0000
0000
0010
0000
0000
0000
1000
0000
,
0001
0000
0000
0000
0001
0000
0000
0000
0010
0000
0000
0000
0100
0000
1000
0000
0001
0000
1000
0000
0010
0000
0000
M00M
0000
0000
0010
0000
0000
0000
0001
0000
,
1000
0010
1000
0010
0100
0001
0010
0001
0010
0001
0100
0010
1000
0010
1000
0010
,
0100
0001
0100
0001
1000
0100
0010
0100
0010
0100
1000
0001
0100
0001
0010
0001
,
1000
0000
0000
0000
1000
0000
0000
0000
0010
0000
0000
0000
0100
0000
0001
0000
1000
0000
0001
0000
0010
0000
0000
M00M
0000
0000
0010
0000
0000
0000
1000
0000
,
0001
0000
0000
0000
0001
0000
0000
0000
0010
0000
0000
0000
0100
0000
1000
0000
0001
0000
1000
0000
0010
0000
0000
M00M
0000
0000
0010
0000
0000
0000
0001
0000
,
0200
0000
0000
0000
0302
0000
0000
0000
2003
0000
0000
3000
0010
1000
0010
1000
,
0002
0000
0013
0200
0000
0000
0320
0000
,
0031
0000
0001
0000
0100
0000
0010
1000
0010
1000
0100
0000
0010
0100
0010
0100
,
1000
0000
0000
0100
1000
0000
0010
1000
0010
1000
0100
0000
0010
0100
0010
0100
,
1000
0000
1000
0000
0010
0000
1000
0001
1000
0001
0100
0000
0010
0100
0010
0100
,
0001
0000
1000
0001
1000
0001
0100
0000
0010
0100
0010
0100
0001
0000
0000
0000
,
1000
0000
1000
0000
0100
0000
0010
0001
0100
0000
0010
0000
1000
0100
0010
0000
,
0100
0000
0100
0000
0010
0000
0001
0100
0010
0000
0100
0000
0010
1000
0100
0000
,
0010
0000
0010
0000
0100
0000
0000
0010
0100
1000
0100
0000
0000
0010
0100
1000
,
0100
0000
0000
1000
0100
0000
1000
0001
1000
0001
0100
0000
0100
0000
0000
0000
,
0001
0000
0001
0000
0010
0000
0100
1000
0100
1000
0001
0000
0100
0010
0100
0010
,
1000
0000
0000
0010
1000
0000
0100
1000
0100
1000
0001
0000
0100
0010
0100
0010
,
1000
0000
1000
0000
0100
0000
0010
0100
0010
0100
1000
0000
0010
1000
0010
1000
,
0001
0000
0010
0100
0010
0100
1000
0000
0010
1000
0010
1000
0001
0000
0000
0000
,
1000
0000
1000
0000
0010
0000
0100
0001
0010
0000
0100
0000
1000
0010
0100
0000
,
0010
0000
0010
0000
0100
0000
0001
0010
0100
0000
0010
0000
0100
1000
0010
0000
,
1000
0000
1000
0000
0010
0000
0000
0100
0001
0100
0010
0000
0000
0100
0001
0100
,
0010
0000
0000
0100
0010
0000
1000
0001
1000
0001
0010
0000
0010
0000
0000
0000
,
0M00
0M00
0M00
0M00
,
0000
0000
0000
0000
,
0000
0000
0000
0000
,
0000
0000
0000
0000
,
00M0
00M0
00M0
00M0
,
0000
0000
0000
0000
,
0000
0000
0000
0000
,
0000
0000
0000
0000
,
0M00
0M00
0M00
0M00
,
0000
0000
0000
0000
,
0000
0000
0000
0000
,
0000
0000
0000
0000
,
00M0
00M0
00M0
00M0
,
0000
0000
0000
0000
,
0000
0000
0000
0000
,
0000
0000
0000
0000
,
0000
0000
0000
MMMM
0000
0000
0000
0000
;
