#TITLE:SuperSonic;
#SUBTITLE:;
#ARTIST:Planetboom;
#TITLETRANSLIT:;
#SUBTITLETRANSLIT:;
#ARTISTTRANSLIT:;
#CREDIT:;
#BANNER:SuperSonic-bn.png;
#BACKGROUND:SuperSonic-bg.jpg;
#LYRICSPATH:;
#CDTITLE:Type MARS.png;
#MUSIC:SuperSonic.mp3;
#OFFSET:0.500;
#SAMPLESTART:56.420;
#SAMPLELENGTH:12.300;
#SELECTABLE:YES;
#BPMS:0.000=78.000,8.000=156.000,236.000=39.000,237.000=156.000;
#STOPS:;
#BGCHANGES:-0.600=SuperSonic.avi=1.000=1=1=0,
99999=-nosongbg-=1.000=0=0=0 // don't automatically add -songbackground-
;
// cache tags:
#FIRSTBEAT:8.000;
#LASTBEAT:255.000;
#SONGFILENAME:Songs/Definitive Keyboard Megapack/SuperSonic(typeMARS)/SuperSonic.sm;
#HASMUSIC:1;
#HASBANNER:1;
#MUSICLENGTH:106.430;
// end cache tags

//---------------dance-single - ----------------
#NOTES:
     dance-single:
     :
     Beginner:
     2:
     0.220,0.270,0.038,0.038,0.000,156.000,4.000,4.000,0.000,0.000:
0000
0000
0000
0000
,
0000
0000
0000
0000
,
0001
0000
0000
1001
,
0000
0000
0100
0000
,
0010
0000
0000
0110
,
0000
0000
0100
0000
,
0001
0000
0001
0000
,
0100
0000
1000
0000
,
1000
0000
1000
0000
,
0100
0000
0001
0000
,
0100
0000
0010
0000
,
0100
0000
0010
0000
,
1000
0000
0100
0000
,
2000
0000
0000
3000
,
0001
0000
1000
0000
,
0001
0000
1000
0000
,
0001
0001
0100
0000
,
0001
0100
0100
0000
,
0010
0000
1000
0000
,
0010
0000
1000
0000
,
0100
0100
0001
0000
,
0001
0001
0100
0000
,
0010
0010
0000
1000
,
0000
0100
0100
0001
,
0001
0000
0100
0000
,
1000
1000
0010
0000
,
0100
0001
0000
0001
,
0000
0001
1000
1000
,
0010
0000
0100
0000
,
0001
0001
0100
0000
,
0100
0000
0100
0000
,
1000
0000
0001
0000
,
0100
0100
0001
0000
,
0001
0001
0200
0000
,
0000
0000
0300
0000
,
0001
0000
0001
0100
,
0100
0000
0010
1000
,
1000
0000
0100
0001
,
0001
0100
0100
0010
,
1000
0000
0100
0100
,
0001
0000
0001
0001
,
1000
0000
1000
0001
,
0001
1000
0100
0100
,
1000
0000
0010
0000
,
0100
0000
0001
0001
,
1000
0000
0010
0010
,
0100
0010
0100
0100
,
0010
0000
1000
0000
,
0001
0000
0100
0000
,
0001
0000
1000
1000
,
0001
0001
0001
1000
,
0001
0100
0000
0010
,
0010
1000
0000
1000
,
0001
0000
0001
0100
,
0100
0010
0010
0010
,
1000
0000
0100
1000
,
1000
0000
0001
0001
,
0100
0000
0010
0010
,
1000
0001
0100
0100
,
0020
0030
0001
0000
0000
0000
0000
0000
,
1001
0000
0000
1000
,
0000
0100
0000
0000
,
0110
0000
0000
0010
,
0000
0200
0000
0300
;

//---------------dance-single - ----------------
#NOTES:
     dance-single:
     :
     Easy:
     4:
     0.341,0.389,0.272,0.056,0.000,219.000,29.000,6.000,0.000,0.000:
0000
0000
0000
0000
,
0000
0000
0000
0000
,
1000
0000
0001
1001
,
0000
0000
0100
0010
,
0110
0000
1000
1100
,
0000
0010
0200
0000
,
0301
0100
0001
1000
,
0001
0100
0001
0010
,
1000
0100
1000
0001
,
1000
0100
1000
0010
,
0100
0010
0100
0001
,
0100
0010
0100
1000
,
0010
0100
0001
1000
,
0020
0000
0000
0130
,
1000
0001
1000
0001
,
0100
0010
0100
0010
,
1000
0100
0010
0100
,
0001
0010
0100
0010
,
0001
0100
1000
0100
,
0001
0100
1000
0100
,
0001
0010
1000
0010
,
0001
0010
1000
0110
,
0001
0100
0000
0110
,
0010
1000
0000
1001
,
0100
0001
0000
1001
,
0010
0001
0000
0110
,
1000
0100
0000
0101
,
0001
0100
0000
1100
,
1000
0010
0000
0011
,
0001
1000
0000
1010
,
1000
0100
0001
0001
,
0001
0100
1000
1000
,
1000
0010
0100
0001
,
0100
0010
2000
0000
,
0000
0000
0000
0000
,
3001
0100
0010
1000
,
0100
0100
1000
0010
,
0100
0001
0100
0100
,
0010
1000
0001
1001
,
1000
0100
0010
0001
,
0100
0010
1000
1000
,
0100
1000
0010
0100
,
0001
0001
0100
0110
,
0010
1000
0001
0001
,
0100
0010
0001
0001
,
0100
0010
1000
1000
,
0100
0010
0001
1001
,
0100
0010
1000
1000
,
0010
0100
0001
0100
,
0010
1000
0010
0010
,
0100
0001
0010
0110
,
1000
0001
0100
0101
,
0001
1000
0010
1010
,
0100
0010
0001
1001
,
0100
0010
1000
1100
,
0100
0010
0001
0101
,
0100
0010
1000
1001
,
0100
0010
1000
1010
,
0010
0001
0100
0110
,
2002
3003
0010
0000
0000
0000
1000
0000
,
1001
0000
0000
0001
,
0100
0110
0000
0010
,
1001
0000
0100
0110
,
0000
0200
0000
0300
;

//---------------dance-single - ----------------
#NOTES:
     dance-single:
     :
     Medium:
     7:
     0.439,0.479,0.207,0.056,0.000,299.000,22.000,6.000,0.000,0.000:
0000
0000
0000
0000
,
0000
0000
0000
0000
,
1001
0000
0000
0100
0010
0000
0110
0000
,
0000
0001
0100
0000
0010
0000
1010
0000
,
0101
0000
0000
0001
1000
0000
1001
0000
,
0000
0000
0010
0000
0100
0002
0000
0000
,
1003
0010
1000
1001
,
0001
0010
0001
1001
,
0100
0010
0100
0110
,
0010
0100
0010
0110
,
1000
0100
0001
1100
,
0001
0100
1000
0101
,
0010
0001
0100
1010
,
0200
0000
0000
0310
,
0001
0000
0100
0000
0010
1000
0001
0000
,
0100
0000
0010
0000
1000
0001
0100
0000
,
0010
0000
1000
0000
0001
0100
0010
0000
,
1000
0000
0001
0000
0100
0010
1000
0000
,
0010
0000
0100
0000
0001
0100
1000
0000
,
0010
0000
0100
0000
1000
0100
0001
0000
,
0010
0000
0100
0000
0001
0100
1000
0000
,
0010
0000
0100
0000
1000
0100
0001
0000
,
0010
0100
0000
0001
0000
0100
0000
0010
,
0100
0010
0000
1000
0000
0001
0000
0100
,
0010
1000
0000
0100
0000
0010
0000
1000
,
0001
0100
0000
0010
0000
0100
0001
0000
,
0100
0001
0000
0010
0000
0100
0010
0000
,
0100
0001
0000
0100
0000
0010
1000
0000
,
0100
1000
0000
0010
0000
0100
0001
0000
,
0100
0010
0000
1000
0010
0100
0010
0000
,
1000
0000
0001
0000
0100
0001
1000
0000
,
0010
0000
0100
0000
0001
1000
0100
0000
,
0010
0000
1000
0000
0001
0100
0001
0100
,
0010
0000
1000
0010
0200
0000
0000
0000
,
0000
0000
0000
0000
,
0301
0000
0100
0000
0010
1000
0000
1000
,
0100
0000
0001
0000
0100
0010
1000
0000
,
0100
0000
0001
0000
1000
0010
0000
0010
,
0100
0000
0001
0100
0001
0000
1001
0000
,
0010
0000
0100
0000
0001
1000
0000
1000
,
0100
0000
0010
0000
1000
0001
0100
0000
,
0010
0000
1000
0000
0001
0100
0000
0100
,
0010
0000
1000
0001
0100
0000
0110
0000
,
0001
0000
0100
0010
1000
0001
0000
0100
,
0010
0000
1000
0000
0001
0100
0010
0000
,
1000
0000
0001
0100
0010
0100
0000
0010
,
1000
0000
0001
0100
0010
0000
0101
0000
,
0010
0000
1000
0100
0010
0100
0000
0010
,
1000
0000
0001
0000
0100
0010
1000
0000
,
0010
0000
0100
0001
0100
0001
0000
0100
,
0010
0000
1000
0001
0100
0000
1001
0000
,
0010
0001
0100
0000
0010
0000
1100
0000
,
0010
1000
0100
0000
0010
0000
0101
0000
,
0001
1000
0100
0000
0010
0000
1001
0000
,
1000
0001
0100
0000
0010
0000
1001
0000
,
0100
0010
1000
0000
0001
0100
0010
0000
,
1000
0010
0001
0000
0001
0010
1000
0000
,
0001
0100
0010
1000
0100
0010
0001
0010
,
0100
0010
0001
0100
0010
1000
0100
0010
,
0200
0300
0001
0100
0000
0100
0010
0000
,
0110
0000
0000
0010
1000
0000
0001
0100
,
0001
0000
0100
0010
0000
1000
0001
0000
,
1001
0000
0000
0001
0100
0000
0010
0200
,
0000
0320
0000
0030
;

//---------------dance-single - ----------------
#NOTES:
     dance-single:
     :
     Hard:
     9:
     0.589,0.599,0.395,0.094,0.000,387.000,42.000,10.000,0.000,0.000:
0000
0000
0000
0000
,
0000
0000
0000
0000
,
1000
0001
0000
0001
0100
0000
0100
0010
,
0000
0010
1000
0000
1000
0001
1000
0000
,
0010
0001
0000
0001
0100
0000
0100
0010
,
0000
1000
0100
0000
0001
0200
0000
0000
,
0310
0000
1010
0000
1000
0100
0001
0000
,
0001
0000
0101
0000
0001
0100
1000
0000
,
0010
0000
0110
0000
0100
0001
1000
0000
,
0100
0000
0110
0000
0010
0001
1000
0000
,
0100
0000
0101
0000
0001
0100
1000
0000
,
0010
0000
1010
0000
0100
0001
1000
0000
,
0010
0000
1100
0000
0010
0001
0100
0010
,
2000
0000
0000
0000
0000
0001
3001
0000
,
0100
0010
1000
0001
0100
0000
1001
0000
,
0010
0001
0100
0010
1000
0000
1100
0000
,
0001
0010
0100
1000
0010
0000
0101
0000
,
0010
1000
0100
0010
0001
0000
1100
0000
,
0010
0001
0100
0010
1000
0100
0010
0000
,
0001
0100
0010
1000
0100
0010
0001
0000
,
1000
0010
0100
0001
0010
0100
1000
0000
,
0001
1000
0010
0100
0001
0100
0010
1000
,
0001
0001
0100
0010
1000
0100
0010
0001
,
0100
0100
0010
1000
0100
0010
0100
1000
,
0001
0001
0010
0100
0010
0001
0100
0010
,
1000
1000
0010
0100
0001
0010
0100
0010
,
0001
0001
0100
0010
1000
0100
0010
0001
,
0100
0100
0010
1000
0100
0010
0100
1000
,
0001
0001
0100
0010
1000
0100
0010
0001
,
0100
0100
0010
1000
0001
0100
0010
0100
,
0001
1000
0010
0100
0001
0100
0101
0000
,
1000
0010
0100
0010
1000
0100
1100
0000
,
0010
0001
0100
0010
1000
0100
0101
0000
,
0001
0100
0010
1000
0002
0000
0000
0000
,
0000
0000
0000
0100
,
1003
0000
0001
0100
0010
1000
0000
0001
,
0100
0000
0101
0000
0010
0001
0100
0010
,
1000
0000
0100
0001
1000
0010
0000
0100
,
0010
0001
0100
0010
2000
0000
3001
0000
,
0100
0000
0010
0001
0100
0010
0000
1000
,
0100
0000
1001
0000
0100
0010
1000
0001
,
0100
0000
0010
1000
0001
0100
0000
0010
,
1000
0000
0001
0100
2000
0000
3001
0000
,
0010
0100
0001
1000
0010
0100
0000
0101
,
0001
0000
0100
0000
0010
1000
0100
0001
,
0100
0000
0010
1000
0001
0100
0000
0101
,
0001
0100
0010
1000
0002
0000
1003
0000
,
0001
0000
0100
0010
1000
0001
0000
0110
,
0010
0000
0101
0000
1000
0010
0100
0100
,
0010
0000
1000
0001
0100
0001
0000
1100
,
1000
0010
0100
0001
0020
0000
0130
0000
,
1000
0001
0100
0010
1000
0100
0101
0000
,
0001
0100
0010
1000
0100
0010
0110
0000
,
1000
0100
0010
0001
0010
0100
1100
0000
,
1000
0010
0001
0100
0010
1000
1100
0000
,
0010
0001
0100
0010
0100
1000
1001
0001
,
0100
0010
0001
0100
0010
1000
1100
0100
,
1000
0010
0110
0100
0001
1000
1001
0100
,
0010
0100
1001
0010
0100
0010
1001
0010
,
0200
0000
0310
0110
0000
0001
1001
0000
,
0100
0101
0000
0001
1001
0000
0110
0100
,
0110
0000
0001
0101
0100
0010
0110
0100
,
1000
1100
0100
0001
1001
0100
0010
0210
,
0000
0320
0000
0030
;

//---------------dance-single - ----------------
#NOTES:
     dance-single:
     :
     Challenge:
     12:
     1.000,1.000,1.000,0.808,1.000,761.000,111.000,86.000,0.000,0.000:
0000
0000
0000
0000
,
0000
0000
0000
0000
,
1001
0000
1001
0000
0010
0100
1001
0000
1001
0000
0100
0010
1001
0000
1001
0000
,
0010
0100
1001
0000
1001
0000
0010
0100
1001
0000
0100
0010
1001
0000
1000
0001
,
0110
0000
0110
0000
0001
1000
0110
0000
0110
0000
1000
0001
1100
0000
1100
0000
,
0001
1000
0101
0000
0101
0000
0010
1000
0101
0000
2002
0000
0000
0000
3003
0000
,
0101
0000
1000
0000
0110
0000
1000
0010
0001
0100
0010
1000
0101
0000
0010
0000
,
0101
0000
0010
0000
1100
0000
0010
0001
0100
0010
1000
0100
0011
0000
0100
0000
,
1010
0000
0100
0000
1001
0000
0010
0001
0100
0010
1000
0100
0011
0000
1000
0000
,
0110
0000
0001
0000
0100
0000
0010
1000
0100
0001
0010
0000
1000
0001
0100
0000
,
0110
0000
0001
0000
1100
0000
0010
0001
0100
0010
1000
0100
0010
0001
1100
0000
,
0011
0000
0100
0000
1010
0000
0100
0010
0001
0100
1000
0010
0100
1000
0011
0000
,
1100
0000
0010
0000
0101
0000
0010
1000
0100
0010
0001
0100
0010
1000
0100
0000
,
1002
0000
1000
0000
0100
0000
0100
0000
0010
1000
0010
1000
0023
0000
0000
0030
,
1001
0000
0100
0001
1000
0000
0010
1000
0000
0100
0001
1000
0001
0000
1001
0000
,
0100
0000
0010
1000
0001
0000
0100
0010
1000
0100
0011
0000
1100
0000
0101
0000
,
0110
0000
0001
1000
0100
0000
0010
0001
0000
0001
1000
0100
0010
0000
1100
0000
,
0011
0000
0100
0010
1000
0000
0001
0100
0010
1000
0100
0000
0011
0000
0101
0000
,
1100
0000
0010
0100
0001
0000
0010
0001
0100
0010
1000
0100
0000
0001
0100
1000
,
0010
0000
0100
0001
0010
0000
0100
0010
0001
0100
0010
1000
0000
0100
0010
1000
,
0100
0000
0001
0100
0010
0000
1000
0100
0010
0100
1000
0010
0000
0100
0001
0010
,
0001
0000
0100
0010
1000
0100
0010
0001
0010
0100
1000
0010
0100
0001
1000
0001
,
1100
0010
0010
0101
0100
0100
1100
1000
,
1001
0010
0100
1010
0100
0001
0110
0001
,
1100
0010
0010
0101
0010
1000
0101
0001
,
1100
0000
0010
0000
0100
0000
0011
0000
0100
0000
0010
1000
0002
0000
0200
0303
,
1010
0100
0001
1100
0010
0001
0110
1000
,
0101
0010
0001
1100
0010
0100
0011
0100
,
1010
0100
0001
1100
0010
0100
0110
0001
,
1100
0000
0010
0000
0100
0000
0011
0000
0100
0010
1000
0100
0011
0000
1000
0000
,
0101
0000
1000
0000
0110
0000
0001
0100
0020
1030
0200
0301
0020
0030
0220
0330
,
1001
0000
0100
0000
0011
0000
0100
1000
0020
0130
0002
1003
0200
0300
0202
0303
,
0010
1000
0001
0100
0010
0000
1000
0001
0200
0310
2000
3001
0200
0310
2002
3003
,
0010
0001
0100
0010
1000
0100
0010
0001
2000
0000
0100
0010
0001
0000
0001
0100
,
0000
0010
0100
0010
0001
0000
0100
0010
0000
0001
0010
0100
0010
0000
0001
3100
,
0020
0031
0010
0100
1000
0100
0010
0100
2000
3100
0020
0031
0010
0100
0020
0031
,
0100
1000
0100
0010
0001
0010
0100
0010
0001
0100
2000
3100
0002
0013
2000
3010
,
0002
0103
0010
1000
0100
0010
0001
0100
0010
1000
0010
0100
0001
0010
2000
3100
,
0020
0031
0200
0310
2000
3001
0200
0310
0002
1003
0100
0010
0002
1003
0010
0100
,
0002
0103
0010
1000
0100
0010
0001
0100
0020
1030
0200
1300
0010
0001
0200
0310
,
1000
0100
0010
0001
0010
0100
1000
0010
0100
1000
0200
0310
0002
0103
0020
1030
,
0100
0001
0010
0001
0100
1000
0100
0010
0100
1000
0010
0100
1000
0100
0010
0001
,
0100
0010
1000
0100
0020
0031
0200
0310
2000
3100
0010
0001
0200
0310
1000
0100
,
0002
0103
0010
1000
0100
0010
0100
1000
0002
0103
0020
1030
0100
0010
2000
3001
,
0100
0010
0001
0100
0010
1000
0100
0010
0100
1000
0002
0103
0020
1030
0200
0301
,
2000
3010
0100
0001
0010
0100
0010
0001
0200
0310
2000
3100
1000
0010
0200
0301
,
0020
0130
2000
3010
0200
0301
0020
0031
0200
0310
1000
0100
0020
0130
0001
1000
,
0020
0130
0001
1000
0010
0100
0001
0010
0200
0310
0002
0103
2000
3010
0200
0301
,
1000
0010
0001
0100
0010
1000
0100
0010
0001
0100
0020
1030
0200
0301
2000
3010
,
0200
0301
0010
0001
0100
1000
0100
0010
0200
1300
0002
0013
0100
1000
0200
0301
,
0010
1000
0100
0010
0002
0103
0020
1030
0200
1300
0010
0100
0002
1003
0110
0000
,
1001
0000
0010
0001
0100
0000
0010
1000
0100
0010
0001
0100
1010
0000
0101
0000
,
0010
0000
1000
0010
0001
0000
0100
0010
1000
0001
0100
0010
1100
0000
0101
0000
,
0010
0001
0100
0000
0010
1000
0100
0001
0000
0010
0100
1000
0101
0000
1100
0000
,
0010
0001
0100
0000
0010
1000
0001
0100
0000
0010
1000
0001
1100
0010
1100
0000
,
0001
0010
0100
0010
0001
0000
1000
0100
0010
0100
1000
0000
0001
0010
0100
1000
,
0100
0010
0001
0100
0010
1000
0100
0010
0001
0010
0100
0010
0001
0000
0100
0000
,
0010
1000
0100
0001
0100
0010
1000
0100
0010
0001
0100
0010
1000
0001
0100
0010
,
1000
0100
0010
1000
0001
0010
0100
0001
0100
0010
1000
0100
0010
0001
0100
0010
,
2002
0000
0000
3003
0110
0000
0110
0000
0001
1000
0101
0000
0101
0000
0010
1000
,
0110
0000
0110
0000
0001
0100
1010
0000
1010
0000
0100
0001
0110
0000
1000
0001
,
1100
0000
0010
0000
0101
0000
0101
0000
0100
1000
0011
0000
0011
0000
1000
0100
,
1010
0000
1010
0000
0001
1000
0110
0000
0110
0000
0001
0100
1001
0000
2002
0000
,
0000
3003
0200
0000
0000
0000
0300
0000
;
