#TITLE:Harlem Shake;
#SUBTITLE:;
#ARTIST:Baauer;
#TITLETRANSLIT:;
#SUBTITLETRANSLIT:;
#ARTISTTRANSLIT:;
#CREDIT:;
#BANNER:../fthescorept1bn.png;
#BACKGROUND:../fthescorept1bg.png;
#LYRICSPATH:;
#CDTITLE:;
#MUSIC:Harlem Shake.ogg;
#OFFSET:-0.033;
#SAMPLESTART:15.480;
#SAMPLELENGTH:12.770;
#SELECTABLE:YES;
#BPMS:0.000=140.000,32.000=280.000;
#STOPS:;
#BGCHANGES:;
// cache tags:
#FIRSTBEAT:0.000;
#LASTBEAT:164.000;
#SONGFILENAME:Songs/Fuck The Score Part I/Harlem Shake [Dossar]/Harlem Shake.sm;
#HASMUSIC:1;
#HASBANNER:1;
#MUSICLENGTH:43.755;
// end cache tags

//---------------dance-single - ----------------
#NOTES:
     dance-single:
     :
     Hard:
     15:
     1.000,1.000,0.091,0.091,0.811,367.000,4.000,4.000,0.000,0.000:
2002
0000
0000
0000
0000
0000
0000
3003
1000
0000
0001
0000
1000
0000
0001
0000
,
0100
0010
0100
0010
1000
0001
1000
0001
,
0100
0010
0100
0010
1000
0100
1000
0100
,
0010
0001
0010
0001
1000
0100
1000
0100
,
0010
0001
0010
0001
0100
0010
0100
0010
,
1000
0001
1000
0001
0010
0100
0010
0100
,
1000
0001
1000
0001
1000
0100
1000
0100
,
0010
0001
0010
0001
1000
0100
1000
0100
,
0022
0000
0000
0000
,
0000
0000
0000
0033
1001
0000
0000
0000
,
1000
0000
0000
0000
0000
0000
0000
0000
0001
0000
0000
0000
1000
0100
0010
0001
,
1000
0000
0100
0000
0010
0000
0100
0000
1000
0001
0010
0001
1000
0000
0100
0000
,
0010
0000
0001
1000
0001
0000
0010
0000
0100
0000
1000
0000
0001
1000
0010
0100
,
0001
1000
0001
0000
0100
0000
0010
0000
1000
0000
0001
0100
0010
0000
1000
0000
,
0001
0000
1000
0000
0010
0000
0100
0000
0001
1000
0010
0100
0001
0000
1000
0000
,
0010
0000
0100
0000
0001
1000
0010
1000
0001
0000
0100
0000
0010
0000
1000
0000
,
0001
0010
0001
0000
1000
0000
0100
0000
1000
0100
1000
0000
0001
0010
0100
1000
,
0001
0010
0100
1000
0001
0000
0010
0000
0100
0000
1000
0000
0001
1000
0100
1000
,
0001
0000
1000
0000
0010
0000
0100
0000
0001
0000
1000
0000
0010
0100
0001
1000
,
0001
0000
0100
0000
0010
0000
1000
0000
0001
0000
0100
0000
0010
1000
0001
0000
,
1000
0000
0010
0000
0100
0001
0100
0000
0010
0000
1000
0000
0001
0100
0001
1000
,
0010
0100
0001
1000
0010
1000
0001
0100
0001
0000
1000
0000
0010
0000
0100
0000
,
0001
1000
0100
0010
0100
1000
0001
0010
,
0100
0000
0010
0000
0001
0000
1000
0000
0001
0010
0100
0010
0001
0000
1000
0000
,
0100
0010
0100
1000
0001
0000
0000
0000
0000
0000
0000
0000
0000
0000
0000
0000
,
1000
0000
0001
0000
0100
0010
0100
0001
,
1000
0010
0100
0000
0001
0000
1000
0000
0100
0000
0010
0000
0100
1000
0100
0010
,
0001
0000
1000
0000
0100
0000
0010
0000
0001
1000
0100
1000
0001
0000
0010
0000
,
0100
0000
0010
0001
1000
0000
0100
0000
0010
0000
0100
0000
1000
0001
0010
0001
,
1000
0100
1000
0000
0100
0000
1000
0000
0001
0000
0100
0010
0100
0000
0001
0000
,
1000
0000
0010
0000
0100
0000
0001
0000
1000
0010
0100
0001
1000
0000
0010
0000
,
0100
0000
0001
0000
1000
0010
1000
0001
0100
0000
0010
0000
1000
0000
0001
0000
,
0100
0010
0100
0000
0001
0000
1000
0000
0001
0010
0001
0000
1000
0100
0010
0001
,
1000
0100
0010
0001
1000
0000
0100
0000
0010
0000
0100
0000
1000
0001
0010
0001
,
1000
0000
0100
0000
0010
0000
0001
0000
1000
0000
0010
0000
0100
0001
1000
0001
,
0100
0000
0010
0000
1000
0000
0001
0000
0100
0000
0001
0000
1000
0001
0100
0000
,
0010
0000
1000
0000
0001
0100
0010
0000
1000
0000
0001
0000
1000
0010
0100
0001
,
1000
0010
1000
0001
0100
0001
1000
0010
0100
0000
0001
0000
1000
0000
0010
0000
,
0100
0001
1000
0100
0010
0100
1000
0001
,
0010
0000
0100
0000
0010
0000
0001
0000
1000
0100
0010
0001
1000
0000
0100
0000
,
0010
0001
0010
0100
1000
0000
0000
0000
0000
0000
0000
0000
0000
0000
0000
0000
,
1001
0000
0000
0000
;

//---------------dance-single - ----------------
#NOTES:
     dance-single:
     :
     Challenge:
     16:
     1.000,1.000,0.069,0.069,1.000,481.000,3.000,3.000,0.000,0.000:
2002
0000
0000
0000
0000
0000
0000
0000
0000
0000
0000
0000
0000
0000
0000
0000
0000
0000
0000
0000
0000
3003
0000
0000
1000
0000
0000
0000
0000
0000
0001
0000
0000
0000
0000
0000
1000
0000
0000
0000
0000
0000
0001
0000
0100
0000
0001
0000
,
1000
0100
1000
0010
0100
0010
1000
0100
1000
0001
0010
0001
0100
0010
0100
0001
0010
0001
1000
0100
1000
0010
0100
0010
,
1000
0001
1000
0100
0010
0100
1000
0010
1000
0001
0010
0001
0100
0010
0100
0001
1000
0001
0010
0100
0010
0001
1000
0001
,
0010
0100
0010
0001
0100
0001
1000
0010
1000
0100
0010
0100
1000
0010
1000
0001
0100
0001
0010
0100
0010
0001
1000
0001
,
0100
0010
0100
0001
0010
0001
1000
0100
1000
0010
0100
0010
1000
0100
1000
0001
0010
0001
0100
0010
0100
0001
1000
0001
,
0010
0100
0010
0001
0100
0001
1000
0010
1000
0100
0010
0100
1000
0001
1000
0010
0100
0010
1000
0100
1000
0001
0100
0001
,
1000
0100
1000
0001
0010
0001
0100
0010
0100
0001
1000
0001
0100
0010
0100
0001
0010
0001
1000
0100
1000
0010
0100
0010
,
1000
0100
1000
0001
0010
0001
0100
0010
0100
0001
1000
0001
0010
0100
0010
0001
1000
0001
0100
0010
0100
0001
1000
0001
,
0020
0000
0000
0000
,
0000
0000
0000
0030
1001
0000
0000
0000
,
1000
0000
0000
0000
0000
0000
0000
0000
0001
0000
0000
0000
0100
0001
1000
0100
,
0010
0000
0001
0000
0100
0000
0010
0000
1000
0100
0010
0001
0100
0000
0001
0000
,
0010
0000
0100
1000
0010
0000
0100
0000
0001
0000
1000
0000
0100
0010
0001
0100
,
0010
1000
0001
0000
0100
0000
0010
0000
1000
0000
0100
1000
0010
0000
0100
0000
,
0001
0000
0010
0000
0001
0000
0100
0000
0010
1000
0100
0010
0001
0000
0100
0000
,
0010
0000
1000
0000
0001
0010
0001
0100
0010
0000
1000
0000
0100
0000
0010
0000
,
0100
1000
0010
0000
0100
0000
0001
0000
0010
0100
1000
0000
0010
0100
0001
0010
,
0001
0100
0010
1000
0100
0000
0010
0000
0001
0000
0100
0000
0001
0010
0100
1000
,
0010
0000
0100
0000
0001
0000
1000
0000
0100
0000
0010
0000
0100
1000
0010
0100
,
0001
0000
1000
0000
0010
0000
0100
0000
0001
0000
0010
0000
0001
0100
0010
0000
,
1000
0000
0100
0000
1000
0010
1000
0000
0001
0000
0100
0000
0010
1000
0100
1000
,
0010
0100
0001
0010
0100
0010
0001
1000
0010
0000
0100
0000
0001
0000
1000
0000
,
0100
0010
0001
0100
0010
0100
0001
0010
,
0100
0000
0010
0000
0001
0000
1000
0000
0001
0010
0100
1000
0010
0000
0100
0000
,
0001
0010
0100
1000
0010
0000
0000
0000
0000
0000
0000
0000
0000
0000
0000
0000
,
1000
0000
0001
0000
0100
0010
1000
0100
,
0010
0001
0100
0000
0010
0000
1000
0000
0001
0000
0010
0000
0100
1000
0010
0100
,
0001
0000
1000
0000
0100
0000
0010
0000
0100
1000
0001
0100
0010
0000
1000
0000
,
0100
0000
0010
0001
0100
0000
0010
0000
1000
0000
0001
0000
0010
0100
1000
0010
,
0100
0001
1000
0000
0010
0000
0100
0000
0001
0000
0100
0001
0010
0000
0100
0000
,
1000
0000
0010
0000
0100
0000
0001
0000
1000
0100
0010
0001
0100
0000
0010
0000
,
1000
0000
0100
0000
1000
0010
1000
0100
0010
0000
0001
0000
0100
0000
0010
0000
,
0100
0001
0010
0000
0100
0000
1000
0000
0001
0100
0010
0000
1000
0100
1000
0010
,
0100
0001
0010
0001
1000
0000
0100
0000
0010
0000
0001
0000
0100
0010
1000
0100
,
0010
0000
0001
0000
1000
0000
0010
0000
0100
0000
0001
0000
0010
0001
0100
0010
,
1000
0000
0001
0000
0100
0000
0010
0000
1000
0000
0100
0000
0010
0001
0100
0000
,
0010
0000
1000
0000
0001
0100
0010
0000
1000
0000
0100
0000
0010
0001
0100
0010
,
1000
0100
1000
0010
0100
0001
0010
0100
1000
0000
0010
0000
0100
0000
0001
0000
,
1000
0100
0010
0001
0100
0010
0100
0001
,
0010
0000
0100
0000
0010
0000
0001
0000
1000
0100
0010
0001
0100
0000
0010
0000
,
1000
0100
0010
0001
0100
0000
0000
0000
0000
0000
0000
0000
0000
0000
0000
0000
,
1001
0000
0000
0000
;
