#TITLE:Atmos Break;
#SUBTITLE:;
#ARTIST:D-Mode-D;
#TITLETRANSLIT:;
#SUBTITLETRANSLIT:;
#ARTISTTRANSLIT:;
#CREDIT:;
#BANNER:../banner.png;
#BACKGROUND:../bg.png;
#LYRICSPATH:;
#CDTITLE:;
#MUSIC:Atmos Break.ogg;
#OFFSET:1.384;
#SAMPLESTART:43.866;
#SAMPLELENGTH:22.140;
#SELECTABLE:YES;
#BPMS:0.000=175.000;
#STOPS:;
#BGCHANGES:;
// cache tags:
#FIRSTBEAT:4.000;
#LASTBEAT:324.500;
#SONGFILENAME:Songs/Cirque du Lykan/Atmos Break - [Zaia]/Atmos Break.sm;
#HASMUSIC:1;
#HASBANNER:1;
#MUSICLENGTH:112.384;
// end cache tags

//---------------dance-single - Zaia - 13(high)----------------
#NOTES:
     dance-single:
     Zaia - 13(high):
     Challenge:
     13:
     1.000,1.000,0.062,0.383,1.000,1020.000,7.000,43.000,0.000,0.000:
0000
0000
0000
0000
,
0001
0010
0001
0100
0001
1000
0100
1000
0001
0100
0001
1000
0100
0010
0001
1000
,
0010
0100
0010
1000
0001
1000
0100
1000
0001
0100
0001
0010
0100
1000
0001
0100
,
0001
1000
0100
1000
0010
1000
0001
0010
0001
1000
0010
1000
0001
0010
0100
1000
,
0001
0100
0010
0100
0001
1000
0001
0010
0001
1000
0010
1000
0100
0010
0100
1000
,
0001
0100
0001
0010
0001
1000
0010
1000
0001
0010
0001
1000
0010
0100
0001
1000
,
0100
0010
0100
1000
0001
1000
0010
1000
0001
0010
0001
0100
0010
1000
0001
0010
,
0001
1000
0010
1000
0100
1000
0001
0100
0001
1000
0100
1000
0001
0100
0010
1000
,
0001
0010
0100
0010
0001
1000
0001
0100
0001
1000
0100
1000
0001
0000
0000
0000
,
1000
0010
1000
0001
1000
0100
0010
0100
1000
0100
1000
0010
0100
0001
1000
0100
,
1000
0001
0100
0010
1000
0001
0010
0001
0100
0001
0100
0010
1000
0001
0010
0001
,
1000
0100
1000
0001
1000
0010
0100
0010
1000
0010
1000
0100
0010
0001
1000
0010
,
1000
0001
0010
0100
1000
0001
0100
0001
0010
0001
0010
0100
1000
0001
0100
0001
,
0010
0001
1000
0001
0100
0010
0100
0001
0100
0001
0010
0100
1000
0001
0100
0001
,
1000
0100
0010
0001
1000
0010
1000
0100
1000
0100
0010
0001
1000
0010
1000
0001
,
0100
0001
1000
0001
0010
0100
0010
0001
0010
0001
0100
0010
1000
0001
0010
0001
,
1000
0010
0100
0001
1000
0100
1000
0010
1000
0010
0100
0001
1000
0100
1000
0001
,
0100
0010
1000
0001
1000
0100
0010
0100
1000
0100
1000
0010
0100
0001
1000
0100
,
1000
0001
0100
0010
1000
0001
0010
0001
0100
0001
0100
0010
1000
0001
0010
0001
,
1000
0100
1000
0001
1000
0010
0100
0010
1000
0010
1000
0100
0010
0001
1000
0010
,
1000
0001
0010
0100
1000
0001
0100
0001
0010
0001
0010
0100
1000
0001
0100
0001
,
0010
0001
1000
0001
0100
0010
0100
0001
0100
0001
0010
0100
1000
0001
0100
0001
,
1000
0100
0010
0001
1000
0010
1000
0100
1000
0100
0010
0001
1000
0010
1000
0001
,
0200
0000
0000
0320
0030
0000
2000
0000
0000
3002
0003
0000
0020
0000
0000
0230
,
0300
0000
2000
0000
0000
3002
0003
0000
0200
0000
0000
0300
0020
0000
0030
0000
,
1001
0000
1000
0100
0010
0100
1000
1000
,
0001
0100
0010
0000
1000
0000
0002
0000
0000
0000
0013
0100
1000
0000
0001
0000
,
0200
0000
0000
0000
0310
0000
1000
0000
0001
0000
0010
0000
0100
0010
0002
0000
,
0000
0000
2003
0000
0000
0000
3010
0000
1000
0001
0010
0000
0200
0000
0300
0000
,
2000
0000
3001
0100
0010
0100
0001
0001
,
1000
0100
0010
0000
0001
0000
2000
0000
0000
0000
3010
0100
0001
0000
1000
0000
,
0100
0100
1001
0010
0010
1001
0001
0100
,
0110
0000
0010
0000
1000
0000
1001
0000
0001
0000
0010
0000
0200
0300
0000
0000
,
0000
0000
0000
0000
1000
0001
0100
0001
1000
0001
1000
0010
0100
0010
1000
0001
,
0010
0100
0010
0001
1000
0001
0100
0010
0100
0001
1000
0001
0010
0001
0100
0010
,
1000
0001
1000
0100
1000
0001
0010
0100
1000
0001
0100
0001
1000
0100
1000
0001
,
0100
0010
1000
0100
0010
0001
1000
0010
0100
0001
0010
0001
1000
0010
1000
0001
,
1000
0100
0010
0001
1000
0010
1000
0100
0010
0100
1000
0001
0100
0010
0100
0001
,
1000
0001
0010
0100
0010
0001
1000
0001
0100
0001
0010
0100
1000
0001
1000
0010
,
1000
0001
0010
0001
1000
0010
1000
0100
1000
0001
0100
0001
0010
0001
1000
0100
,
1000
0010
1000
0001
0010
0001
0100
0001
1000
0001
0010
0100
1000
0001
1000
0010
,
1000
0001
0010
0001
1000
0001
1000
0100
0010
0100
1000
0001
0100
0010
0100
0001
,
1000
0001
0010
0100
0010
0001
1000
0001
0100
0001
0010
0100
1000
0001
1000
0010
,
1000
0001
0100
0010
1000
0001
0010
0001
1000
0010
1000
0001
0010
0100
1000
0010
,
0100
0001
1000
0100
0010
0001
0100
0001
1000
0100
1000
0001
1000
0010
0100
0001
,
1000
0100
1000
0010
0100
0010
1000
0001
0010
0100
0010
0001
1000
0001
0100
0010
,
0100
0001
1000
0001
0010
0001
0100
0010
1000
0001
1000
0100
1000
0001
0010
0100
,
1000
0001
0100
0001
1000
0100
1000
0010
1000
0001
0010
0001
0100
0001
1000
0010
,
1000
0100
1000
0001
0100
0001
0010
0001
1000
0001
0010
0100
1000
0001
1000
0010
,
2000
0000
3001
0200
0000
0320
0000
1030
,
0200
0000
0310
0200
0000
1300
0010
0100
,
0002
0000
2003
0000
3001
0100
0001
0020
,
0000
0230
0000
1300
0002
0000
0203
0000
,
0310
1000
0002
0000
0013
0001
1000
0020
,
0000
0000
0230
0000
0000
0000
0301
0000
0010
0000
0100
1000
0001
0000
0100
0001
,
1000
0100
0010
0100
1000
0001
0200
0000
,
0310
2000
0000
3001
0000
0010
1001
0000
,
1000
0100
1000
0001
1000
0010
0100
0010
1000
0010
1000
0100
0010
0001
1000
0010
,
1000
0001
0010
0100
1000
0001
0100
0001
0010
0001
0010
0100
1000
0001
0100
0001
,
1000
0010
1000
0001
1000
0100
0010
0100
1000
0100
1000
0010
0100
0001
1000
0100
,
1000
0001
0100
0010
1000
0001
0010
0001
0100
0001
0100
0010
1000
0001
0010
0001
,
0100
0001
1000
0001
0010
0100
0010
0001
0010
0001
0100
0010
1000
0001
0010
0001
,
1000
0010
0100
0001
1000
0100
1000
0010
1000
0010
0100
0001
1000
0100
1000
0001
,
0010
0001
1000
0001
0100
0010
0100
0001
0100
0001
0010
0100
1000
0001
0100
0001
,
1000
0000
0010
0000
0100
0000
0001
1000
0001
1000
0100
0000
0020
0030
0000
0000
,
0001
0100
0010
1000
0001
0010
0001
0100
0010
0100
0001
1000
0100
0010
0100
1000
,
0001
1000
0010
0100
0010
1000
0001
1000
0100
1000
0010
0100
0001
1000
0001
0010
,
0001
1000
0100
0010
0001
1000
0010
1000
0001
0010
0001
1000
0010
0100
0001
0010
,
0100
1000
0001
0100
0010
1000
0100
1000
0001
0100
0001
1000
0001
0010
0100
1000
,
0001
0100
0001
0010
0100
0010
0001
1000
0010
0100
0010
1000
0001
1000
0100
0010
,
0100
1000
0001
1000
0010
1000
0100
0010
0001
1000
0001
0100
0001
1000
0010
0100
,
0001
1000
0100
1000
0001
0100
0001
0010
0001
1000
0010
1000
0100
1000
0001
0010
,
0001
0100
0001
1000
0100
1000
0010
1000
0001
1000
0100
0010
0001
0000
0000
0000
,
1000
0001
0200
0000
0310
0200
0000
0301
,
2000
0000
0000
0000
3100
0000
0000
0010
0000
0000
0001
0000
1000
0000
0001
0000
,
0100
0010
1000
0010
0100
0001
1000
0000
,
0100
1000
0001
1000
0010
0100
0001
0000
,
1000
0100
1000
1000
0001
0100
0010
0010
,
1000
0100
0010
0001
0100
0000
0000
0010
,
2000
0000
3001
0010
0100
1000
0010
0200
,
0000
0000
0302
0000
0000
0000
0013
0000
0100
1000
0001
0000
0100
0000
0000
0000
,
2020
3030
0000
0000
0000
0000
0000
0000
;

//---------------dance-single - Zaia - 12(high)----------------
#NOTES:
     dance-single:
     Zaia - 12(high):
     Hard:
     12:
     1.000,1.000,0.080,0.383,1.000,794.000,9.000,43.000,0.000,0.000:
0000
0000
0000
0000
,
0001
1000
0001
0000
0000
0100
0000
0000
,
0010
0000
0000
1000
0000
0000
0001
0000
,
1000
0010
1000
0000
0000
0100
0000
0000
,
0010
0000
0000
0001
0000
0000
0100
0000
,
0001
0100
0001
0000
0000
0010
0000
0000
,
0100
0000
0000
1000
0000
0000
0001
0000
,
0100
0010
0100
0000
0000
0001
0000
0000
,
0010
0000
0000
0100
0000
0000
1001
0000
,
0001
0000
0100
0000
0001
0000
1000
0010
1000
0010
0100
0000
0001
0000
0010
0000
,
0100
0000
1000
0000
0001
0000
0100
0001
0100
0001
1000
0000
0100
0000
0010
0000
,
0001
0000
0100
0000
0010
0000
1000
0001
0010
0001
0010
0000
0100
0000
1000
0000
,
0001
0000
0100
0000
0010
0000
1000
0100
1000
0100
0010
0000
0001
0000
1000
0000
,
0001
0000
0010
0000
0001
0000
1000
0010
1000
0010
0100
0000
0001
0000
0010
0000
,
0100
0000
1000
0000
0001
0000
0010
0001
0010
0001
1000
0000
0010
0000
0100
0000
,
0001
0000
0010
0000
0100
0000
1000
0001
0100
0001
0100
0000
0010
0000
1000
0000
,
0001
0000
0010
0000
0100
0000
1000
0010
1000
0010
0100
0000
0001
0000
1000
0000
,
1001
0000
0001
0000
1000
0000
0001
0100
0001
0100
0010
0000
1000
0000
0100
0000
,
0010
0000
0001
0000
1000
0000
0010
1000
0010
1000
0001
0000
0010
0000
0100
0000
,
1000
0000
0010
0000
0100
0000
0001
1000
0100
1000
0100
0000
0010
0000
0001
0000
,
1000
0000
0010
0000
0100
0000
0001
0010
0001
0010
0100
0000
1000
0000
0001
0000
,
1000
0000
0100
0000
1000
0000
0001
0100
0001
0100
0010
0000
1000
0000
0100
0000
,
0010
0000
0001
0000
1000
0000
0100
1000
0100
1000
0001
0000
0010
0000
0001
0000
,
0200
0000
0000
0320
0030
0000
2000
0000
0000
3002
0003
0000
0020
0000
0000
0230
,
0300
0000
2000
0000
0000
3002
0003
0000
0200
0000
0000
0300
0020
0000
0030
0000
,
1001
0000
1000
0100
0010
0100
1000
1000
,
0001
0100
0010
0000
1000
0000
0002
0000
0000
0000
0013
0100
1000
0000
0001
0000
,
0200
0000
0000
0000
0310
0000
1000
0000
0001
0000
0010
0000
0100
0010
0002
0000
,
0000
0000
2003
0000
0000
0000
3010
0000
1000
0001
0010
0000
0200
0000
0300
0000
,
2000
0000
3001
0100
0010
0100
0001
0001
,
1000
0100
0010
0000
0001
0000
2000
0000
0000
0000
3010
0100
0001
0000
1000
0000
,
0100
0100
1001
0010
0010
1001
0001
0100
,
0110
0000
0010
0000
1000
0000
1001
0000
0001
0000
0010
0000
0200
0300
0000
0000
,
0000
0000
0000
0000
1000
0001
0100
0001
1000
0001
1000
0010
0100
0010
1000
0001
,
0010
0100
0010
0001
1000
0001
0100
0010
0100
0001
1000
0001
0010
0001
0100
0010
,
1000
0001
1000
0100
1000
0001
0010
0100
1000
0001
0100
0001
1000
0100
1000
0001
,
0100
0010
1000
0100
0010
0001
1000
0010
0100
0001
0010
0001
1000
0010
1000
0001
,
1000
0100
0010
0001
1000
0010
1000
0100
0010
0100
1000
0001
0100
0010
0100
0001
,
1000
0001
0010
0100
0010
0001
1000
0001
0100
0001
0010
0100
1000
0001
1000
0010
,
1000
0001
0010
0001
1000
0010
1000
0100
1000
0001
0100
0001
0010
0001
1000
0100
,
1000
0010
1000
0001
0010
0001
0100
0001
1000
0001
0010
0100
1000
0000
0000
0000
,
0001
1000
0100
1000
0001
1000
0001
0010
0100
0010
0001
1000
0010
0100
0010
1000
,
0001
1000
0100
0010
0100
1000
0001
1000
0010
1000
0100
0010
0001
1000
0001
0100
,
0001
1000
0010
0100
0001
1000
0100
1000
0001
0100
0001
1000
0100
0010
0001
0100
,
0010
1000
0001
0010
0100
1000
0010
1000
0001
0010
0001
1000
0001
0100
0010
1000
,
0001
0010
0001
0100
0010
0100
0001
1000
0100
0010
0100
1000
0001
1000
0010
0100
,
0010
1000
0001
1000
0100
1000
0010
0100
0001
1000
0001
0010
0001
1000
0100
0010
,
0001
1000
0010
1000
0001
0010
0001
0100
0001
1000
0100
1000
0010
1000
0001
0100
,
0001
0010
0001
1000
0010
1000
0100
1000
0001
1000
0100
0010
0001
1000
0001
0100
,
0002
0000
1003
0020
0000
0230
0000
0301
,
0020
0000
0130
0020
0000
0031
0100
0010
,
2000
0000
3002
0000
1003
0010
1000
0200
,
0000
0320
0000
0031
2000
0000
3020
0000
,
0130
0001
2000
0000
3100
1000
0001
0200
,
0000
0000
0320
0000
0000
0000
1030
0000
0100
0000
0010
0001
1000
0000
0010
1000
,
0001
0010
0100
0010
0001
1000
0020
0000
,
0130
0002
0000
1003
0000
0100
1001
0000
,
0001
0000
0100
0000
0001
0000
1000
0010
1000
0010
0100
0000
0001
0000
0010
0000
,
0100
0000
1000
0000
0001
0000
0100
0001
0100
0001
1000
0000
0100
0000
0010
0000
,
0001
0000
0100
0000
0010
0000
1000
0001
0010
0001
0010
0000
0100
0000
1000
0000
,
0001
0000
0100
0000
0010
0000
1000
0100
1000
0100
0010
0000
0001
0000
1000
0000
,
0001
0000
0010
0000
0001
0000
1000
0010
1000
0010
0100
0000
0001
0000
0010
0000
,
0100
0000
1000
0000
0001
0000
0010
0001
0010
0001
1000
0000
0010
0000
0100
0000
,
0001
0000
0010
0000
0100
0000
1000
0001
0100
0001
0100
0000
0010
0000
1000
0000
,
0001
0000
0100
0000
0010
0000
1000
0001
1000
0001
0010
0000
0200
0300
0000
0000
,
1000
0010
0100
0001
1000
0100
1000
0010
0100
0010
1000
0001
0010
0100
0010
0001
,
1000
0001
0100
0010
0100
0001
1000
0001
0010
0001
0100
0010
1000
0001
1000
0100
,
1000
0001
0010
0100
1000
0001
0100
0001
1000
0100
1000
0001
0100
0010
1000
0100
,
0010
0001
1000
0010
0100
0001
0010
0001
1000
0010
1000
0001
1000
0100
0010
0001
,
1000
0010
1000
0100
0010
0100
1000
0001
0100
0010
0100
0001
1000
0001
0010
0100
,
0010
0001
1000
0001
0100
0001
0010
0100
1000
0001
1000
0010
1000
0001
0100
0010
,
1000
0001
0010
0001
1000
0010
1000
0100
1000
0001
0100
0001
0010
0001
1000
0100
,
1000
0010
1000
0001
0010
0001
0100
0001
1000
0001
0010
0100
1000
0000
0000
0000
,
0001
1000
0020
0000
0130
0020
0000
1030
,
0002
0000
0000
0000
0013
0000
0000
0100
0000
0000
1000
0000
0001
0000
1000
0000
,
0010
0100
0001
0100
0010
1000
0001
0000
,
0010
0001
1000
0001
0100
0010
1000
0000
,
0001
0010
0001
0001
1000
0010
0100
0100
,
0001
0010
0100
1000
0010
0000
0000
0100
,
0002
0000
1003
0100
0010
0001
0100
0020
,
0000
0000
2030
0000
0000
0000
3100
0000
0010
0001
1000
0000
0010
0000
0000
0000
,
0202
0303
0000
0000
0000
0000
0000
0000
;

//---------------dance-single - Zaia - 11(mid)----------------
#NOTES:
     dance-single:
     Zaia - 11(mid):
     Medium:
     11:
     0.904,0.794,0.098,0.383,0.472,657.000,11.000,43.000,0.000,0.000:
0000
0000
0000
0000
,
0001
1000
0001
0000
0000
0100
0000
0000
,
0010
0000
0000
1000
0000
0000
0001
0000
,
1000
0010
1000
0000
0000
0100
0000
0000
,
0010
0000
0000
0001
0000
0000
0100
0000
,
0001
0100
0001
0000
0000
0010
0000
0000
,
0100
0000
0000
1000
0000
0000
0001
0000
,
0100
0010
0100
0000
0000
0001
0000
0000
,
0010
0000
0000
0100
0000
0000
1001
0000
,
0001
0000
0100
0000
0001
0000
1000
0010
1000
0010
0100
0000
0001
0000
0010
0000
,
0100
0000
1000
0000
0001
0000
0100
0001
0100
0001
1000
0000
0100
0000
0010
0000
,
0001
0000
0100
0000
0010
0000
1000
0001
0010
0001
0010
0000
0100
0000
1000
0000
,
0001
0000
0100
0000
0010
0000
1000
0100
1000
0100
0010
0000
0001
0000
1000
0000
,
0001
0000
0010
0000
0001
0000
1000
0010
1000
0010
0100
0000
0001
0000
0010
0000
,
0100
0000
1000
0000
0001
0000
0010
0001
0010
0001
1000
0000
0010
0000
0100
0000
,
0001
0000
0010
0000
0100
0000
1000
0001
0100
0001
0100
0000
0010
0000
1000
0000
,
0001
0000
0010
0000
0100
0000
1000
0010
1000
0010
0100
0000
0001
0000
1000
0000
,
1001
0000
0001
0000
1000
0000
0001
0100
0001
0100
0010
0000
1000
0000
0100
0000
,
0010
0000
0001
0000
1000
0000
0010
1000
0010
1000
0001
0000
0010
0000
0100
0000
,
1000
0000
0010
0000
0100
0000
0001
1000
0100
1000
0100
0000
0010
0000
0001
0000
,
1000
0000
0010
0000
0100
0000
0001
0010
0001
0010
0100
0000
1000
0000
0001
0000
,
1000
0000
0100
0000
1000
0000
0001
0100
0001
0100
0010
0000
1000
0000
0100
0000
,
0010
0000
0001
0000
1000
0000
0100
1000
0100
1000
0001
0000
0010
0000
0001
0000
,
0200
0000
0000
0320
0030
0000
2000
0000
0000
3002
0003
0000
0020
0000
0000
0230
,
0300
0000
2000
0000
0000
3002
0003
0000
0200
0000
0000
0300
0020
0000
0030
0000
,
1001
0000
1000
0100
0010
0100
1000
1000
,
0001
0100
0010
0000
1000
0000
0002
0000
0000
0000
0013
0100
1000
0000
0001
0000
,
0200
0000
0000
0000
0310
0000
1000
0000
0001
0000
0010
0000
0100
0010
0002
0000
,
0000
0000
2003
0000
0000
0000
3010
0000
1000
0001
0010
0000
0200
0000
0300
0000
,
2000
0000
3001
0100
0010
0100
0001
0001
,
1000
0100
0010
0000
0001
0000
2000
0000
0000
0000
3010
0100
0001
0000
1000
0000
,
0100
1000
1001
0001
0100
0101
0001
1000
,
1100
0000
0100
0000
0010
0000
0011
0000
0001
0000
0010
0000
0200
0300
0000
0000
,
0000
0000
0000
0000
1000
0000
0001
0010
0001
0100
0001
0000
1000
0000
0010
0000
,
0100
0000
0001
0000
1000
0000
0100
1000
0010
1000
0001
0000
0100
0000
0001
0000
,
0010
0000
0100
0000
1000
0000
0001
0100
0001
0010
0001
0000
1000
0000
0010
0000
,
0100
0000
0001
0000
1000
0000
0010
1000
0100
1000
0001
0000
0010
0000
0100
0000
,
1000
0000
0010
0000
1000
0000
0001
0100
0001
0010
0001
0000
1000
0000
0100
0000
,
0010
0000
0001
0000
1000
0000
0010
1000
0100
1000
0001
0000
0010
0000
0001
0000
,
1000
0000
0001
0000
1000
0100
1000
0000
0010
0000
0100
0001
0100
0000
0010
0000
,
1000
0100
1000
0000
0010
0000
0100
0001
0100
0000
0010
0000
1000
0000
0001
0000
,
1001
0000
1000
0000
0001
0000
1000
0010
1000
0100
1000
0000
0001
0000
0010
0000
,
0100
0000
1000
0000
0001
0000
0100
0001
0010
0001
1000
0000
0100
0000
1000
0000
,
0010
0000
0100
0000
0001
0000
1000
0100
1000
0010
1000
0000
0001
0000
0010
0000
,
0100
0000
1000
0000
0001
0000
0010
0001
0100
0001
1000
0000
0010
0000
0100
0000
,
0001
0000
0010
0000
0001
0000
1000
0100
1000
0010
1000
0000
0001
0000
0100
0000
,
0010
0000
1000
0000
0001
0000
0010
0001
0100
0001
1000
0000
0010
0000
1000
0000
,
0001
0000
1000
0000
0001
0100
0001
0000
0010
0000
0100
1000
0100
0000
0010
0000
,
0001
0100
0001
0000
0010
0000
0100
1000
0100
0000
0010
0000
0001
0000
1000
0000
,
2001
0000
3001
0200
0000
0320
0000
1030
,
0200
0000
0310
0200
0000
1300
0010
0100
,
0002
0000
2003
0000
3001
0100
0001
0020
,
0000
0230
0000
1300
0002
0000
0203
0000
,
0310
1000
0002
0000
0013
0001
1000
0020
,
0000
0000
0230
0000
0000
0000
0301
0000
0010
0000
0100
1000
0001
0000
0100
0001
,
1000
0100
0010
0100
1000
0001
0200
0000
,
0310
2000
0000
3001
0000
0010
1001
0000
,
1000
0000
0010
0000
1000
0000
0001
0100
0001
0100
0010
0000
1000
0000
0100
0000
,
0010
0000
0001
0000
1000
0000
0010
1000
0010
1000
0001
0000
0010
0000
0100
0000
,
1000
0000
0010
0000
0100
0000
0001
1000
0100
1000
0100
0000
0010
0000
0001
0000
,
1000
0000
0010
0000
0100
0000
0001
0010
0001
0010
0100
0000
1000
0000
0001
0000
,
1000
0000
0100
0000
1000
0000
0001
0100
0001
0100
0010
0000
1000
0000
0100
0000
,
0010
0000
0001
0000
1000
0000
0100
1000
0100
1000
0001
0000
0100
0000
0010
0000
,
1000
0000
0100
0000
0010
0000
0001
1000
0010
1000
0010
0000
0100
0000
0001
0000
,
1000
0000
0010
0000
0100
0000
0001
1000
0001
1000
0100
0000
0020
0030
0000
0000
,
0001
0000
1000
0000
0001
0000
1000
0100
1000
0010
1000
0000
0001
0000
0100
0000
,
0010
0000
1000
0000
0001
0000
0010
0001
0100
0001
1000
0000
0010
0000
1000
0000
,
0100
0000
0010
0000
0001
0000
1000
0010
1000
0100
1000
0000
0001
0000
0100
0000
,
0010
0000
1000
0000
0001
0000
0100
0001
0010
0001
1000
0000
0100
0000
0010
0000
,
0001
0000
0100
0000
0001
0000
1000
0010
1000
0100
1000
0000
0001
0000
0010
0000
,
0100
0000
1000
0000
0001
0000
0100
0001
0010
0001
1000
0000
0100
0000
1000
0000
,
0001
0000
1000
0000
0001
0010
0001
0000
0100
0000
0010
1000
0010
0000
0100
0000
,
0001
0010
0001
0000
0100
0000
0010
1000
0010
0000
0100
0000
0001
0000
0000
0000
,
1000
0001
0200
0000
0310
0200
0000
0301
,
2000
0000
0000
0000
3100
0000
0000
0010
0000
0000
0001
0000
1000
0000
0001
0000
,
0100
0010
1000
0010
0100
0001
1000
0000
,
0100
1000
0001
1000
0010
0100
0001
0000
,
1000
0100
1000
1000
0001
0100
0010
0010
,
1000
0100
0010
0001
0100
0000
0000
0010
,
2000
0000
3001
0010
0100
1000
0010
0200
,
0000
0000
0302
0000
0000
0000
0013
0000
0100
1000
0001
0000
0100
0000
0000
0000
,
2020
3030
0000
0000
0000
0000
0000
0000
;
