#TITLE:Stage 3;
#SUBTITLE:;
#ARTIST:AKHT;
#TITLETRANSLIT:;
#SUBTITLETRANSLIT:;
#ARTISTTRANSLIT:;
#CREDIT:;
#BANNER:Stage 3.png;
#BACKGROUND:Stage 3-bg.png;
#LYRICSPATH:;
#CDTITLE:!rebirth.png;
#MUSIC:Stage 3.mp3;
#OFFSET:-1.065;
#SAMPLESTART:20.990;
#SAMPLELENGTH:12.000;
#SELECTABLE:YES;
#BPMS:0.000=144.000;
#STOPS:;
#BGCHANGES:;
// cache tags:
#FIRSTBEAT:0.000;
#LASTBEAT:280.000;
#SONGFILENAME:Songs/VGMP 2/Stage 3 (Rebirth)/Stage 3.sm;
#HASMUSIC:1;
#HASBANNER:1;
#MUSICLENGTH:120.370;
// end cache tags

//---------------dance-single - ----------------
#NOTES:
     dance-single:
     :
     Hard:
     12:
     1.000,1.000,1.000,0.091,1.000,841.000,202.000,11.000,0.000,7.000:  // measure 1
0011
0100
0001
0100
1010
0100
0001
1000
,  // measure 2
0011
0100
0011
0100
1010
0100
0001
1000
,  // measure 3
0011
1000
0010
0100
1010
0100
0001
1000
,  // measure 4
0011
0100
0011
0100
1010
0100
0001
0100
,  // measure 5
2010
0100
0001
0100
0011
0100
0001
0010
,  // measure 6
3102
0010
1100
0010
1203
0010
1000
0001
,  // measure 7
1320
0100
0001
0100
1001
0100
1030
0200
,  // measure 8
0302
0023
0230
2300
,  // measure 9
3101
0000
0010
1000
0001
0000
1000
0000
0100
0000
1000
0001
0100
0000
0010
0000
,  // measure 10
0100
0000
0001
0010
0100
0000
1000
0000
0001
0000
0100
0010
1000
0001
0100
0010
,  // measure 11
1100
0010
0101
1000
0100
0010
0101
1000
0100
1000
0011
0100
0010
1000
0101
0010
,  // measure 12
1000
0000
0000
0100
0000
0000
1001
0000
0000
0010
0000
0000
0100
0000
0000
1000
0000
0000
0011
0000
0000
0100
0000
0000
0001
0000
0010
0000
0100
0000
1000
0000
0000
0001
0000
0000
0100
0000
0010
0000
0001
0000
1000
0000
0000
0100
0000
0000
,  // measure 13
0011
1000
0001
0100
0010
0100
0001
0000
1010
0100
0001
1000
0100
1000
0010
0000
,  // measure 14
1001
0100
0001
0010
0100
1000
0001
0000
1100
0001
0100
0010
0100
0001
1000
0000
,  // measure 15
0101
0010
1000
0100
1000
0001
0100
0000
1010
0100
0001
1000
0110
0001
1000
0000
,  // measure 16
0101
0010
1000
0001
0100
0010
0100
0000
0011
1000
0110
0001
1100
0010
1001
0000
,  // measure 17
1010
0000
0100
0001
1000
0000
0100
0000
1000
0000
0010
0100
0001
0000
1000
0000
,  // measure 18
0100
0000
0010
0100
1000
0000
0001
0000
0100
0000
0010
0100
0001
1000
0100
1000
,  // measure 19
0101
0010
1000
0100
1000
0001
0100
0000
1010
0100
0001
1000
0100
1000
0010
0000
,  // measure 20
1100
0001
0100
0010
1000
0010
0100
0000
1001
0100
0010
1000
0001
0010
0001
0000
,  // measure 21
0110
1000
0100
1000
0001
0100
0010
0000
1001
0100
0010
1000
0011
1000
0100
0000
,  // measure 22
1010
0001
1000
0100
0010
0100
1000
0000
0110
0001
1100
0010
1001
0100
0011
0000
,  // measure 23
1010
0000
0001
0100
0010
0000
1000
0000
0001
0000
1000
0100
0010
0000
0100
0000
,  // measure 24
1000
0000
0001
0010
0100
0000
1000
0000
0010
0100
0001
0100
0010
1000
0010
0000
,  // measure 25
1000
0010
0100
0001
0100
0010
0100
0001
1000
0100
1000
0010
0100
0001
0100
0010
,  // measure 26
1100
0001
1100
0010
1100
0001
1100
0010
1100
0011
0100
0011
1100
0000
1100
0000
,  // measure 27
1010
0000
0101
1000
0010
0000
1100
0000
0010
0000
1100
0001
0010
0000
1001
0000
,  // measure 28
0100
0000
1001
0100
0010
0000
1100
0000
0010
0001
1100
0001
0010
0000
1001
0000
,  // measure 29
0100
0000
1010
0001
0010
0000
1100
0000
0010
0000
0011
1000
0100
0000
1010
0000
,  // measure 30
0001
0000
0110
1000
0001
0000
1100
0000
0010
0100
0011
0100
0010
0000
1100
1100
,  // measure 31
0011
0000
1010
0100
0001
0000
1100
0000
0001
0000
1100
0001
0100
0000
1010
0000
,  // measure 32
0100
0000
1001
0010
0100
0000
1010
0000
0100
0001
1100
0001
0100
0000
0011
0000
,  // measure 33
1000
0000
0110
0001
1000
0000
0011
0000
1000
0000
0101
1000
0100
0000
1010
0000
,  // measure 34
0100
0000
1100
0001
1000
0000
0110
0000
0001
1000
0110
1000
0001
1000
0001
1000
,  // measure 35
0011
1000
0100
1000
0001
1000
0010
0100
0010
1000
0010
0100
0001
0100
0011
1000
,  // measure 36
0011
0100
0001
1000
0010
0100
0001
0100
0010
1000
0010
0100
0001
1000
0011
0000
,  // measure 37
0011
1000
0010
0100
0011
1000
0100
0010
1100
0001
0100
0010
1001
0100
0001
1000
,  // measure 38
0110
1000
0010
0100
0011
1000
0100
1000
0101
0010
1000
0010
1000
0010
1000
0010
,  // measure 39
1001
0100
0010
0001
1000
0010
0100
0000
0011
1000
0100
1000
0001
0100
0010
0000
,  // measure 40
1100
0001
0100
0010
0100
0001
0010
0000
1001
0010
0100
1000
0001
0100
0010
0000
,  // measure 41
0101
1000
0100
1000
0001
0100
0010
0000
1010
0100
0001
1000
0011
0100
0010
0000
,  // measure 42
1001
0010
0100
0001
0100
0010
1000
0000
0110
0001
1010
0100
0011
0100
1001
0000
,  // measure 43
0110
0000
0001
1000
0100
0000
1000
0000
0010
0000
0100
0001
1000
0000
0100
0000
,  // measure 44
1000
0000
0010
0100
0001
0000
0010
0000
0100
0000
1000
0010
0100
0000
0001
0000
,  // measure 45
1010
0100
0001
1000
0100
1000
0001
0000
0110
0001
0100
0010
1000
0100
0010
0000
,  // measure 46
1100
0001
1000
0100
0010
0100
1000
0000
0101
1000
0100
0010
0001
0100
0010
0000
,  // measure 47
1001
0100
0010
0001
1000
0010
0100
0000
0011
1000
0100
1000
0110
0001
1000
0000
,  // measure 48
1010
0100
0001
0100
0010
1000
0001
0000
1100
0010
1001
0100
0011
1000
0110
0000
,  // measure 49
0101
0000
1000
0100
0010
0000
0001
0000
1000
0000
0010
0100
0001
0000
1000
0000
,  // measure 50
0100
0000
1000
0001
0100
0000
0010
0000
0100
0000
0001
0010
0100
0000
1001
0000
,  // measure 51
1001
0010
1000
0010
0100
0001
0100
0010
0100
0001
1000
0100
1001
0110
1000
0110
,  // measure 52
1001
0100
1001
0010
1001
0100
1001
0010
1001
0110
0001
0110
1001
0000
1010
0000
,  // measure 53
0100
0000
0011
0100
1000
0000
0110
0000
0001
0000
1010
0100
0001
0000
1100
0000
,  // measure 54
0010
0000
1001
0100
0010
0000
1100
0000
0001
0100
1010
0100
0001
0000
1100
0000
,  // measure 55
0010
0000
1001
0100
0010
0000
1100
0000
0001
0000
1010
0100
0001
0000
0110
0000
,  // measure 56
1000
0000
0011
0100
1000
0000
0110
0000
1000
0001
1010
0001
1000
0000
0101
0101
,  // measure 57
1010
0000
0101
1000
0100
0000
1010
0000
0100
0000
0011
1000
0100
0000
1010
0000
,  // measure 58
0100
0000
1001
0010
0100
0000
0011
0000
0100
1000
0110
1000
0100
0000
1010
0000
,  // measure 59
0001
0000
1100
0001
1000
0000
0110
0000
1000
0000
0101
0010
0100
0000
1001
0000
,  // measure 60
0100
0000
0110
0001
1000
0000
0011
0000
1000
0010
0101
0010
1000
0001
1000
0001
,  // measure 61
1100
0010
0001
0100
0010
1000
0010
0100
0001
1000
0001
0100
0010
0100
0011
1000
,  // measure 62
0011
0100
0010
1000
0010
0100
0001
1000
0100
1000
0010
0100
0001
1000
0011
0000
,  // measure 63
0011
0100
1000
0010
0101
1000
0100
0010
1100
0001
0100
0010
1001
0100
0010
1000
,  // measure 64
0110
0001
1000
0100
0011
1000
0100
1000
0110
0001
0100
0001
0100
0001
0100
0001
,  // measure 65
1010
0100
0001
1000
0100
0010
0100
0000
1001
0010
0100
0001
0010
0100
1000
0000
,  // measure 66
0011
0100
1000
0010
0100
0001
0010
0000
1100
0001
0100
0010
0100
0001
1000
0000
,  // measure 67
0101
0010
1000
0100
0010
0100
1000
0000
0011
0100
1000
0010
0101
1000
0100
0000
,  // measure 68
1010
0001
0100
0010
1000
0001
1000
0000
1010
0100
0011
1000
0110
0001
1100
0000
,  // measure 69
0202
0000
0000
0000
,  // measure 70
0000
0000
0000
0000
,  // measure 71
0303
0000
0000
0000
;
