#TITLE:Tears Don't Fall;
#SUBTITLE:cxt!;
#ARTIST:Bullet For My Valentine;
#TITLETRANSLIT:;
#SUBTITLETRANSLIT:;
#ARTISTTRANSLIT:;
#CREDIT:cxt!;
#BANNER:Bn-Tears.png;
#BACKGROUND:Bg-Tears.png;
#LYRICSPATH:;
#CDTITLE:cxtcdtittle!.png;
#MUSIC:Tears Don't Fall.ogg;
#OFFSET:-0.900;
#SAMPLESTART:37.620;
#SAMPLELENGTH:23.400;
#SELECTABLE:YES;
#BPMS:0.000=162.000,32.000=81.000,34.000=162.000,159.000=180.000,191.000=191.000;
#STOPS:94.000=1.111
;
#BGCHANGES:;
// cache tags:
#FIRSTBEAT:4.000;
#LASTBEAT:325.000;
#SONGFILENAME:Songs/Definitive Keyboard Megapack/Tears Don't Fall (cxt!)/Tears Don't Fall.sm;
#HASMUSIC:1;
#HASBANNER:1;
#MUSICLENGTH:114.567;
// end cache tags

//---------------dance-single - cxt!----------------
#NOTES:
     dance-single:
     cxt!:
     Challenge:
     11:
     1.000,1.000,0.934,0.864,0.541,644.000,107.000,99.000,69.000,0.000:
0000
0000
0000
0000
,
1001
0000
0000
0001
0100
0000
0010
0000
0000
0000
1000
0000
0000
0000
0100
0000
,
0020
0030
0020
0030
0020
0030
0020
0030
0020
0030
0001
0100
0020
0030
0100
0000
,
0101
0000
0000
0100
0001
0000
1000
0000
0000
0000
0100
0000
0110
0000
0010
0000
,
0002
0003
0002
0003
0002
0003
1010
0000
0002
0000
2003
0000
3200
0000
0320
0030
,
0011
0000
0000
0010
0100
0000
1000
0000
0000
0000
0001
0000
0101
0000
0002
2003
,
3200
0300
0200
2300
3002
0003
0002
0203
0320
0030
0020
2030
3200
0000
0310
0000
,
0110
0000
0000
0010
0001
0000
1000
0000
0000
0000
0001
0000
0101
0000
0100
0010
,
100M
0000
M002
0000
2MM0
0000
0MM0
3003
1001
0000
0001
0000
1000
0000
0100
0000
,
0110
0010
0001
0010
0011
0001
0001
0010
,
0110
0100
1000
0100
1100
1000
0001
1000
,
1001
0001
0001
0100
0101
0001
1000
0010
,
1000
0001
0000
0000
1000
0000
0000
0000
0001
0000
0000
0000
1000
0000
0000
0000
1001
0000
0000
0000
0001
0000
0000
0000
0010
0000
0000
0000
0100
0000
0000
0000
,
0110
0010
0001
1000
1001
0001
0001
0100
,
0110
0010
1000
0001
0011
0010
0100
1000
,
1001
0000
0001
0000
0001
0000
1000
0000
1100
0000
1000
0010
1000
0000
0001
0010
,
0001
0000
1000
0100
1000
0000
0001
0100
0101
0000
0001
1000
0100
0000
0100
0010
,
0001
0000
1000
0010
0100
0000
0100
0001
1000
0000
0001
0010
0100
0000
0100
0010
,
0001
0100
0001
0010
0100
1000
0001
1000
0010
0000
0100
0001
1000
0000
1000
0100
,
0010
0000
0001
1000
0100
0000
0100
0010
0001
0000
1000
0010
0100
0000
0100
0001
,
1000
0010
0100
0001
1000
0100
0010
0001
1000
0000
0001
0010
0100
0000
0100
0010
,
0001
0000
1000
0001
0100
0000
0100
0010
0100
0000
0010
1000
0100
0000
0100
0010
,
0001
1000
0001
0100
0010
0100
0001
1000
1100
0000
0100
0000
1100
0000
1000
0000
,
1010
0000
0000
0010
0000
0000
0110
0000
0000
0100
0000
0000
2MM2
3003
0000
0000
0000
0000
1001
0000
0000
0001
0000
0000
,
0010
0100
MM11
1000
0010
0100
0101
0001
,
1000
0100
MM11
1000
0010
0100
0110
0010
,
0100
0001
11MM
0010
0001
1000
1001
0001
,
0010
0000
0100
0000
1000
0001
0100
0010
0100
0001
1000
0100
0010
0000
0001
0000
,
1000
0001
11MM
0010
0001
1000
1001
0001
,
0100
0010
1MM1
0100
0001
1000
1100
0100
,
0010
0000
0001
0000
M11M
0000
1000
0000
0001
0000
0100
0000
0101
0000
0001
0100
,
0001
1000
0001
0100
0001
1000
0100
0010
0001
1000
0001
1000
1100
0000
0100
0000
,
1000
0001
1M1M
0100
0001
1000
1001
0001
,
0010
0100
MM11
1000
0001
0100
0101
0001
,
0100
0010
1MM1
0100
0001
1000
1001
0001
,
0010
0000
0100
0000
0010
0001
1000
0001
0100
0010
0100
0001
1000
0000
0100
0000
,
0010
0001
11MM
0010
0001
1000
1010
0010
,
0100
0001
1M1M
0100
0001
1000
1100
0100
,
0010
0000
0000
0000
0001
0000
0000
0000
11MM
0000
0000
0000
0010
0000
0000
0000
0001
0000
0000
0000
1000
0000
0000
0000
0010
0000
0000
0000
2MM2
3003
0000
0000
,
2MM2
3003
0000
0000
0100
0000
0000
0000
2MM2
3003
0000
0000
0010
0000
0000
0000
2MM2
3003
0000
0000
0100
0000
0000
0000
2MM2
3003
0000
0000
0000
0000
0000
0000
,
0000
0000
0000
0000
,
0000
0000
0000
0000
,
0000
0000
0000
0000
,
0000
0000
0000
0000
0000
0000
0000
0000
0000
0000
0000
0000
2001
0000
3001
0100
,
0001
1000
0100
1000
0002
0000
1003
0010
1000
0001
0010
0001
0200
0000
0310
1000
,
0001
1000
0100
0010
0002
0000
0013
0100
1000
0001
1000
0010
0200
0000
0301
0010
,
0001
0000
0000
1000
0000
0000
0010
0000
0000
0100
0000
0000
0002
0000
0000
0000
0000
0000
1003
0000
0000
0100
0000
0000
1000
0000
0000
0000
0000
0000
0000
0000
1001
0000
0000
0000
0000
0000
0000
0000
0000
0000
0101
0000
0000
0000
0000
0000
,
0000
0000
0000
0000
0011
0000
0000
0000
0000
0000
0000
0000
1010
0000
0000
0000
0000
0000
0000
0000
0110
0000
0000
0000
0000
0000
0000
0000
0101
0000
0000
0000
0000
0000
0000
0000
1001
0000
0000
0000
0000
0000
0001
0000
0000
0100
0000
0000
,
0010
0000
1000
0010
0100
0000
0001
1000
0100
0000
002M
0000
0000
0000
0M32
0000
,
0000
02M3
0000
M320
0000
203M
0000
3002
,
0023
0000
0000
0030
1100
0000
1000
0001
0100
0000
0010
0000
2010
0000
0001
0000
,
3100
0010
0012
1000
0103
0002
0000
2003
,
3200
0000
0000
0300
0011
0000
0001
1000
0001
0000
20M0
0000
0000
0000
3M20
0000
,
0000
023M
0000
M302
0000
2M03
0000
3200
,
0320
0000
0000
0000
0000
0000
0000
0000
0000
0000
0000
0000
0031
0000
0000
0100
0000
0000
0001
0000
0000
1000
0000
0000
0100
0000
0000
0010
0000
0000
0001
0000
0000
0000
0000
0000
0011
0000
0000
0000
0000
0000
0000
0000
1001
0000
0000
0000
,
0000
0000
0000
0000
0101
0000
0000
0000
0000
0000
0000
0000
0110
0000
0000
0000
0000
0000
0000
0000
1010
0000
0000
0000
0000
0000
0000
0000
1001
0000
0000
0000
0000
0000
0000
0000
1001
0000
0000
0000
0000
0000
0001
0000
0000
0100
0000
0000
,
0010
0000
1000
0001
0010
0000
0100
1000
0100
0000
002M
0000
0000
0000
0M32
0000
,
0000
M023
0000
2M30
0000
302M
0000
0032
,
0203
0000
0000
0300
1010
0000
1000
0100
1000
0000
0M02
0000
0000
0000
02M3
0000
,
0000
0301
0011
0010
0110
020M
0000
2300
,
3002
0000
0000
0003
1001
0000
1000
0010
0100
0000
00M2
0000
0000
0000
M203
0000
,
0000
23M0
0000
320M
0000
M302
0000
2003
,
3200
0000
0000
0000
0000
0000
0000
0000
0000
0000
0000
0000
0310
0000
0000
0001
0000
0000
1000
0000
0000
0001
0000
0000
0100
0000
0000
0010
0000
0000
1000
0000
0000
0000
0000
0000
1010
0000
0000
0000
0000
0000
0000
0000
1001
0000
0000
0000
,
0000
0011
0000
0110
0000
1100
0000
1001
0000
1001
0000
0000
,
0101
0000
0000
0001
0011
0010
0000
0100
,
1100
0000
1000
1000
1001
0002
0000
0203
,
0001
0010
1000
0010
0301
2000
0000
3200
,
1000
0010
0001
0010
1300
0002
0000
0103
,
0110
0000
0010
1000
1010
0010
0000
1000
,
2100
0000
3100
0010
0001
0000
0000
0000
0001
0000
2000
0000
0000
0000
3020
0000
,
1000
0100
0001
0100
1030
0002
0000
0023
,
0001
0100
1000
0100
0031
2000
0000
3001
,
0101
0000
0100
0100
0110
0010
0000
1000
,
1001
0000
0001
0000
0011
0010
0000
0100
,
1100
0000
1000
1000
1010
0010
0000
0100
,
0102
0000
1003
0100
0010
0000
0001
0000
1001
0000
1000
0000
0000
0000
0000
0000
,
0002
0023
0230
2300
,
0001
0000
0000
0000
0001
0000
0000
0000
3001
0000
0000
0000
1001
0000
0001
0100
,
0001
1000
0100
0010
0001
0000
1000
0010
0100
0001
1000
0100
1000
0000
0010
0100
,
0001
0010
0100
1000
0100
0000
0010
0001
1000
0001
0100
0010
0100
0000
0010
1000
,
0100
0010
0001
1000
0001
0000
0100
0001
1000
0100
0010
0001
1001
0000
0MM0
0000
,
1001
0MM0
1001
0000
0000
0000
0000
0000
;
