#TITLE:Born To Be Bone;
#SUBTITLE:(Sanbone Trio Theme);
#ARTIST:KOEI;
#TITLETRANSLIT:;
#SUBTITLETRANSLIT:;
#ARTISTTRANSLIT:;
#CREDIT:;
#BANNER:born_to_be_bone-bn.png;
#BACKGROUND:born_to_be_bone-bg.png;
#LYRICSPATH:;
#CDTITLE:!spec_cd.png;
#MUSIC:born_to_be_bone.mp3;
#OFFSET:-3.715;
#SAMPLESTART:99.960;
#SAMPLELENGTH:15.000;
#SELECTABLE:YES;
#BPMS:0.000=140.000;
#STOPS:;
#BGCHANGES:;
// cache tags:
#FIRSTBEAT:0.000;
#LASTBEAT:500.333;
#SONGFILENAME:Songs/Community Keyboard Megapack - Volume 1/(Spectere) Born To Be Bone/born_to_be_bone.sm;
#HASMUSIC:1;
#HASBANNER:1;
#MUSICLENGTH:225.985;
// end cache tags

//---------------dance-single - ----------------
#NOTES:
     dance-single:
     :
     Challenge:
     12:
     0.877,1.000,0.907,0.226,1.000,1132.000,205.000,51.000,0.000,0.000:
1001
0000
0000
0000
0110
0000
0000
0000
1001
0000
0000
0000
1001
0100
0000
0100
,
0011
0000
1100
0000
0011
0100
0000
1000
0101
0000
1010
0000
1001
0000
0000
0000
,
1100
0000
0000
0000
0011
0000
0000
0000
1100
0000
0000
0000
0101
0010
0000
0100
,
1010
0000
0101
0000
0110
1000
0000
0001
0110
0000
1100
0000
0101
0000
0000
0000
,
1001
0000
1000
0001
1000
0100
1000
0010
1000
0001
1000
0001
1000
0010
1000
0001
,
0100
0000
0000
0010
0000
0000
1000
0000
0000
0010
0000
0000
0100
0000
0000
0000
0010
0000
0000
0000
1000
0000
0000
0000
0100
0000
0000
0000
0010
0000
0000
0000
0001
0000
0000
0000
0100
0000
0000
0000
0000
0000
0000
0000
0000
0000
0000
0000
,
1100
0000
0000
0000
0011
0000
0000
0000
1100
0000
0000
0000
0101
0010
0000
0100
,
1010
0000
0101
0000
0011
0100
0000
1000
1100
0000
0011
0000
0101
0000
0000
0000
,
0001
0000
0000
0001
0000
0000
0001
0000
0000
0001
0000
0000
0001
0000
0000
0000
,
1000
0000
0000
1000
0000
0000
1000
0000
0000
1000
0000
0000
1000
0000
0000
0000
,
2010
0000
0000
0010
0000
0000
0010
0000
0000
0010
0000
0000
0010
0000
0000
0000
,
3100
0000
0000
0100
0000
0000
0100
0000
0000
0100
0000
0000
0100
0000
0000
0000
,
0010
0001
0010
0001
0010
0001
0010
0001
0010
0001
0010
0001
0010
0001
0010
0001
0010
0001
0010
0001
0010
0001
0010
0001
,
0000
0000
0000
0100
0000
0000
1000
0000
0000
0100
0000
0000
0010
0100
0010
0100
0010
0000
0001
0000
0000
0010
0000
0000
,
0100
1000
0100
1000
0100
1000
0100
1000
0100
1000
0100
1000
0100
1000
0100
1000
0100
1000
0100
1000
0100
1000
0100
1000
,
0000
0000
0000
0000
0000
0000
0000
0000
0000
0000
0000
0000
0000
0000
0000
0000
0000
0000
0001
0100
0001
0100
0000
0000
,
0000
0010
1000
0010
1000
0010
1000
0010
1000
0010
1000
0010
1000
0010
1000
0010
1000
0010
1000
0010
1000
0010
1000
0010
,
1000
0010
1000
0000
0000
0000
0100
0000
0000
0010
0000
0000
0001
1000
0001
1000
0001
0000
0010
0000
0000
0100
0000
0000
,
1000
0100
1000
0100
1000
0100
1000
0100
1000
0100
1000
0100
1000
0100
1000
0100
1000
0100
1000
0100
1000
0100
1000
0100
,
1000
0100
1000
0100
1000
0000
0000
0000
0000
0000
0000
0000
0000
0000
0000
0000
0000
0000
0000
0000
0000
0000
0000
0000
,
1000
0001
0010
0100
1000
0000
1000
0001
0010
0100
1000
0000
1000
0001
0100
0001
,
0010
0100
0010
0001
1000
0000
0001
0010
0100
0010
0001
0000
1000
0100
1000
0100
,
0010
0000
0000
0010
0000
0000
0010
0000
0010
0000
0000
0100
0000
0000
0010
0000
,
0001
0000
0100
0000
0001
0000
0100
0000
0001
0000
0000
0000
0000
0000
0000
0000
0000
0000
0000
0000
0000
0000
0000
0000
1000
0000
0000
0000
0000
0000
0000
0000
0000
0001
0000
0000
0000
0000
0000
0000
0000
0000
0010
0000
0000
0000
0000
0000
,
1000
0100
1000
0100
1000
0100
1000
0100
1000
0100
1000
0100
1000
0100
1000
0100
1000
0100
1000
0100
1000
0100
1000
0000
,
0000
0000
0000
0000
,
1010
0000
0000
1010
0000
0000
0110
0000
1010
0000
0000
1010
0000
0000
0101
0000
,
2010
0000
0000
3010
0000
0000
1010
0000
0100
0000
0000
0001
0010
0000
0101
0000
,
0010
0100
0010
0100
0010
0100
0010
0100
0010
0100
0010
0100
0010
0100
0010
0100
0010
0100
0010
0100
0010
0100
0010
0100
,
0010
0000
0000
0000
,
1001
0000
0000
0000
0110
0000
0000
0000
1001
0000
0000
0000
0011
0100
0000
1000
,
0110
0000
0011
0000
1100
0010
0000
0001
1010
0000
0101
0000
1001
0000
0000
0000
,
1010
0000
0000
0000
0101
0000
0000
0000
0110
0000
0000
0000
1100
0100
0000
0010
,
0011
0000
0101
0000
1010
0100
0000
0010
0101
0000
1001
0000
1010
0000
0000
0000
,
1100
0000
0010
0001
0100
0010
1000
0100
0010
0001
0100
0010
1000
0100
1000
0001
,
0010
0000
0000
0001
0000
0000
0010
0000
0000
0100
0000
0000
0010
0000
0000
0000
0100
0000
0000
0000
1000
0000
0000
0000
0100
0000
0000
0000
0010
0000
0000
0000
0100
0000
0000
0000
0010
0000
0000
0000
0000
0000
0000
0000
0000
0000
0000
0000
,
1010
0000
0000
0000
0101
0000
0000
0000
0011
0000
0000
0000
1100
0010
0000
0100
,
0011
0000
1100
0000
0011
0100
0000
0010
1001
0000
1100
0000
0101
0000
0000
0000
,
1002
0000
0000
0000
0100
0000
0000
0000
0010
0000
0000
0000
0010
0100
0000
0103
,
1020
0000
1000
0000
1000
0100
0000
0100
0001
0000
0100
0030
1002
0000
0000
0003
,
1020
0000
0000
0000
0100
0000
0000
0000
0001
0000
0000
0000
0100
1000
0000
1030
,
0102
0000
0010
0000
0100
1000
0000
1000
0010
0000
0100
0003
1200
0000
0000
0300
,
0010
0000
0100
0001
0100
0010
1000
0100
0010
0100
0010
0001
0010
0001
0010
0100
,
1000
0000
0000
0010
0000
0000
0100
0000
0000
0010
0000
0000
1000
0000
0000
0000
0001
0000
0000
0000
0010
0000
0000
0000
0100
0000
0000
0000
1000
0000
0000
0000
0100
0000
0000
0000
1000
0000
0000
0000
0000
0000
0000
0000
0000
0000
0000
0000
,
1010
0000
0000
0000
0011
0000
0000
0000
1100
0000
0000
0000
0110
0001
0000
1000
,
0101
0000
0110
0000
1100
0010
0000
0010
1100
0000
0110
0000
0011
0000
0000
0000
,
1100
0000
1100
0000
1100
0000
1100
0000
1100
0000
1100
0000
0100
1000
0100
1000
0100
0000
0010
0000
0000
0001
0000
0000
,
0001
0000
0000
0000
0000
0000
0000
0000
0010
0000
0000
0000
0000
0000
0000
0000
0001
0000
0000
0000
0000
0000
0000
0000
0010
0000
0000
0000
0000
0000
0000
0000
0001
0000
0000
0000
0000
0000
0000
0000
0010
0000
0000
0000
0000
0000
0000
0000
0001
0000
0000
0000
0000
0000
0010
0000
0000
0000
0000
0000
0001
0000
0000
0000
0000
0000
0010
0000
0000
0000
0000
0000
0001
0000
0000
0000
0000
0000
0010
0000
0000
0000
0000
0000
0001
0000
0000
0000
0000
0000
0010
0000
0000
0000
0000
0000
0001
0000
0000
0000
0000
0000
0000
0000
0000
0000
0000
0000
0000
0000
0000
0000
0000
0000
0000
0000
0000
0000
0000
0000
0000
0000
0000
0000
0000
0000
0000
0000
0000
0000
0000
0000
0000
0000
0000
0000
0000
0000
0000
0000
0000
0000
0000
0000
1000
0000
0000
0000
0000
0000
0000
0000
0000
0000
0000
0000
0000
0000
0000
0000
0100
0000
0000
0000
0000
0000
0000
0000
0000
0000
0000
0000
0000
0000
0000
0000
0010
0000
0000
0000
0000
0000
0000
0000
0000
0000
0000
0000
0000
0000
0000
0000
,
0001
0000
0000
0000
0000
0000
0000
0000
1000
0000
0000
0000
0000
0000
0000
0000
0001
0000
0000
0000
0000
0000
0000
0000
1000
0000
0000
0000
0000
0000
0000
0000
0001
0000
0000
0000
0000
0000
0000
0000
1000
0000
0000
0000
0000
0000
0000
0000
0001
0000
0000
0000
0000
0000
1000
0000
0000
0000
0000
0000
0001
0000
0000
0000
0000
0000
1000
0000
0000
0000
0000
0000
0001
0000
0000
0000
0000
0000
0000
0000
1000
0000
0000
0000
0000
0000
0000
0000
0001
0000
0000
0000
0000
0000
0000
0000
1000
0000
0000
0000
0000
0000
0000
0000
0000
0000
0000
0000
0000
0000
0000
0000
0000
0000
0000
0000
0000
0000
0000
0000
0000
0000
0000
0000
0000
0000
0000
0000
0000
0000
0000
0000
1000
0000
0000
0000
0000
0000
0000
0000
0000
0000
0000
0000
0000
0000
0000
0000
0000
0000
0000
0000
0000
0000
0000
0000
0000
0000
0000
0000
0000
0000
0000
0000
0000
0000
0000
0000
0100
0000
0000
0000
0000
0000
0000
0000
0000
0000
0000
0000
0000
0000
0000
0000
0000
0000
0000
0000
0000
0000
0000
0000
,
0010
0000
0000
0010
0000
0000
0010
0000
0010
0000
0000
0100
0000
0000
0010
0000
,
0100
0001
1000
0010
0100
0001
1000
0010
0100
0001
1000
0010
0100
0001
1000
0010
,
0100
0010
1000
0100
0010
0001
1000
0100
0010
0001
0010
0100
1000
0100
1000
0000
,
1010
0000
0000
0101
0000
0000
0010
0000
1100
0000
0000
0110
0000
0000
0011
0000
,
1100
0000
0000
0010
0000
0000
0100
0000
0011
0000
0000
0110
0000
0000
1100
0000
,
0100
0010
0001
0010
0100
0000
0100
0010
0001
0010
0100
0000
0100
0010
0001
0010
,
0100
1000
0100
1000
0100
0000
0010
0001
0010
0100
1000
0000
1000
0100
0010
0001
,
1001
0000
0000
1001
0000
0000
1100
0000
0011
0000
0101
0000
1010
0000
0000
0000
,
1010
0000
0000
0101
0000
0000
0110
0000
1001
0000
1100
0000
1001
0000
0101
0000
,
0100
0000
0000
0000
0000
0000
0000
0000
0001
0000
0000
0000
0000
0000
0000
0000
0100
0000
0000
0000
0000
0000
0000
0000
0001
0000
0000
0000
0000
0000
0000
0000
0100
0000
0000
0000
0000
0000
0000
0000
0001
0000
0000
0000
0000
0000
0000
0000
0100
0000
0000
0000
0000
0000
0001
0000
0000
0000
0000
0000
0100
0000
0000
0000
0000
0000
0001
0000
0000
0000
0000
0000
0100
0000
0000
0000
0000
0000
0001
0000
0000
0000
0000
0000
0100
0000
0000
0000
0000
0000
0001
0000
0000
0000
0000
0000
0100
0000
0000
0000
0000
0000
0000
0000
0000
0000
0000
0000
0000
0000
0000
0000
0000
0000
0000
0000
0000
0000
0000
0000
0000
0000
0000
0000
0000
0000
0000
0000
0000
0000
0000
0000
0010
0000
0000
0000
0000
0000
0000
0000
0000
0000
0000
0000
0000
0000
0000
0000
0000
0000
0000
0000
0000
0000
0000
0000
0000
0000
0000
0000
0000
0000
0000
0000
0000
0000
0000
0000
0001
0000
0000
0000
0000
0000
0000
0000
0000
0000
0000
0000
0000
0000
0000
0000
0000
0000
0000
0000
0000
0000
0000
0000
,
0010
0000
0000
0100
0000
0000
1000
0000
0100
0000
0000
1000
0000
0000
0010
0000
,
0100
0000
0000
0000
0000
0000
0000
0000
0000
0100
0000
0000
0010
0000
0100
0000
0010
0000
0100
0000
0010
0000
0100
0000
0010
0000
0000
0000
1000
0000
0000
0000
0100
0000
0000
0000
0010
0000
0000
0000
0000
0000
0000
0000
0000
0000
0000
0000
,
0100
0000
0000
0000
1000
0000
0000
0000
0100
0000
0000
0000
1000
0000
0000
0000
0100
0000
0000
0000
0010
0000
0000
0000
0100
0000
0000
0000
0000
0000
0000
0000
0000
0000
0000
0000
1000
0000
0000
0000
0000
0000
0100
0000
0000
0010
0000
0000
,
0001
0010
0001
0010
0001
0010
0001
0010
0001
0010
0001
0010
0001
0010
0001
0000
0000
0000
0000
0000
0000
0000
0000
0000
,
0000
0000
0000
0000
,
1000
0100
0010
0100
0010
0000
0001
0010
0100
0010
0100
0000
1000
0100
0010
0001
,
0010
0001
0010
0001
0010
0000
0100
1000
0100
1000
0100
0000
1000
0100
0010
0001
,
1001
0000
0000
1001
0000
0000
1001
0000
1001
0000
1001
0000
0101
0000
0000
0000
,
1100
0000
0000
0101
0000
0000
1100
0000
0101
0000
0011
0000
0110
0000
0000
0000
,
1000
0100
0010
0001
0010
0001
1000
0100
0010
0001
0010
0001
,
1000
0010
0100
0001
0010
0001
0010
0100
1000
0100
0010
0001
0010
0000
0000
0100
0010
0001
0100
0010
1000
0001
0100
0010
,
1100
0000
1000
0000
1100
1000
0000
1100
0001
0000
0001
0000
0011
0001
0000
0011
,
0001
0000
0000
0100
0000
0000
0110
0000
1100
0000
1100
0000
1100
0000
1100
0000
1100
0000
0011
0000
0000
0000
0000
0000
,
0010
0000
0100
1000
0000
1000
0100
0000
0001
0000
0100
1000
0000
1000
0100
0000
,
0010
0000
0100
1000
0000
1000
0100
0000
0001
0000
0011
0000
1100
0000
0110
0000
,
2001
0000
0000
0010
0000
0000
0100
0000
0000
0000
0100
0000
0010
3000
0001
0010
,
0100
0000
0000
0000
0000
0000
1000
0000
0000
0000
0000
0000
0100
0000
0000
0000
0000
0000
0000
0000
0100
0000
0000
0000
0001
1000
0001
0000
0000
0000
0000
0000
,
2100
0000
3002
0203
,
0320
2030
3002
0023
,
0130
0000
1000
0100
0000
1000
0100
0000
0100
0000
1000
0100
0000
1000
0100
0000
,
0100
0000
1000
0100
0000
0010
0001
0100
0001
0000
0010
0001
0000
0010
0001
0010
,
0100
0000
0000
1000
0100
1000
0000
0000
0000
0100
0000
0000
1010
0000
0010
0000
0010
0000
0010
0000
0000
0100
0000
0000
,
1100
0000
1000
0000
1000
0000
0110
0000
0100
0000
0100
0000
0011
0000
0010
0000
0010
0001
0010
0000
0000
0100
0010
0001
,
0000
0000
0000
1000
0100
0010
0000
0000
0000
1000
0100
1000
0000
0000
0000
0001
0010
0100
0000
0000
0000
0001
0010
0001
,
1000
0000
0000
0010
0000
0000
0100
0000
0000
0001
0000
0000
0010
0000
0000
0100
0000
0000
1000
0000
0000
0100
0000
0000
0010
0000
0000
0000
0001
0000
0000
0000
0010
0000
0000
0000
0100
0000
0000
0000
0010
0000
0000
0000
0100
0000
0000
0000
,
1001
0000
0000
0010
0000
0000
0100
0000
0000
0000
0010
0000
0100
0000
0000
0000
,
1000
0000
0000
0010
0000
0000
0100
0000
0000
0000
0001
0000
1000
0000
0000
0000
,
1100
0001
0010
0001
1100
0000
0001
0010
,
1100
0000
0001
0010
1100
0010
0100
0000
,
0001
0010
0001
0000
1000
0100
1000
0000
0100
0010
0100
0000
0010
0001
0010
0000
,
1000
0000
0000
0001
0000
0000
1000
0000
0000
0000
0000
0000
0010
0000
0000
0100
0000
0000
0010
0000
0000
0000
0000
0000
1000
0000
0000
0000
0000
0000
0100
0000
0010
0000
0001
0000
0000
0000
0000
0000
0000
0000
0000
0000
0000
0000
0000
0000
,
1000
0000
0100
0000
1000
0100
0010
0001
0100
0010
1000
0100
0010
0001
0100
0010
,
2000
0000
0000
0000
0000
0000
3010
0000
0200
0000
0000
0310
0000
0000
1000
0000
,
0020
0000
0000
0000
0000
0000
1030
0000
0100
0000
0000
0010
0000
0000
0001
0000
,
1000
0000
0100
0000
1000
0000
0100
0000
0010
0100
1000
0001
0010
0001
1000
0100
,
0020
0000
0000
0000
0000
0000
0000
0000
0000
0000
0000
0000
0000
0030
0001
0100
,
0002
0000
0000
0000
0000
0000
0000
0000
0000
0000
0000
0000
0000
0000
0000
0000
0000
0000
0000
0000
0000
0000
0003
0000
1000
0001
1000
0000
0000
0000
0000
0000
,
1000
0100
1000
0000
0000
0000
1000
0000
0000
0000
0000
0000
0001
0000
0000
0000
0010
0000
0000
0000
0100
0000
0010
0000
0100
0000
0000
0000
1000
0000
0000
0000
,
0001
0000
0000
0000
0000
0000
1000
0100
0010
0000
0000
0000
0000
0000
0000
0000
0001
0000
0000
0000
0100
0000
0000
0000
0010
0000
0000
0000
0000
0000
0000
0000
,
0001
0000
0100
0000
0000
0000
0001
0000
0100
0000
0000
0000
0000
0000
0010
1000
0100
0000
0000
0000
0100
0000
0000
0000
0100
0000
0000
0000
0000
0000
0010
0100
,
1000
0100
1000
0001
0010
0001
0010
0100
0010
1000
0000
0000
,
0010
0100
1000
0001
0100
0010
1000
0000
1000
0100
1000
0001
0010
0100
0010
0100
,
1000
0000
0010
0000
1000
0000
0000
0000
0000
0000
0000
0000
0001
0000
0010
0000
0001
0000
0000
0000
0000
0000
0000
0000
1000
0000
0000
0100
0000
0000
0010
0000
0000
0001
0000
0000
0100
0000
0000
1000
0000
0000
0100
0000
0000
0001
0000
0000
,
0010
0001
0010
0100
1000
0100
0010
0000
0000
0100
0000
0000
,
1000
0100
1000
0000
0000
0000
0000
0000
1000
0000
0000
0000
0000
0000
0000
0000
0001
0000
0000
0000
0010
0000
0000
0000
0100
0000
0000
0000
1000
0000
0000
0000
,
2002
0000
0000
0000
,
0000
0000
0000
0000
0000
0000
0000
0000
0000
0000
0000
0000
0000
0000
3003
0100
,
0001
0000
0000
0100
0001
0000
0000
0100
0001
0000
0000
0100
0001
0000
0000
0100
,
0001
0000
0000
0100
0001
0000
0000
0100
0001
0000
0000
0100
0001
0000
0000
0100
,
2002
0000
3003
1100
0110
0000
0011
0000
,
0011
0100
0010
2200
0000
0000
0000
0000
0000
3300
0001
0010
,
1100
0000
0000
0000
1100
0000
0110
0000
0011
0000
0000
0101
0000
0000
1010
0000
,
0220
0000
0000
0000
0000
0000
0000
0000
0330
0000
1100
0000
0000
0110
0000
0000
,
0011
0000
0000
1001
0000
0000
0101
0000
0011
0000
0000
1001
0000
0000
0101
0000
,
0110
0000
0000
1010
0000
0000
0011
0000
0110
0000
0000
1010
0000
0000
0011
0000
,
1100
0000
0000
0101
0000
0000
0110
0000
1100
0000
0000
0101
0000
0000
0110
0000
,
1001
0000
0000
1001
0000
0000
1001
0000
1001
0000
0000
0110
0000
0000
1100
0000
,
0202
0000
0003
0002
0000
0003
0001
0001
,
0020
0000
0000
0000
0030
0000
0320
0000
0100
0000
0030
1000
0010
0000
0110
0000
,
2002
0000
0003
0002
0000
0003
0001
3001
,
0021
0000
0000
0100
0030
0000
0021
0000
0100
0000
0030
1000
0010
0000
0110
0000
,
2002
0000
0003
0002
0000
0003
0001
0001
,
0020
0000
0000
0000
0030
0000
3020
0000
0001
0000
0030
0100
0010
0000
1010
0000
,
0202
0000
0003
0002
0000
0003
0001
0001
,
0020
0000
0000
0000
0030
0000
0320
0000
1000
0000
0030
0100
0010
0000
1010
0000
,
2002
0000
0000
0000
0000
0000
0000
3003
,
0100
0010
0100
0000
0000
0000
0000
0000
0000
0000
0000
0000
0000
0000
0000
0000
0000
0000
0000
0000
0000
0000
0000
0000
;
