#TITLE:One More Lovely;
#SUBTITLE:;
#ARTIST:Risk Junk;
#TITLETRANSLIT:;
#SUBTITLETRANSLIT:;
#ARTISTTRANSLIT:;
#CREDIT:;
#BANNER:OneMoreLovelyBNR.PNG;
#BACKGROUND:OneMoreLovelyBG.PNG;
#LYRICSPATH:;
#CDTITLE:!eggmanTitle.png;
#MUSIC:One_More_Lovely.mp3;
#OFFSET:-1.260;
#SAMPLESTART:29.999;
#SAMPLELENGTH:12.000;
#SELECTABLE:YES;
#BPMS:0.000=200.000;
#STOPS:;
#BGCHANGES:;
// cache tags:
#FIRSTBEAT:2.000;
#LASTBEAT:353.750;
#SONGFILENAME:Songs/Community Keyboard Megapack - Volume 1/(EggmaniMN) One More Lovely/OneMoreLovely.sm;
#HASMUSIC:1;
#HASBANNER:1;
#MUSICLENGTH:112.724;
// end cache tags

//---------------dance-single - ----------------
#NOTES:
     dance-single:
     :
     Hard:
     13:
     1.000,1.000,1.000,0.000,1.000,1092.000,117.000,0.000,0.000,0.000:

0000
0000
0000
0000
0000
0000
0000
0000
1000
0001
1000
0000
1001
0000
0000
0000
,
1001
0001
1000
0010
1010
0100
0101
0001
,
1000
0100
1000
0100
1100
0010
0011
0001
,
1000
0010
1000
0010
1010
0100
0110
0100
,
0101
0001
1001
1000
1100
0100
0110
0010
,
0011
0001
1000
0010
1010
0100
0110
0100
,
0001
1000
0100
1000
1100
0010
0110
0001
,
0100
0010
0100
0001
0101
0001
0101
1001
,
0000
0000
0001
0000
1000
0000
1000
0000
0100
0010
0001
1000
0010
0000
0100
0010
,
1000
0100
0010
0001
1000
0010
0100
0001
1000
0100
0010
0001
1000
0010
0100
0001
,
1000
0100
0010
0001
1000
0010
0100
0001
1000
0100
0010
0001
1000
0010
0100
0001
,
1000
0010
0100
0001
1000
0100
0010
0001
1000
0010
0100
0001
1000
0100
0010
0001
,
1000
0100
0010
0001
1000
0100
0010
0001
1000
0100
0010
0001
1000
0100
0010
0001
,
1000
0010
1000
0001
0010
0001
1000
0100
1000
0001
0100
0001
1000
0010
1000
0001
,
0100
0010
1000
0100
0010
0100
1000
0010
0100
0001
1000
0100
1000
0010
1000
0001
,
0010
0001
0100
0001
1000
0100
0010
0001
1000
0010
0100
0001
1000
0100
0010
0100
,
1000
0100
0010
0001
1000
0100
0010
0001
1000
0100
0010
0001
1000
0100
0010
0001
,
1000
0010
0100
0001
1000
0010
0100
0001
1000
0010
0100
0001
1000
0010
0100
0001
,
1001
1000
1010
1000
1001
1000
1100
1000
,
1001
0001
0101
0001
0011
0001
1001
0001
,
0001
0100
0010
1000
0001
0100
0010
1000
0001
0100
0010
1000
0001
0100
0010
1000
,
0100
0010
0100
1000
0010
0100
0001
0010
0001
0100
0001
1000
0100
0010
0100
0010
,
0001
1000
0010
0100
0010
1000
0100
0010
0001
0100
0010
0100
0001
0100
0010
1000
,
0010
1000
0100
1000
0001
0100
0010
0100
0001
0010
0001
0100
0010
0100
0010
1000
,
0100
0010
0001
1000
0010
0100
0001
1000
0100
0010
0100
1000
0010
0100
0010
0100
,
0001
1000
0100
0010
0001
1000
0001
0100
0010
0100
0001
1000
0100
0010
0100
1000
,
0001
0100
0010
1000
0010
0100
0001
1000
0100
0010
0001
0010
0100
1000
0010
0100
,
0001
1000
0100
0010
0001
1000
0010
0100
0010
0100
0010
0100
0001
1000
0001
1000
,
0010
0000
0000
0100
,
0001
1000
0100
0010
,
0001
0000
0000
1000
,
0010
0100
0010
1000
,
0100
0000
0000
0010
,
0001
1000
0010
0100
,
0010
0000
0000
1000
,
0100
0010
0000
0001
0000
1000
0000
0000
,
1001
0000
0000
0000
0000
0000
0000
0000
1000
0001
1000
0000
1001
0000
0000
0000
,
1000
0100
0010
0100
1000
0001
0100
0010
0100
0001
1000
0001
0100
0010
1000
0100
,
0010
0001
1000
0001
1000
0100
0010
0001
0100
0010
1000
0001
0100
0010
1000
0001
,
1000
0100
0010
0100
1000
0100
0010
0001
0100
0010
1000
0001
0100
0010
0100
0001
,
1000
0010
1000
0100
1000
0010
0100
0001
0010
0001
0100
0010
1000
0001
1000
0100
,
0010
0100
1000
0010
0100
0001
1000
0100
0010
0100
1000
0001
0100
0010
0100
0001
,
1000
0010
0100
0010
1000
0001
0010
0001
0100
0001
1000
0010
1000
0100
0010
0100
,
1000
0001
0100
0010
0100
0001
1000
0100
0010
0001
0100
0010
0100
0010
1000
0001
,
0100
0010
1000
0100
0010
0001
1000
0010
0100
0010
1000
0100
0010
0001
1000
0001
,
0100
0010
1000
0001
0100
0010
1000
0100
0010
0001
1000
0100
0010
0001
1000
0001
,
0100
0010
1000
0001
0100
0010
1000
0100
0010
0100
1000
0001
1000
0100
0010
0100
,
1000
0001
0100
0010
0100
0010
0100
0001
1000
0001
0100
0001
1000
0100
1000
0010
,
1000
0100
0010
0001
1000
0010
0100
0001
1000
0001
0100
0010
1000
0100
0010
0100
,
1000
0010
0100
0001
0010
0100
0010
0001
1000
0001
0100
0010
0100
0010
1000
0100
,
0010
0100
0010
0001
1000
0001
0100
0010
1000
0001
1000
0100
0010
0001
1000
0001
,
0100
0010
1000
0100
0010
0100
1000
0001
0100
0010
0100
0001
1000
0001
0100
0010
,
1000
0100
0010
0001
1000
0100
0010
0001
0010
0100
1000
0001
0010
0100
1000
0001
,
1001
0001
0101
0010
1010
1000
1100
0010
,
0001
0100
0101
0100
1010
1000
1100
0010
,
0001
1000
1001
0001
0101
0010
1010
0110
,
0100
0101
1001
1000
1100
0011
1100
1001
,
1000
0100
1100
0010
0011
0001
1001
1000
,
0010
0100
0110
0100
0101
0001
1001
0110
,
0100
0101
1001
1000
1100
0010
0011
0001
,
1001
0000
1000
0000
1100
0000
0010
0000
0001
0010
0100
1000
0010
0100
0001
1000
,
0100
0010
0001
1000
0010
0100
0001
1000
0100
0010
0001
1000
0100
0010
0001
1000
,
0010
0100
0010
1000
0001
0100
0010
1000
0100
0010
0001
1000
0001
0100
0010
0100
,
0001
1000
0100
0010
0001
0010
0100
0010
0001
1000
0010
0100
0010
0100
0001
1000
,
0100
1000
0010
1000
0001
0010
0001
0100
0010
1000
0100
0010
0001
1000
0010
0100
,
0001
1000
0100
0010
0100
1000
0010
0100
0001
1000
0001
0100
0010
1000
0100
0010
,
0001
1000
0010
0100
0001
1000
0001
0100
0010
1000
0100
1000
0100
0010
0001
0010
,
0001
0100
0001
0100
0010
1000
0010
1000
0001
1000
0001
0100
0010
0100
0010
1000
,
0100
0010
0001
1000
0010
0100
0001
1000
0001
0100
0010
1000
0001
0100
0010
1000
,
0010
0100
0101
0001
1001
1000
1100
0010
,
0011
0001
1001
1000
1010
0100
0101
0001
,
0011
0100
0011
0010
1100
0010
1100
1000
,
1001
0000
0000
0000
0000
0000
0000
0000
0000
0000
0000
0000
0010
0000
0000
0000
0000
0000
0000
0000
0000
0000
0000
0000
1001
0000
0000
0000
0000
0000
0000
0000
0000
0000
0000
0000
1000
0000
0000
0000
0000
0000
0000
0000
0000
0000
0000
0000
1100
0000
0000
0000
0000
0000
0000
0000
0000
0000
0000
0000
0010
0000
0000
0000
0000
0000
0000
0000
0000
0000
0000
0000
0001
0000
0000
0000
0000
0000
0000
0000
0010
0000
0000
0000
0100
0000
0000
1000
0000
0000
0000
0000
0000
0000
0000
0000
,
0010
0100
0101
0001
1001
1000
1100
0010
,
0011
0001
0101
0010
1010
1000
1001
0001
,
0101
0100
0110
0010
1010
1000
1001
0001
,
0100
0000
0010
0000
1000
0000
0100
0000
0010
0001
0100
0010
1000
0000
0001
1000
,
0100
0010
0001
1000
0010
0100
0010
1000
0001
0100
0010
1000
0100
0010
0001
1000
,
0010
0100
0010
1000
0001
0100
0010
0100
0001
1000
0100
0010
0100
1000
0001
0100
,
0010
1000
0001
0100
0001
1000
0010
1000
0001
0100
0010
0100
0001
1000
0100
0010
,
0100
1000
0010
0100
0001
1000
0100
0010
0001
1000
0001
0100
0010
1000
0001
0100
,
0010
1000
0100
0010
0001
1000
0100
0010
0001
0100
0001
0100
0010
1000
0010
1000
,
0001
1000
0001
0100
0010
1000
0100
0010
0100
1000
0001
0100
0010
0100
0001
1000
,
0100
0010
0001
0010
0100
1000
0001
0100
0010
0100
0001
1000
0100
0010
0100
1000
,
0010
0100
0001
0100
0010
1000
0010
1000
0100
0010
0100
0010
0001
1000
0010
0100
,
0001
1000
0100
0010
0100
1000
0010
0100
0001
1000
0100
0010
0001
1000
0010
0100
,
1001
0110
1001
0110
1001
0110
1001
0110
1001
0110
1001
0110
1001
0110
1001
0110
,
1001
0110
1001
0110
1001
0110
1001
0110
1001
0110
1001
0110
1001
0110
1001
0110
,
1000
0100
0010
0001
1000
0010
0100
0001
0000
0000
0000
0000
0000
0000
0000
0000
,;

//---------------dance-single - ----------------
#NOTES:
     dance-single:
     :
     Medium:
     11:
     1.000,1.000,0.754,0.000,1.000,1092.000,85.000,0.000,0.000,0.000:
0000
0000
0000
0000
0000
0000
0000
0000
1000
0001
1000
0000
1001
0000
0000
0000
,
1001
0001
1000
0010
1010
0100
0101
0001
,
1000
0100
1000
0100
1100
0010
0011
0001
,
1000
0010
1000
0010
1010
0100
0110
0100
,
0101
0001
1001
1000
1100
0100
0110
0010
,
0011
0001
1000
0010
1010
0100
0110
0100
,
0001
1000
0100
1000
1100
0010
0110
0001
,
0100
0010
0100
0001
0101
0001
0101
1001
,
0000
0000
0001
0000
1000
0000
1000
0000
0100
0010
0001
1000
0010
0000
0100
0010
,
1000
0100
0010
0001
1000
0010
0100
0001
1000
0100
0010
0001
1000
0010
0100
0001
,
1000
0100
0010
0001
1000
0010
0100
0001
1000
0100
0010
0001
1000
0010
0100
0001
,
1000
0010
0100
0001
1000
0100
0010
0001
1000
0010
0100
0001
1000
0100
0010
0001
,
1000
0100
0010
0001
1000
0100
0010
0001
1000
0100
0010
0001
1000
0100
0010
0001
,
1000
0010
1000
0001
0010
0001
1000
0100
1000
0001
0100
0001
1000
0010
1000
0001
,
0100
0010
1000
0100
0010
0100
1000
0010
0100
0001
1000
0100
1000
0010
1000
0001
,
0010
0001
0100
0001
1000
0100
0010
0001
1000
0010
0100
0001
1000
0100
0010
0100
,
1000
0100
0010
0001
1000
0100
0010
0001
1000
0100
0010
0001
1000
0100
0010
0001
,
1000
0010
0100
0001
1000
0010
0100
0001
1000
0010
0100
0001
1000
0010
0100
0001
,
1001
1000
1010
1000
1001
1000
1100
1000
,
1001
0001
0101
0001
0011
0001
1001
0001
,
0001
0100
0010
1000
0001
0100
0010
1000
0001
0100
0010
1000
0001
0100
0010
1000
,
0100
0010
0100
1000
0010
0100
0001
0010
0001
0100
0001
1000
0100
0010
0100
0010
,
0001
1000
0010
0100
0010
1000
0100
0010
0001
0100
0010
0100
0001
0100
0010
1000
,
0010
1000
0100
1000
0001
0100
0010
0100
0001
0010
0001
0100
0010
0100
0010
1000
,
0100
0010
0001
1000
0010
0100
0001
1000
0100
0010
0100
1000
0010
0100
0010
0100
,
0001
1000
0100
0010
0001
1000
0001
0100
0010
0100
0001
1000
0100
0010
0100
1000
,
0001
0100
0010
1000
0010
0100
0001
1000
0100
0010
0001
0010
0100
1000
0010
0100
,
0001
1000
0100
0010
0001
1000
0010
0100
0010
0100
0010
0100
0001
1000
0001
1000
,
0010
0000
0000
0100
,
0001
1000
0100
0010
,
0001
0000
0000
1000
,
0010
0100
0010
1000
,
0100
0000
0000
0010
,
0001
1000
0010
0100
,
0010
0000
0000
1000
,
0100
0010
0000
0001
0000
1000
0000
0000
,
1001
0000
0000
0000
0000
0000
0000
0000
1000
0001
1000
0000
1001
0000
0000
0000
,
1000
0100
0010
0100
1000
0001
0100
0010
0100
0001
1000
0001
0100
0010
1000
0100
,
0010
0001
1000
0001
1000
0100
0010
0001
0100
0010
1000
0001
0100
0010
1000
0001
,
1000
0100
0010
0100
1000
0100
0010
0001
0100
0010
1000
0001
0100
0010
0100
0001
,
1000
0010
1000
0100
1000
0010
0100
0001
0010
0001
0100
0010
1000
0001
1000
0100
,
0010
0100
1000
0010
0100
0001
1000
0100
0010
0100
1000
0001
0100
0010
0100
0001
,
1000
0010
0100
0010
1000
0001
0010
0001
0100
0001
1000
0010
1000
0100
0010
0100
,
1000
0001
0100
0010
0100
0001
1000
0100
0010
0001
0100
0010
0100
0010
1000
0001
,
0100
0010
1000
0100
0010
0001
1000
0010
0100
0010
1000
0100
0010
0001
1000
0001
,
0100
0010
1000
0001
0100
0010
1000
0100
0010
0001
1000
0100
0010
0001
1000
0001
,
0100
0010
1000
0001
0100
0010
1000
0100
0010
0100
1000
0001
1000
0100
0010
0100
,
1000
0001
0100
0010
0100
0010
0100
0001
1000
0001
0100
0001
1000
0100
1000
0010
,
1000
0100
0010
0001
1000
0010
0100
0001
1000
0001
0100
0010
1000
0100
0010
0100
,
1000
0010
0100
0001
0010
0100
0010
0001
1000
0001
0100
0010
0100
0010
1000
0100
,
0010
0100
0010
0001
1000
0001
0100
0010
1000
0001
1000
0100
0010
0001
1000
0001
,
0100
0010
1000
0100
0010
0100
1000
0001
0100
0010
0100
0001
1000
0001
0100
0010
,
1000
0100
0010
0001
1000
0100
0010
0001
0010
0100
1000
0001
0010
0100
1000
0001
,
1001
0001
0101
0010
1010
1000
1100
0010
,
0001
0100
0101
0100
1010
1000
1100
0010
,
0001
1000
1001
0001
0101
0010
1010
0110
,
0100
0101
1001
1000
1100
0011
1100
1001
,
1000
0100
1100
0010
0011
0001
1001
1000
,
0010
0100
0110
0100
0101
0001
1001
0110
,
0100
0101
1001
1000
1100
0010
0011
0001
,
1001
0000
1000
0000
1100
0000
0010
0000
0001
0010
0100
1000
0010
0100
0001
1000
,
0100
0010
0001
1000
0010
0100
0001
1000
0100
0010
0001
1000
0100
0010
0001
1000
,
0010
0100
0010
1000
0001
0100
0010
1000
0100
0010
0001
1000
0001
0100
0010
0100
,
0001
1000
0100
0010
0001
0010
0100
0010
0001
1000
0010
0100
0010
0100
0001
1000
,
0100
1000
0010
1000
0001
0010
0001
0100
0010
1000
0100
0010
0001
1000
0010
0100
,
0001
1000
0100
0010
0100
1000
0010
0100
0001
1000
0001
0100
0010
1000
0100
0010
,
0001
1000
0010
0100
0001
1000
0001
0100
0010
1000
0100
1000
0100
0010
0001
0010
,
0001
0100
0001
0100
0010
1000
0010
1000
0001
1000
0001
0100
0010
0100
0010
1000
,
0100
0010
0001
1000
0010
0100
0001
1000
0001
0100
0010
1000
0001
0100
0010
1000
,
0010
0100
0101
0001
1001
1000
1100
0010
,
0011
0001
1001
1000
1010
0100
0101
0001
,
0011
0100
0011
0010
1100
0010
1100
1000
,
1001
0000
0000
0000
0000
0000
0000
0000
0000
0000
0000
0000
0000
0000
0000
0000
0000
0000
0000
0000
0000
0000
0000
0000
0010
0000
0000
0000
0000
0000
0000
0000
0000
0000
0000
0000
0000
0000
0000
0000
0000
0000
0000
0000
0000
0000
0000
0000
1001
0000
0000
0000
0000
0000
0000
0000
0000
0000
0000
0000
0000
0000
0000
0000
0000
0000
0000
0000
0000
0000
0000
0000
1000
0000
0000
0000
0000
0000
0000
0000
0000
0000
0000
0000
0000
0000
0000
0000
0000
0000
0000
0000
0000
0000
0000
0000
1100
0000
0000
0000
0000
0000
0000
0000
0000
0000
0000
0000
0000
0000
0000
0000
0000
0000
0000
0000
0000
0000
0000
0000
0010
0000
0000
0000
0000
0000
0000
0000
0000
0000
0000
0000
0000
0000
0000
0000
0000
0000
0000
0000
0000
0000
0000
0000
0001
0000
0000
0000
0000
0000
0000
0000
0000
0000
0000
0000
0000
0000
0000
0000
0010
0000
0000
0000
0000
0000
0000
0000
0100
0000
0000
0000
0000
0000
1000
0000
0000
0000
0000
0000
0000
0000
0000
0000
0000
0000
0000
0000
0000
0000
0000
0000
,
0010
0100
0101
0001
1001
1000
1100
0010
,
0011
0001
0101
0010
1010
1000
1001
0001
,
0101
0100
0110
0010
1010
1000
1001
0001
,
0100
0000
0010
0000
1000
0000
0100
0000
0010
0001
0100
0010
1000
0000
0001
1000
,
0100
0010
0001
1000
0010
0100
0010
1000
0001
0100
0010
1000
0100
0010
0001
1000
,
0010
0100
0010
1000
0001
0100
0010
0100
0001
1000
0100
0010
0100
1000
0001
0100
,
0010
1000
0001
0100
0001
1000
0010
1000
0001
0100
0010
0100
0001
1000
0100
0010
,
0100
1000
0010
0100
0001
1000
0100
0010
0001
1000
0001
0100
0010
1000
0001
0100
,
0010
1000
0100
0010
0001
1000
0100
0010
0001
0100
0001
0100
0010
1000
0010
1000
,
0001
1000
0001
0100
0010
1000
0100
0010
0100
1000
0001
0100
0010
0100
0001
1000
,
0100
0010
0001
0010
0100
1000
0001
0100
0010
0100
0001
1000
0100
0010
0100
1000
,
0010
0100
0001
0100
0010
1000
0010
1000
0100
0010
0100
0010
0001
1000
0010
0100
,
0001
1000
0100
0010
0100
1000
0010
0100
0001
1000
0100
0010
0001
1000
0010
0100
,
0001
1000
0100
0010
0100
1000
0010
0100
0001
0010
0001
1000
0100
1000
0010
0100
,
0001
0010
0100
0010
0001
1000
0100
0010
0100
1000
0010
0100
0001
0010
0100
0010
,
0001
0100
0010
1000
0010
0100
0001
1000
0000
0000
0000
0000
0000
0000
0000
0000
;
