#TITLE:Umbrella;
#SUBTITLE:;
#ARTIST:Rihanna;
#TITLETRANSLIT:;
#SUBTITLETRANSLIT:;
#ARTISTTRANSLIT:;
#CREDIT:;
#BANNER:umbrella-banner.png;
#BACKGROUND:umbrella-bg.jpg;
#LYRICSPATH:;
#CDTITLE:AznRebirth(v2)-cdtitle.png;
#MUSIC:UMBRELLA.ogg;
#OFFSET:1.360;
#SAMPLESTART:43.123;
#SAMPLELENGTH:12.000;
#SELECTABLE:YES;
#BPMS:0.000=174.000,71.000=87.000,125.000=174.000,191.000=87.000,277.000=174.000;
#STOPS:105.000=0.517
,105.250=0.517
,105.500=0.345
,111.000=0.517
,111.250=0.517
,111.500=0.345
,117.000=0.517
,117.250=0.517
,117.500=0.345
,123.000=0.517
,123.250=0.517
,123.500=0.525
,123.750=0.530
,225.000=0.517
,225.250=0.517
,225.500=0.345
,231.000=0.517
,231.250=0.517
,231.500=0.345
,237.000=0.517
,237.250=0.517
,237.500=0.345
,243.000=0.517
,243.250=0.517
,243.500=0.517
,243.750=0.517
,347.000=0.517
,347.500=0.517
,348.000=0.345
,359.000=0.517
,359.500=0.517
,360.000=0.345
,371.000=0.517
,371.500=0.517
,372.000=0.345
,383.000=0.517
,383.500=0.517
,384.000=0.517
,384.500=0.517
;
#BGCHANGES:;
// cache tags:
#FIRSTBEAT:4.000;
#LASTBEAT:430.000;
#SONGFILENAME:Songs/in the groove2/Rihanna Umbella/umbrella.sm;
#HASMUSIC:1;
#HASBANNER:0;
#MUSICLENGTH:105.000;
// end cache tags

//---------------dance-single - Blank----------------
#NOTES:
     dance-single:
     Blank:
     Challenge:
     10:
     1.000,1.000,0.343,0.229,0.700,791.000,36.000,24.000,1.000,36.000:



0000
0000
0000
0000
,
1000
0000
0100
0000
0010
0001
0010
0100
,
1000
0001
1000
0100
0010
0001
1000
0100
,
0010
0100
1000
0100
1000
0100
0010
0001
,
0010
0000
0001
0000
1000
0100
1000
0000
0100
1000
0100
0000
0110
0000
0011
0000
,
0000
0000
1000
0100
0010
0001
1000
0010
,
0100
0001
0010
0100
1000
0001
0100
0010
,
1000
0001
0100
0010
0100
1000
0100
0010
,
0100
0001
0000
1000
0100
0000
0010
0001
,
0100
0010
2000
0000
3100
0010
0001
0100
,
0010
1000
0001
0010
0100
1000
0001
0100
,
0001
0010
0100
0010
0001
0100
0010
0100
,
0001
0010
0100
1000
0100
0010
0100
0001
,
0100
0010
1000
0010
0001
0100
0010
1000
,
0100
0010
0001
0000
1000
0100
0010
0001
,
0100
0010
1000
0100
0010
0100
1000
0010
,
0100
0001
0010
0100
0010
0001
0200
0000
,
0020
0000
0300
0000
0M01
0000
0000
0000
0100
0000
0000
0000
1030
0100
0010
0000
,
0001
0000
1000
0000
0001
0000
0010
0100
1000
0000
0000
0000
0001
0000
0010
0000
,
0100
0000
1000
0000
0010
0000
0100
0001
0010
0000
0000
0000
0100
0000
1000
0000
,
0100
0000
0010
0000
0001
0000
0100
0010
0000
0000
1000
0010
0100
0000
0001
0010
,
0100
1000
0100
0000
0010
0000
0001
1000
1001
0000
0000
0000
1000
0000
0100
0010
,
0001
0000
0100
0000
0010
0000
1000
0100
1000
0000
0000
0000
0001
0000
0100
0010
,
1000
0100
0010
0000
0001
0000
0010
0100
1000
0000
0000
0000
0001
1000
0100
0000
,
0010
0001
0100
0000
0010
0000
1000
0100
0010
0000
0000
0000
0001
0010
0100
0000
,
1000
0100
0010
0000
0001
0000
0100
0010
1000
0000
0000
0000
1000
0100
0000
0000
,
0001
0000
0200
0000
0000
0000
0000
0000
2000
0000
0010
0000
0001
3300
0000
0000
1000
0000
0100
0000
0010
0000
0000
0000
0001
0000
0000
0000
0100
0000
0010
0000
,
1000
0000
0000
0000
0000
0000
0000
0000
0001
0000
0010
0000
0000
0000
0000
0000
0200
0000
2000
0000
0000
0000
0000
0000
0010
0000
0001
0000
0011
3300
0000
0000
,
1000
0100
0010
0000
0001
0000
0010
0100
1100
0000
0000
0000
0001
0100
0000
0000
,
0010
0000
0000
0000
1000
0000
0000
0000
0000
0000
0000
0000
0000
0000
0000
0000
0202
0000
0000
0000
1010
0303
0000
0000
1111
0000
0000
0000
0000
0000
0000
0000
1000
0000
0000
0000
0100
0000
0000
0000
0010
0000
0000
0000
0000
0000
0000
0000
0100
0000
0000
0000
0000
0000
0000
0000
1000
0000
0000
0000
0001
0000
0000
0000
,
1000
0000
0000
0000
0001
1000
0000
0000
1000
0001
0000
0000
1101
1110
1011
1111
,
1001
1001
1000
0100
0010
0001
0100
0010
,
1000
0100
0010
0001
0100
0010
1000
0100
,
0010
0001
0010
0100
1000
0100
0010
0001
,
0100
0010
1000
0010
0100
0001
0100
0010
,
1000
0001
0100
0010
0100
1000
0100
0010
,
0100
0001
0100
0010
1000
0100
0010
0100
,
0001
0100
0010
0100
1000
0100
0010
0001
,
1000
0000
0100
0000
0010
0001
0010
0000
0100
1000
0100
0000
0010
0001
1000
0100
,
0010
0100
1000
0001
0010
0000
0100
0000
1000
0000
0100
0000
0010
0000
0001
0000
,
0100
0010
1000
0100
0010
0100
1000
0100
,
0010
0001
0100
0010
1000
0001
0100
0010
,
1000
0001
0100
0010
0100
0010
0100
0001
,
0100
0001
0100
0001
0010
0100
1000
0100
,
1000
0100
1000
0100
0010
0100
0010
0100
,
0001
0100
0001
0100
0001
0100
1000
0001
,
0100
0001
0100
0001
0100
0010
1000
0001
,
0010
0000
0200
0000
2000
0000
0001
0000
0000
0000
3000
0000
1300
0100
0010
0000
,
0001
0000
1000
0000
0001
0000
0010
0100
1000
0000
0000
0000
0001
0000
0010
0000
,
0100
0000
1000
0000
0001
0000
0100
0010
1000
0000
0000
0000
0010
0000
0100
0000
,
0001
0000
0010
0000
0001
0000
0100
0001
0000
0000
0100
0010
1000
0000
0001
0100
,
0010
1000
0100
0000
0010
0000
0001
1000
0001
1001
0000
0000
1000
0000
0100
0010
,
0001
0000
1000
0000
0001
0000
0010
0100
1000
0000
0000
0000
0001
0000
0100
0000
,
0010
0000
1000
0000
0100
0000
0010
0100
1000
0000
0000
0000
0010
0100
0001
0000
,
0100
0010
1000
0000
0010
0000
0100
0001
0010
0000
0000
0000
0001
0100
0010
0000
,
1000
0100
0010
0000
0001
0000
1000
0100
0010
0000
0000
0000
0001
0100
0000
0000
,
1000
0000
0000
0000
0000
0000
0000
0000
0000
0000
0000
0000
0200
0000
0000
0000
0000
0000
0000
0000
0000
0000
0000
0000
0000
0000
0000
0000
0000
0000
0000
0000
0000
0000
0000
0000
0000
0000
0000
0000
0000
0000
0000
0000
0000
0000
0000
0000
0002
0000
0000
0000
0000
0000
0000
0000
0000
0000
0000
0000
0010
0000
0000
0000
0000
0000
0000
0000
0000
0000
0000
0000
1000
0303
0000
0000
0000
0000
0000
0000
0000
0000
0000
0000
0000
0000
0000
0000
0000
0000
0000
0000
0000
0000
0000
0000
0100
0000
0000
0000
0000
0000
0000
0000
0000
0000
0000
0000
0001
0000
0000
0000
0000
0000
0000
0000
0000
0000
0000
0000
0100
0000
0000
0000
0000
0000
0000
0000
0000
0000
0000
0000
0000
0000
0000
0000
0000
0000
0000
0000
0000
0000
0000
0000
0010
0000
0000
0000
0000
0000
0000
0000
0000
0000
0000
0000
0000
0000
0000
0000
0000
0000
0000
0000
0000
0000
0000
0000
1000
0000
0000
0000
0000
0000
0000
0000
0000
0000
0000
0000
0100
0000
0000
0000
0000
0000
0000
0000
0000
0000
0000
0000
,
0010
0000
0000
0000
0001
0010
0000
0000
0100
1000
0000
0000
1110
1011
1101
0000
,
1000
0100
0010
0000
0001
0000
0100
0010
1000
0000
0000
0000
0001
0100
0000
0000
,
0010
1000
0000
0000
1100
0011
1111
0000
1000
0100
0010
0000
0100
0000
1000
0100
,
0010
0000
0000
0000
0001
0100
0000
0000
1000
0200
0000
0000
0002
0010
1000
0010
,
1000
0000
0000
0000
1010
0303
0000
0000
0100
0000
0000
0000
0001
0000
0000
0000
0100
0000
0010
0000
0000
0000
1000
0000
0000
0000
0100
0000
0000
0000
0020
0000
,
0000
0000
0000
0000
0031
0000
0010
0100
0000
1000
0000
0100
0000
0010
0000
0001
,
0000
1000
0100
0000
0010
0001
0010
0100
,
1000
0000
0001
0000
0100
0000
0000
0000
0010
0000
1000
0000
0000
0000
0001
0010
,
0100
1000
0001
1000
0001
0100
0010
1000
0100
0000
0010
0001
0010
0000
0100
1000
,
0100
0010
0001
1000
0100
0000
0010
0001
0010
0000
0100
1000
0100
0000
0010
0001
,
0100
0000
0010
0000
1000
0000
0010
0000
0110
0000
0000
0000
0010
1000
0010
1000
0010
1000
0010
1000
0001
1000
0001
1000
0001
1000
0001
1000
0001
0010
0001
0010
,
0001
0010
0001
0010
0100
0010
0100
0010
0100
0010
0100
0010
0100
1000
0100
1000
0100
1000
0100
1000
0100
0010
0001
1000
0100
1000
0100
1000
0100
0010
0001
0010
,
0001
0010
0001
0000
1000
0000
0000
0000
1001
0000
0000
0000
0000
0000
0000
0000
0000
0000
0000
0000
0000
0000
0000
0000
1000
0000
0000
0000
0100
0000
0000
0000
,
0010
0001
0010
0100
,
1000
0001
1000
0000
0000
0000
0010
0000
,
0100
0001
0010
0100
,
1000
0100
1000
0000
0000
0000
0001
0000
,
0010
0100
1000
0100
,
0010
0001
0000
0000
1000
0100
0010
0000
,
0001
0100
0010
1000
0001
0000
1000
0000
,
0200
0020
0001
0000
0330
0000
1000
0000
,
0100
0010
0001
0000
1000
0000
0001
0000
,
0010
0100
1000
0000
0000
0000
0001
0000
,
0100
0010
1000
0000
0100
0000
0010
0000
,
0100
1000
0001
0000
0000
0000
0100
0001
,
0010
0000
0100
1000
0010
0000
0100
0000
,
0001
0100
0010
0000
0000
0000
1000
0100
,
0010
0000
0001
1000
0001
0000
0010
0000
,
0100
1000
0100
0000
0000
0000
0010
0001
,
0000
0000
2000
0200
0000
0000
3311
0111
,
1111
0000
1000
0100
0010
0000
0001
0000
,
1000
0001
0010
0000
0000
0000
0100
1000
,
0000
0000
0000
0000
0200
0000
2000
0000
0000
0000
0000
0000
0010
0000
0011
3300
,
1011
0000
1000
0100
0010
0000
0001
0000
,
1000
0001
0010
0000
0000
0000
0100
1000
,
0000
0000
1000
0100
0000
0000
0011
1011
,
1101
0000
1000
0100
0010
0000
0001
0000
,
1000
0001
0010
0000
0000
0000
0100
1000
,
0000
0000
0002
0200
0000
0000
0010
1000
,
1010
0000
1010
0303
0101
0000
0000
0000
1010
0000
1000
0000
0100
0000
0000
0000
,
0010
0001
1000
0000
,
0001
0000
0010
0100
1000
0000
0100
0000
,
0010
0001
0100
0000
,
0010
1000
0100
0010
,
0000
0001
0010
0000
,
0000
0000
0100
1000
,
0000
0100
0010
0000
,
0000
0000
1000
0100
,
0010
0001
1000
0000
,
0001
0000
1000
0100
0010
0000
0001
0000
,
0010
0100
1000
0000
;
