#TITLE:Golden Sphinx;
#SUBTITLE:;
#ARTIST:D-Code-D;
#TITLETRANSLIT:;
#SUBTITLETRANSLIT:;
#ARTISTTRANSLIT:;
#CREDIT:;
#BANNER:sphinx bn.png;
#BACKGROUND:sphinx bg.png;
#LYRICSPATH:;
#CDTITLE:;
#MUSIC:Golden Sphinx.ogg;
#OFFSET:-0.046;
#SAMPLESTART:11.460;
#SAMPLELENGTH:12.000;
#SELECTABLE:YES;
#BPMS:0.000=190.000,132.000=95.000,164.000=190.000,264.000=95.001;
#STOPS:;
#BGCHANGES:;
// cache tags:
#FIRSTBEAT:4.000;
#LASTBEAT:280.000;
#SONGFILENAME:Songs/SSSC Pack 2/Golden Sphinx [NIQ9]/Golden Sphinx.sm;
#HASMUSIC:1;
#HASBANNER:1;
#MUSICLENGTH:105.168;
// end cache tags

//---------------dance-single - NIQ9----------------
#NOTES:
     dance-single:
     NIQ9:
     Challenge:
     11:
     0.993,1.000,0.114,0.485,0.894,668.000,12.000,51.000,0.000,0.000:
0000
0000
0000
0000
,
1000
0000
1001
0001
0020
0000
0031
0100
,
0000
0010
0100
0001
2000
0000
3002
0000
,
1003
0000
1100
0100
0020
0000
0032
0000
,
1003
0010
0000
0100
0100
0010
1010
1000
,
0100
0000
0011
0010
0200
0000
1300
0002
,
0000
0103
0010
1000
0010
0100
0002
0000
,
0013
0001
1001
1000
0100
0100
0010
0001
,
1000
0001
1000
0100
0010
0100
1000
0001
1000
0000
0000
0000
0101
0000
0000
0000
,
0010
0000
1000
0000
0001
0000
0010
0001
1000
0001
1000
0000
0010
0000
0100
0000
,
0001
1000
0001
0000
1000
0000
0010
1000
0010
1000
0001
0000
1000
0000
0100
0000
,
0010
0001
0010
0000
0001
0000
1000
0100
1000
0100
0010
0000
0100
0000
1000
0000
,
0001
1000
0001
0000
0100
0000
0010
1000
0010
0100
0001
1000
0001
1000
0100
0010
,
0001
1000
0001
0000
1000
0000
0010
1000
0010
0100
0001
0000
1000
0000
0100
0000
,
1000
0001
1000
0000
0001
0000
0010
0001
0010
0100
1000
0000
0001
0000
1000
0000
,
0010
1000
0010
0000
1000
0000
0001
0010
0100
1000
0001
0000
1000
0000
0100
0000
,
0010
0001
0010
0000
0001
0000
1000
0010
1000
0001
0100
0010
0100
0001
1000
0100
,
0010
0000
0001
0000
1000
0000
0010
1000
0010
1000
0010
0000
0100
0000
0001
0000
,
1000
0000
0100
0000
0010
0000
0001
0010
0001
0010
0001
0000
0010
0000
0100
0000
,
2000
0000
0002
3000
0200
0003
0310
1000
0001
1000
0001
0000
0010
0000
0100
0000
,
1000
0100
1000
0000
0001
0000
0100
0001
0100
0001
0100
0000
0010
0000
1000
0000
,
0002
0013
0100
2000
3010
0100
0020
1030
,
0002
0000
0013
0000
0100
0000
1000
0001
1000
0010
1000
0000
0001
0000
0100
0000
,
0020
0000
2030
0000
3200
0000
1300
0100
1000
0100
1000
0000
0100
0000
0010
0000
,
0001
1000
0001
0000
1000
0000
0010
1000
0010
1000
0010
0000
0100
0000
0001
0000
,
1000
0100
1000
0000
0001
0000
1000
0010
1000
0001
0100
0000
0010
0000
0100
0000
,
0001
1000
0001
0000
1000
0000
0100
0010
0100
1000
0100
0000
0010
0000
0001
0000
,
1000
0010
1000
0000
0001
0000
0100
0010
0100
0001
0100
0000
0010
0000
1000
0000
,
0001
1000
0001
0000
1000
0000
0100
0010
0001
0010
0100
0000
1000
0000
0001
0000
,
0100
0001
0100
0000
0001
0000
1000
0010
1000
0001
0100
0000
0010
0000
0100
0000
,
0001
1000
0001
0000
1000
0000
0100
0010
0001
0010
0001
1000
0001
0000
0000
0000
,
0000
0000
0000
0000
0001
0010
0100
1000
0100
0010
0001
1000
0010
0100
0001
0100
,
0010
1000
0010
1000
0010
1000
0010
1000
0010
0000
0000
0000
1001
0000
0000
0000
,
0001
0010
0100
0010
0001
1000
0010
0100
,
0001
0100
0002
0000
0000
0000
0100
0000
0103
0000
0000
0010
0000
0000
1000
0000
,
1000
0010
0100
0001
0010
0100
1000
0010
,
1000
0001
2000
0000
0000
0000
0000
0000
3100
0000
0000
0010
0000
0000
0001
0000
,
1000
0000
0010
1000
0001
0000
0100
0010
1000
0001
0010
0100
1000
0001
1000
0000
,
0001
0000
0010
0100
1000
0000
0100
0010
0001
1000
0001
1000
0010
0100
0010
0000
,
0100
0000
0001
1000
0001
0000
1000
0100
0010
0100
1000
0001
0100
0010
0100
0000
,
0001
0000
1000
0100
0010
0000
0001
2000
0002
0000
0000
0000
0000
0000
3003
0000
,
0001
0100
0010
1000
0010
0100
0001
1000
0001
0010
0100
0010
0001
1000
0100
1000
,
0001
0000
2000
3100
0020
0000
0031
0010
,
0100
2000
3001
1000
0020
0030
0020
0130
,
0001
0000
2000
3001
0020
0030
0001
0010
,
0100
2000
3001
0100
0020
0030
0020
0030
,
0100
0000
0101
0100
0020
0000
1030
0100
,
0010
0002
0013
0100
2000
3000
2000
0000
,
3001
1000
1001
0001
0200
0310
0110
0100
,
0001
1000
0010
1000
0001
0100
0001
1000
0100
0000
0000
0000
1001
0000
0000
0000
,
0001
0100
0000
0000
0001
1000
0000
0000
0001
1000
0100
0000
0010
0001
2000
0000
,
3000
0000
0010
1000
0010
0000
0100
0000
0001
1000
0100
0000
0020
0000
0032
0000
,
0003
0000
1000
0100
0000
1000
0001
0000
0100
0000
0010
0000
0100
0000
0002
0000
,
0003
0000
0010
0001
0000
0010
0100
0000
1000
0000
0100
0000
0010
0000
0001
0000
,
1000
0001
0100
0001
1000
0100
1000
0001
1000
0100
0010
0001
0010
0100
1000
0001
,
1000
0100
0010
0001
0010
0000
0001
0000
1000
0100
0010
0001
0010
0000
0001
0000
,
1000
0010
0000
0000
0010
1000
0000
0000
0001
1000
0000
0000
1000
0001
0000
0000
,
1000
0010
1000
0001
0100
0010
0100
0001
1000
0100
0010
0001
2000
0000
0000
0000
,
3001
0010
0001
1000
0010
0100
0001
1000
0010
1000
0001
0010
0100
1000
0001
1000
,
0010
0100
0001
0100
0010
0100
0001
0100
0001
1000
0100
0010
0001
0010
0100
1000
,
0001
2000
0000
0000
3001
2000
0000
0000
3010
0000
0100
0000
0001
0000
0010
0000
,
0100
2000
0000
0000
3100
2000
0000
0000
3100
0000
0010
0000
0001
0000
1000
0000
,
0001
0100
0001
1000
0100
1000
0001
0100
0010
0100
0001
1000
0100
0010
0001
0010
,
0100
1000
0010
1000
0001
0010
0001
1000
0010
0100
0001
1000
0100
1000
0001
0010
,
0002
0003
0002
0003
1000
0100
0010
0001
,
0010
0001
0010
0001
0010
0001
0010
0001
1000
0000
0000
0000
1001
0000
0000
0000
,
0001
0100
0010
0100
0001
0010
0100
1000
,
0001
1000
0001
0000
0000
0000
0000
0000
0001
1000
0010
0200
0000
0000
0310
0000
,
1000
0001
0010
0100
1000
0010
0100
0001
,
1000
0001
2000
0002
0000
0000
0000
0000
0000
0000
0000
0000
0000
0000
0000
0000
0000
0000
0000
0000
0000
0000
0000
0000
,
3003
0000
0000
0000
;

//---------------dance-single - NIQ9----------------
#NOTES:
     dance-single:
     NIQ9:
     Hard:
     9:
     0.723,0.865,0.143,0.685,0.300,445.000,15.000,72.000,4.000,0.000:
0000
0000
0000
0000
,
1000
0000
0010
0100
0002
0000
1003
0100
,
0000
0010
0100
1000
0002
0000
2003
0000
,
3010
0000
0100
0010
1000
0000
0001
0020
,
0000
0230
0000
1300
1001
0000
0101
0100
,
0010
0000
0010
1000
0002
0000
0013
0100
,
0000
1000
0100
0010
0002
0000
2003
0000
,
3010
1000
0010
0100
0001
1000
0100
0010
,
0001
1000
0001
1000
0001
0000
1000
0000
0010
0000
0000
0000
1001
0000
0000
0000
,
2000
0000
0000
0000
3200
0000
0000
0020
,
0300
0000
0030
0001
2000
0000
0000
0020
,
0000
0000
3030
0000
,
0000
0000
0000
0000
1000
0100
0010
0001
,
0020
0000
0000
0000
0230
0000
0000
2300
,
0000
0000
0000
3001
0200
0000
0000
0020
,
0000
0000
0000
0000
,
0330
0000
0000
0000
0000
0000
0000
0000
0010
1000
0001
0100
0010
0100
0001
1000
,
0020
0000
0000
0230
0000
0000
0302
0000
,
2003
0000
0000
3200
0000
0000
0320
0000
,
0031
0010
0100
2000
0000
0000
3010
0000
,
0010
1000
0000
1000
0010
0100
0001
0000
,
2000
0000
3100
0010
0000
0010
0001
0000
,
0200
0000
0310
0100
0000
0100
0001
0000
,
1000
0000
0100
0000
0010
0000
0001
0010
0001
0000
1000
0000
0100
0000
0000
0000
,
1000
0000
0010
0000
1000
0000
0001
0100
0001
0000
1000
0000
0100
0000
0000
0000
,
2000
3100
0010
0002
0013
0100
0020
0031
,
2000
3010
0100
0002
0013
0100
2000
0000
,
3001
0000
0100
0000
0010
0000
1000
0010
1000
0001
0100
0000
0010
0000
0000
0000
,
1000
0000
0001
0000
0010
0000
0001
0010
0001
1000
0100
0000
1000
0000
0000
0000
,
0002
0000
0000
0023
0000
0000
0230
0000
,
2300
0000
0000
3020
0000
0000
0230
0000
,
M3MM
0M00
0000
0000
0010
1000
0010
0100
0001
0000
1000
0000
0100
0000
0010
0000
,
0001
0010
0001
0010
0001
0010
0001
0010
0001
0000
0000
0000
1001
0000
0000
0000
,
1000
0100
1000
0001
0000
0000
0000
0000
0100
0010
0100
0001
0000
0000
0000
0000
,
1000
0100
0010
0001
0000
0000
0010
0000
0100
0010
0001
1000
0000
0000
0010
0000
,
0100
0020
2030
3200
0320
0032
0203
0320
,
1030
0001
1000
0100
0000
0000
0110
0000
0010
0001
0010
0100
0000
0000
1000
0000
,
1001
0001
0100
0010
1000
0100
0001
0100
,
1000
0010
0100
0001
0010
1000
0010
0001
,
0100
0010
1000
0100
0010
0001
0100
0010
,
1000
0100
0010
0001
0000
0000
1000
0000
0020
0000
0000
0000
0000
0030
1001
0000
,
1000
0010
1000
0010
1000
0010
1000
0010
1000
0010
1000
0010
1000
0010
0100
0001
,
1000
0000
0100
0010
0002
0000
1003
0010
,
0000
2010
0000
3010
0100
0000
0101
0000
,
0002
0000
0013
0100
2000
0000
3010
0100
,
0000
1002
0000
0103
0010
1000
0100
0010
,
0001
0000
1001
0001
0100
0000
0010
1000
,
0000
1001
0000
0001
0010
0000
1100
0000
,
1000
0100
0010
0100
1000
0010
0100
0001
,
1000
0100
1000
0100
1000
0100
1000
0100
0010
0000
0000
0000
1001
0000
0000
0000
,
0002
0000
0000
0000
0203
0000
0000
0000
0310
1000
0010
0000
1000
0001
1000
0000
,
0000
0000
0001
0010
0001
0000
0010
0000
0001
1000
0001
0000
1000
0000
0010
0000
,
0000
0000
2000
0000
0000
3200
0000
0000
0310
0000
0001
0000
0010
0000
0100
0000
,
0000
0000
2000
0000
0000
3020
0000
0000
0130
0000
0001
0000
0010
0000
0100
0000
,
1000
0100
1000
0000
0001
0000
0100
0000
0010
0000
0100
0000
0001
0000
0010
0000
,
0001
1000
0001
0000
1000
0000
0010
0000
0100
0001
0100
0000
0010
0000
1000
0000
,
0002
0003
0020
0030
0200
0300
0200
0300
,
1000
0100
1000
0000
0010
0000
0100
0000
0001
1000
0001
0000
1000
0000
0000
0000
,
0001
1000
0100
0001
0100
1000
0001
1000
,
0010
0100
0001
0010
0100
0010
0001
0010
,
2000
0000
3020
0000
0031
0100
0010
0100
,
0002
0000
2003
0000
3100
0010
0001
0010
,
0100
0010
1000
0010
0100
0010
0001
1000
,
0010
0100
0001
0010
1000
0010
0001
0100
,
2000
0000
3002
0000
0013
1000
0100
1000
,
0001
1000
0001
1000
0001
1000
0001
1000
0100
0000
0000
0000
1001
0000
0000
0000
,
0002
0003
2000
3000
,
0200
0000
0000
0000
0300
0000
0000
0000
0010
0000
0000
0001
0000
0000
0100
0000
,
0010
1000
0100
0010
0100
1000
0010
0100
,
0001
0100
0001
0200
0000
0000
0000
0000
0000
0000
0000
0000
0000
0000
0000
0000
0000
0000
0000
0000
0000
0000
0000
0000
,
0300
0000
0000
0000
;
