#TITLE:Untouched;
#SUBTITLE:get your twitch stream muted ^__^;
#ARTIST:The Veronicas;
#TITLETRANSLIT:;
#SUBTITLETRANSLIT:;
#ARTISTTRANSLIT:;
#CREDIT:;
#BANNER:Untouched - bn.png;
#BACKGROUND:Untouched - bg.png;
#LYRICSPATH:;
#CDTITLE:../aCD.png;
#MUSIC:Untouched.ogg;
#OFFSET:0.009;
#SAMPLESTART:65.740;
#SAMPLELENGTH:12.000;
#SELECTABLE:YES;
#DISPLAYBPM:177.000;
#BPMS:0.000=176.985,126.000=353.970,130.000=176.985,318.000=353.970,322.000=176.985,352.000=353.970,373.000=176.985;
#STOPS:126.000=0.085
,126.500=0.085
,127.000=0.085
,127.500=0.084
,128.000=0.085
,128.500=0.085
,129.000=0.085
,129.500=0.084
,318.000=0.085
,318.500=0.085
,319.000=0.085
,319.500=0.084
,320.000=0.085
,320.500=0.085
,321.000=0.085
,321.500=0.084
,352.000=0.085
,352.500=0.085
,353.000=0.085
,353.500=0.084
,354.000=0.085
,354.500=0.085
,355.000=0.085
,355.500=0.084
,356.000=0.085
,356.500=0.085
,357.000=0.085
,357.500=0.084
,358.000=0.085
,358.500=0.085
,359.000=0.085
,359.500=0.084
,360.000=0.085
,360.500=0.085
,361.000=0.085
,361.500=0.084
,362.000=0.085
,362.500=0.085
,363.000=0.085
,363.500=0.084
,364.000=0.085
,364.500=0.085
,365.000=0.085
,365.500=0.084
,366.000=0.085
,366.500=0.085
,367.000=0.085
,367.500=0.084
,368.000=0.085
,368.500=0.085
,369.000=0.085
,369.500=0.084
,370.000=0.085
,370.500=0.085
,371.000=0.085
,371.500=0.084
,372.000=0.085
,372.500=0.085
;
#BGCHANGES:;
// cache tags:
#FIRSTBEAT:0.000;
#LASTBEAT:513.500;
#SONGFILENAME:Songs/Aoreo's Index Jawn 2/Untouched - [Aoreo]/Untouched.sm;
#HASMUSIC:1;
#HASBANNER:1;
#MUSICLENGTH:175.199;
// end cache tags

//---------------dance-single - J. Nero----------------
#NOTES:
     dance-single:
     J. Nero:
     Challenge:
     24:
     1.000,1.000,0.542,0.662,1.000,1806.000,95.000,116.000,30.000,36.000:
1000
0001
1000
0100
0010
0001
0100
0001
1000
0010
0100
0001
1000
0000
0000
0000
0000
0000
0000
0000
0000
0000
0000
0000
,
0000
0000
0000
0000
,
0001
1000
0001
0010
0100
1000
0010
0100
0001
1000
0100
0010
0001
0000
0000
0000
0000
0000
0000
0000
0000
0000
0000
0000
,
0000
0000
0000
0000
,
1000
0010
1000
0100
0010
0001
0100
0001
1000
0010
0100
0001
1000
0000
0000
0000
0000
0000
0000
0000
0000
0000
0000
0000
,
0000
0000
0000
0000
,
0001
0100
0001
1000
0100
0010
0001
1000
0010
0100
0001
1000
0100
0000
0000
0000
0000
0000
0000
0000
0000
0000
0000
0000
,
0000
0000
0000
0000
,
1000
0010
1000
0100
0010
0001
0100
0001
0010
0100
1000
0010
1000
0000
0000
0001
0000
0000
0101
0000
0000
0100
0000
0000
,
0001
0010
0110
0100
1000
0010
0110
0100
,
0001
1000
0001
0010
0100
1000
0001
0100
0010
1000
0100
0010
0001
0000
0000
0010
0000
0000
0110
0000
0000
0100
0000
0000
,
1000
0010
1010
1000
0001
0100
0101
0001
,
0010
0100
1000
0001
1000
0100
0010
0001
1000
0010
0100
0001
1000
0000
0000
0001
0000
0000
0101
0000
0000
0100
0000
0000
,
0010
1000
1100
0100
0010
0001
1001
1000
,
0010
0100
0001
1000
0100
0010
0001
0100
0001
1000
0100
0010
0001
0000
0000
1000
0000
0000
1001
0000
0000
0001
0000
0000
,
0100
0010
0110
0100
0001
1000
1100
0100
,
1000
0000
0001
0000
1000
0000
0100
0000
0010
0000
0001
0000
0100
0000
0010
0000
1000
0000
0001
0000
1000
0000
0100
0000
0010
0000
0000
0001
0000
0000
0100
0000
0000
0001
0000
0000
1000
0000
0000
0010
0000
0000
0100
0000
0000
0010
0000
0000
,
1000
0001
0010
0100
0010
0001
1000
0001
0100
0010
0100
0001
1000
0100
1000
0001
,
0100
0000
0001
0000
1000
0000
0100
0000
0010
0000
0001
0000
0100
0000
0010
0000
1000
0000
0100
0000
0010
0000
0001
0000
1000
0000
0000
0001
0000
0000
0100
0000
0000
0001
0000
0000
1000
0000
0000
0010
0000
0000
0100
0000
0000
0010
0000
0000
,
1000
0001
0010
0100
0010
0001
1000
0100
1000
0001
0100
0010
0100
0001
1000
0001
,
0010
0000
0100
0000
1000
0000
0001
0000
0100
0000
0010
0000
0100
0000
0001
0000
1000
0000
0100
0000
0010
0000
0001
0000
1000
0000
0000
0100
0000
0000
1000
0000
0000
0010
0000
0000
1000
0000
0000
0001
0000
0000
0100
0000
0000
0001
0000
0000
,
1000
0100
0010
0100
1000
0001
1000
0010
0100
0010
1000
0001
0100
0001
1000
0100
,
0010
0001
1000
0001
0010
0100
1000
0010
0100
0001
0100
0010
1000
0100
1000
0001
0100
0010
1000
0010
0100
0001
1000
0100
,
1000
0001
0100
0010
0100
0001
1000
0100
0010
0001
0100
0001
1000
0100
0010
0100
1000
0010
0100
0001
1000
0100
0010
0001
,
1000
0001
0100
0010
0100
0001
0010
0100
1000
0010
0100
0001
1000
0000
0000
0001
0000
0000
1000
0000
0000
0010
0000
0000
,
2200
3301
2200
3301
0010
0100
1000
0001
,
2002
0000
0000
0000
3013
0000
0000
0000
2002
0000
0000
0000
3013
0000
0000
0000
1000
0000
0000
0000
0001
0000
0000
0000
1000
0001
1000
0010
0100
0001
1000
0100
,
0010
0001
1000
0001
0100
0010
1000
0001
0100
0000
0000
0000
0000
0000
0000
0000
0001
1000
0001
0100
0010
1000
0001
0100
0001
1000
0100
0010
0001
1000
0010
0100
,
0001
0000
1000
1000
0022
1033
0022
1033
,
0022
0000
0000
0000
1033
0000
0000
0000
0022
0033
0000
0000
0022
0000
0000
0033
1000
0000
0000
0000
2002
0000
3003
0000
0001
0000
0000
0000
0100
0000
0000
0000
,
0100
0010
0010
1000
1000
0001
0202
0313
,
0202
0000
0313
0000
0202
0303
0001
0000
1100
0000
0100
0000
0110
0000
0100
0000
,
0101
0100
0110
0100
1100
1000
0001
0001
,
0100
0100
0001
0001
2200
3301
2200
3301
,
1000
0010
1000
1000
0022
1033
0022
1033
,
0022
1033
0001
0100
0010
0100
2002
3013
,
2002
3013
2002
3013
1000
0001
0010
0010
,
0100
0100
1000
1000
0002
0003
0200
0010
,
0300
1000
0001
0001
0010
0100
1000
0001
,
0100
0001
1000
0010
1010
1001
0001
0010
,
0110
0100
1000
1000
0001
0010
0011
0000
,
0001
0000
1000
0000
1001
0000
0000
0010
1000
0000
0001
0000
0101
0000
0000
0000
,
0101
0110
0101
0110
0101
0001
0010
0100
,
1000
1000
0010
0100
0001
0001
0010
0010
,
1100
0110
1100
0100
1100
1000
0001
0100
,
0010
0000
0010
1000
0100
0100
1000
1000
,
0101
1001
0011
0101
1001
1000
0010
0000
,
00M1
1000
0010
0000
0010
0000
0000
2000
,
3002
0000
0000
0003
0000
0000
2000
0000
0000
3000
0000
0000
0001
0100
0001
1000
0010
0100
0001
1000
0100
0010
0001
0100
,
0001
1000
0100
0010
0100
1000
0010
0100
0001
1000
0100
0010
0001
0100
0001
1000
0010
0100
0001
1000
0001
0100
0010
1000
,
0010
0100
0001
0010
0100
1000
0001
0100
0010
0100
0001
1000
0100
1000
0010
0100
0001
1000
0100
0010
0001
0100
0001
1000
,
0100
0010
0100
1000
0001
0100
0010
1000
0010
0100
0001
1000
0100
0010
0001
0100
0001
1000
0100
1000
0010
0100
0001
0100
,
0010
1000
0001
1000
0100
0010
0001
0100
0001
1000
0100
0010
0100
1000
0001
0100
0010
1000
0001
1000
0100
0010
0001
0100
,
0001
1000
0100
0010
0100
1000
0010
0100
0001
1000
0100
0010
0001
1000
0001
0100
0010
0100
0001
1000
0100
0010
0100
1000
,
0010
0100
0001
0100
0010
1000
0001
1000
0100
0010
0001
0100
0001
1000
0100
0010
0100
1000
0010
0100
0001
1000
0001
0010
,
0100
1000
0010
0100
0001
1000
0100
0010
0100
1000
0010
0100
0001
1000
0001
0010
0100
1000
0001
0100
0010
1000
0010
0100
,
0001
1000
0100
1000
0010
0100
0001
1000
0001
0010
0100
1000
0001
0100
0010
0100
0001
1000
0100
0010
0001
0100
0001
1000
,
0100
0010
0100
1000
0010
0100
0001
1000
0001
0010
0100
1000
0010
0100
0001
0100
0010
1000
0001
1000
0100
0010
0001
0100
,
0001
1000
0100
0010
0100
1000
0010
0100
0001
1000
0001
0010
0100
1000
0001
0100
0010
1000
0001
1000
0100
0010
0001
0100
,
0001
1000
0100
0010
0100
1000
0010
0100
0001
1000
0001
0010
0100
1000
0001
0100
0001
1000
0100
1000
0010
0100
0001
1000
,
0001
0100
0010
0100
0001
1000
0100
1000
0010
0100
0001
1000
0001
0010
0100
1000
0001
0100
0010
1000
0010
0100
0001
1000
,
0100
0010
0001
0100
0001
1000
0100
1000
0010
0100
0001
1000
0001
0010
0100
1000
0001
0100
0010
0100
0001
1000
0100
0010
,
0001
0100
0001
1000
0010
1000
0100
0010
0001
0100
0001
1000
0100
0010
0100
1000
0001
0100
0010
1000
0100
0010
0001
0100
,
0001
0010
0100
1000
0010
0100
0001
0010
0001
0100
0010
1000
0100
0010
0001
0100
0001
1000
0100
1000
0010
0100
0001
1000
,
0100
0010
0001
0100
0010
1000
0002
0000
0000
0000
0000
0000
0000
0000
0000
0000
0000
0000
0000
0000
0000
0000
0000
0000
,
0000
0003
0000
0000
,
1000
0001
1000
0100
0010
0001
0100
0001
0010
0100
1000
0010
0100
0000
0000
0000
0000
0000
0000
0000
0000
0000
0000
0000
,
0000
0000
0000
0000
,
0001
1000
0001
0010
0100
1000
0001
0100
0010
1000
0010
0100
0001
0000
0000
0000
0000
0000
0000
0000
0000
0000
0000
0000
,
2000
3000
0000
0000
2000
3000
0000
0000
,
0001
1000
0100
0010
0001
0100
0010
1000
0001
0010
0100
1000
0001
0000
0000
0000
0000
0000
1000
0000
0000
0001
0000
0000
,
0010
0000
0000
0000
0000
0000
0000
0000
0100
0000
0000
0000
0000
0000
0000
0000
1000
0000
0000
0000
0000
0000
0000
0000
0020
0000
0000
0000
0000
0000
0000
0000
0000
0000
0000
0000
0000
0000
0000
0000
0000
0000
0000
0000
0000
0000
0000
0030
0010
0000
0000
0000
0000
0000
0000
0000
0000
0000
0000
0000
0000
0000
0000
0000
,
0000
0000
0000
0000
2200
3301
2200
3301
,
2200
3310
2200
3310
1000
0001
0100
0010
,
2020
0000
0000
0000
3130
0000
0000
0000
2020
0000
0000
0000
3130
0000
0000
0000
0001
0000
0000
0000
1000
0000
0000
0000
0001
1000
0001
0100
0010
1000
0010
0100
,
0001
1000
0100
0010
0001
1000
0001
0100
0010
0000
0000
0000
0000
0000
0000
0000
1000
0001
1000
0100
0010
0001
1000
0001
0100
0010
1000
0010
0100
0001
1000
0010
,
0100
0000
0001
0100
2020
3130
2020
3130
,
0001
0001
2200
3301
2200
3301
0220
1330
,
0220
0331
1000
0100
0022
1033
0022
1033
,
0001
0100
0001
1000
1100
0100
0110
0100
,
0101
0100
0110
0100
1100
1000
0001
0001
,
0010
0010
0100
0100
2200
3301
2200
3301
,
0100
0010
1000
1000
0001
0010
0100
1000
,
MMM1
MMM1
MMM1
0100
0010
0100
0022
1033
,
0022
1033
0022
1033
0001
0010
0100
1000
,
0001
0100
0010
0100
0001
0010
1000
0010
,
1000
0010
0001
0001
1000
0010
0110
0100
,
0001
1000
1001
0001
0020
0130
1100
1000
,
001M
010M
001M
100M
010M
0010
0001
0100
,
0001
1000
0100
0010
0100
1000
0001
0100
,
00M1
10M0
01M0
10M0
00M1
0100
0010
1000
,
0001
0010
0100
0010
0001
1000
0100
1000
,
0M01
0M10
0M01
1M00
0M10
1000
0001
0100
,
0001
1000
0020
0030
0020
0030
0000
0000
,
M100
0000
M001
0000
M010
0000
M100
0000
M010
0000
0001
0000
0200
0000
0000
0300
,
0200
0300
0000
0002
0023
0030
0000
0002
,
2003
0000
0000
3000
0000
0000
0002
0000
0000
0003
0000
0000
1000
0010
1000
0001
0100
0010
1000
0001
0010
0100
1000
0010
,
1000
0001
0010
0100
0010
0001
0100
0010
1000
0001
0010
0100
1000
0010
1000
0001
0100
0010
1000
0001
1000
0010
0100
0001
,
0100
0010
1000
0100
0010
0001
1000
0010
0100
0010
1000
0001
0010
0001
0100
0010
1000
0001
0010
0100
1000
0010
1000
0001
,
0010
0100
0010
0001
1000
0010
0100
0001
0100
0010
1000
0001
0010
0100
1000
0010
1000
0001
0010
0001
0100
0010
1000
0010
,
0100
0001
1000
0001
0010
0100
1000
0010
1000
0001
0010
0100
0010
0001
1000
0010
0100
0001
1000
0001
0010
0100
1000
0010
,
1000
0001
0010
0100
0010
0001
0100
0010
1000
0001
0010
0100
1000
0001
1000
0010
0100
0010
1000
0001
0010
0100
0010
0001
,
0100
0010
1000
0010
0100
0001
1000
0001
0010
0100
1000
0010
1000
0001
0010
0100
0010
0001
0100
0010
1000
0001
1000
0100
,
0010
0001
0100
0010
1000
0001
0010
0100
0010
0001
0100
0010
1000
0001
1000
0100
0010
0001
1000
0010
0100
0001
0100
0010
,
1000
0001
0010
0001
0100
0010
1000
0001
1000
0100
0010
0001
1000
0010
0100
0010
1000
0001
0010
0100
1000
0010
1000
0001
,
0010
0100
0010
0001
0100
0010
1000
0001
1000
0100
0010
0001
0100
0010
1000
0010
0100
0001
1000
0001
0010
0100
1000
0010
,
1000
0001
0010
0100
0010
0001
0100
0010
1000
0001
1000
0100
0010
0001
1000
0010
0100
0001
1000
0001
0010
0100
1000
0010
,
1000
0001
0010
0100
0010
0001
0100
0010
1000
0001
1000
0100
0010
0001
1000
0010
1000
0001
0010
0001
0100
0010
1000
0001
,
1000
0010
0100
0010
1000
0001
0010
0001
0100
0010
1000
0001
1000
0100
0010
0001
1000
0010
0100
0001
0100
0010
1000
0001
,
0010
0100
1000
0010
1000
0001
0010
0001
0100
0010
1000
0001
1000
0100
0010
0001
1000
0010
0100
0010
1000
0001
0010
0100
,
1000
0010
1000
0001
0100
0001
0010
0100
1000
0010
1000
0001
0010
0100
0010
0001
1000
0010
0100
0001
0010
0100
1000
0010
,
1000
0100
0010
0001
0100
0010
1000
0100
1000
0010
0100
0001
0010
0100
1000
0010
1000
0001
0010
0001
0100
0010
1000
0001
,
0010
0100
1000
0010
0100
0001
1000
0100
0010
0001
1000
0010
1000
0000
0000
0000
0000
0000
1001
0000
0000
0000
0000
0000
,
0002
0003
0011
0000
0020
0030
0110
0000
,
0100
1000
0001
1000
0100
0010
0001
0100
0001
1000
0010
0100
0001
0000
0000
0000
0000
0000
1001
0000
0000
0000
0000
0000
,
2000
3000
1001
0000
0002
0003
0101
0000
,
0100
0001
1000
0001
0010
0100
1000
0010
0100
0001
1000
0100
0010
0000
0000
0000
0000
0000
0011
0000
0000
0000
0000
0000
,
0002
0003
0101
0000
0200
0300
0110
0000
,
0010
1000
0001
1000
0100
0010
0001
0100
0010
1000
0100
0010
0001
0000
0000
0000
0000
0000
0011
0000
0000
0002
0000
0000
,
2003
0000
0000
0000
3000
0000
0020
0000
0230
0000
0002
0003
2300
0000
3200
0000
,
0320
0000
0000
0032
0000
0000
2003
0000
0000
3002
0000
0000
1003
0100
1000
0010
0100
0001
1000
0100
0010
0001
0100
0001
,
1000
0100
1000
0010
0100
0001
1000
0001
0010
0100
1000
0010
0100
0001
1000
0100
0010
0100
1000
0001
0100
0010
1000
0010
,
0100
0000
0000
0000
0000
0000
0000
0000
0001
0000
0000
0000
0000
0000
0000
0000
1000
0000
0000
0000
0000
0000
0000
0000
0100
0000
0000
0000
0000
0000
0000
0000
0010
0000
0000
0000
0000
0000
0000
0000
0001
0000
0000
0000
0000
0000
0000
0000
0100
0000
0000
0000
0000
0000
0000
0000
0001
0000
0000
0000
0000
0000
0000
0000
1000
0000
0000
0000
0000
0000
0000
0000
0001
0000
0000
0000
0000
0000
0000
0000
0010
0000
0000
0000
0000
0000
0000
0000
0100
0000
0000
0000
0000
0000
0000
0000
1000
0000
0000
0000
0000
0000
0000
0000
0010
0000
0000
0000
0000
0000
0000
0000
0100
0000
0000
0000
0000
0000
0000
0000
0001
0000
0000
0000
0000
0000
0000
0000
1000
0000
0000
0000
0000
0000
0000
0000
0001
0000
0000
0000
0000
0000
0000
0000
0100
0000
0000
0000
0000
0000
0010
0000
0000
0000
0000
0000
1000
0000
0000
0000
0000
0000
0010
0000
0000
0000
0000
0000
0100
0000
0000
0000
0000
0000
0001
0000
0000
0000
0000
0000
1000
0000
0000
0000
0000
0000
0010
0000
0000
0000
0000
0000
,
0100
0000
0000
0000
0000
0000
0001
0000
0000
0000
0000
0000
1000
0000
0000
0000
0000
0000
0001
0000
0000
0000
0000
0000
0010
0000
0000
0000
0000
0000
0100
0000
0000
0000
0000
0000
1000
0000
0000
0000
0000
0000
0001
0000
0000
0000
0000
0000
1000
0000
0000
0000
0000
0000
0000
0000
0100
0000
0000
0000
0000
0000
0000
0000
1000
0000
0000
0000
0000
0000
0000
0000
0010
0000
0000
0000
0000
0000
0000
0000
0100
0000
0000
0000
0000
0000
0000
0000
0001
0000
0000
0000
0000
0000
0000
0000
1000
0000
0000
0000
0000
0000
0010
0000
0000
0000
0000
0000
0100
0000
0000
0000
0000
0000
0001
0000
0000
0000
0000
0000
0100
0000
0000
0000
0000
0000
0010
0000
0000
0000
0000
0000
1000
0000
0000
0000
0000
0000
0001
0000
0000
0000
0000
0000
1000
0000
0000
0000
0000
0000
0100
0000
0000
0000
0000
0000
0010
0000
0000
0000
0000
0000
0001
0000
0000
0000
0000
0000
1000
0000
0000
0000
0000
0000
0001
0000
0000
0000
0000
0000
0100
0000
0000
0000
0000
0000
0010
0000
0000
0000
0000
0000
,
1000
0001
1000
0100
0010
0001
0100
0001
1000
0100
0010
0100
1000
0010
0100
0001
1000
0100
0010
0001
0100
0001
1000
0100
,
1000
0010
0100
0001
1000
0001
0010
0100
1000
0001
0100
0010
0100
0001
1000
0100
1000
0010
0100
0001
1000
0001
0010
0100
,
1000
0000
0000
0000
0000
0000
0000
0000
0001
0000
0000
0000
0000
0000
0000
0000
0100
0000
0000
0000
0000
0000
0000
0000
0010
0000
0000
0000
0000
0000
0000
0000
0100
0000
0000
0000
0000
0000
0000
0000
0001
0000
0000
0000
0000
0000
0000
0000
0010
0000
0000
0000
0000
0000
0000
0000
0100
0000
0000
0000
0000
0000
0000
0000
1000
0000
0000
0000
0000
0000
0000
0000
0001
0000
0000
0000
0000
0000
0000
0000
0100
0000
0000
0000
0000
0000
0000
0000
0010
0000
0000
0000
0000
0000
0000
0000
0100
0000
0000
0000
0000
0000
0000
0000
0001
0000
0000
0000
0000
0000
0000
0000
1000
0000
0000
0000
0000
0000
0000
0000
0100
0000
0000
0000
0000
0000
0000
0000
0010
0000
0000
0000
0000
0000
0000
0000
0001
0000
0000
0000
0000
0000
0000
0000
1000
0000
0000
0000
0000
0000
0001
0000
0000
0000
0000
0000
1000
0000
0000
0000
0000
0000
0010
0000
0000
0000
0000
0000
0100
0000
0000
0000
0000
0000
0001
0000
0000
0000
0000
0000
0100
0000
0000
0000
0000
0000
0010
0000
0000
0000
0000
0000
,
1000
0000
0000
0000
0000
0000
0001
0000
0000
0000
0000
0000
1000
0000
0000
0000
0000
0000
0100
0000
0000
0000
0000
0000
0010
0000
0000
0000
0000
0000
0001
0000
0000
0000
0000
0000
1000
0000
0000
0000
0000
0000
0001
0000
0000
0000
0000
0000
0100
0000
0000
0000
0000
0000
0000
0000
0010
0000
0000
0000
0000
0000
0000
0000
1000
0000
0000
0000
0000
0000
0000
0000
0001
0000
0000
0000
0000
0000
0000
0000
0100
0000
0000
0000
0000
0000
0000
0000
0010
0000
0000
0000
0000
0000
0000
0000
1000
0000
0000
0000
0000
0000
0001
0000
0000
0000
0000
0000
1000
0000
0000
0000
0000
0000
0100
0000
0000
0000
0000
0000
0010
0000
0000
0000
0000
0000
0001
0000
0000
0000
0000
0000
1000
0000
0000
0000
0000
0000
0001
0000
0000
0000
0000
0000
0100
0000
0000
0000
0000
0000
0010
0000
0000
0000
0000
0000
1000
0000
0000
0000
0000
0000
0010
0000
0000
0000
0000
0000
0100
0000
0000
0000
0000
0000
0001
0000
0000
0000
0000
0000
1000
0000
0000
0000
0000
0000
0010
0000
0000
0000
0000
0000
,
0100
0001
1000
0100
0010
0001
1000
0001
0100
0001
0000
0000
0000
0000
0000
0000
0000
0000
0000
0000
0000
0000
0000
0000
;

//---------------dance-single - J. Nero (No 32nds)----------------
#NOTES:
     dance-single:
     J. Nero (No 32nds):
     Hard:
     23:
     1.000,1.000,0.542,0.662,1.000,1782.000,95.000,116.000,30.000,36.000:
1000
0001
1000
0100
0010
0001
0100
0001
1000
0010
0100
0001
1000
0000
0000
0000
0000
0000
0000
0000
0000
0000
0000
0000
,
0000
0000
0000
0000
,
0001
1000
0001
0010
0100
1000
0010
0100
0001
1000
0100
0010
0001
0000
0000
0000
0000
0000
0000
0000
0000
0000
0000
0000
,
0000
0000
0000
0000
,
1000
0010
1000
0100
0010
0001
0100
0001
1000
0010
0100
0001
1000
0000
0000
0000
0000
0000
0000
0000
0000
0000
0000
0000
,
0000
0000
0000
0000
,
0001
0100
0001
1000
0100
0010
0001
1000
0010
0100
0001
1000
0100
0000
0000
0000
0000
0000
0000
0000
0000
0000
0000
0000
,
0000
0000
0000
0000
,
1000
0010
1000
0100
0010
0001
0100
0001
0010
0100
1000
0010
1000
0000
0000
0001
0000
0000
0101
0000
0000
0100
0000
0000
,
0001
0010
0110
0100
1000
0010
0110
0100
,
0001
1000
0001
0010
0100
1000
0001
0100
0010
1000
0100
0010
0001
0000
0000
0010
0000
0000
0110
0000
0000
0100
0000
0000
,
1000
0010
1010
1000
0001
0100
0101
0001
,
0010
0100
1000
0001
1000
0100
0010
0001
1000
0010
0100
0001
1000
0000
0000
0001
0000
0000
0101
0000
0000
0100
0000
0000
,
0010
1000
1100
0100
0010
0001
1001
1000
,
0010
0100
0001
1000
0100
0010
0001
0100
0001
1000
0100
0010
0001
0000
0000
1000
0000
0000
1001
0000
0000
0001
0000
0000
,
0100
0010
0110
0100
0001
1000
1100
0100
,
1000
0000
0001
0000
1000
0000
0100
0000
0010
0000
0001
0000
0100
0000
0010
0000
1000
0000
0001
0000
1000
0000
0100
0000
0010
0000
0000
0001
0000
0000
0100
0000
0000
0001
0000
0000
1000
0000
0000
0010
0000
0000
0100
0000
0000
0010
0000
0000
,
1000
0001
0010
0100
0010
0001
1000
0001
0100
0010
0100
0001
1000
0100
1000
0001
,
0100
0000
0001
0000
1000
0000
0100
0000
0010
0000
0001
0000
0100
0000
0010
0000
1000
0000
0100
0000
0010
0000
0001
0000
1000
0000
0000
0001
0000
0000
0100
0000
0000
0001
0000
0000
1000
0000
0000
0010
0000
0000
0100
0000
0000
0010
0000
0000
,
1000
0001
0010
0100
0010
0001
1000
0100
1000
0001
0100
0010
0100
0001
1000
0001
,
0010
0000
0100
0000
1000
0000
0001
0000
0100
0000
0010
0000
0100
0000
0001
0000
1000
0000
0100
0000
0010
0000
0001
0000
1000
0000
0000
0100
0000
0000
1000
0000
0000
0010
0000
0000
1000
0000
0000
0001
0000
0000
0100
0000
0000
0001
0000
0000
,
1000
0100
0010
0100
1000
0001
1000
0010
0100
0010
1000
0001
0100
0001
1000
0100
,
0010
0001
1000
0001
0010
0100
1000
0010
0100
0001
0100
0010
1000
0100
1000
0001
0100
0010
1000
0010
0100
0001
1000
0100
,
1000
0001
0100
0010
0100
0001
1000
0100
0010
0001
0100
0001
1000
0100
0010
0100
1000
0010
0100
0001
1000
0100
0010
0001
,
1000
0001
0100
0010
0100
0001
0010
0100
1000
0010
0100
0001
1000
0000
0000
0001
0000
0000
1000
0000
0000
0010
0000
0000
,
2200
3301
2200
3301
0010
0100
1000
0001
,
2002
0000
0000
3013
0000
0000
2002
0000
0000
3013
0000
0000
1000
0000
0000
0001
0000
0000
1000
0010
0100
0001
0010
0100
,
1000
0010
0100
0001
0010
0100
1000
0000
0000
0000
0000
0000
0001
0010
0100
1000
0010
0100
0001
0010
0100
1000
0010
0100
,
0001
0000
1000
1000
0022
1033
0022
1033
,
0022
0000
0000
0000
1033
0000
0000
0000
0022
0033
0000
0000
0022
0000
0000
0033
1000
0000
0000
0000
2002
0000
3003
0000
0001
0000
0000
0000
0100
0000
0000
0000
,
0100
0010
0010
1000
1000
0001
0202
0313
,
0202
0000
0313
0000
0202
0303
0001
0000
1100
0000
0100
0000
0110
0000
0100
0000
,
0101
0100
0110
0100
1100
1000
0001
0001
,
0100
0100
0001
0001
2200
3301
2200
3301
,
1000
0010
1000
1000
0022
1033
0022
1033
,
0022
1033
0001
0100
0010
0100
2002
3013
,
2002
3013
2002
3013
1000
0001
0010
0010
,
0100
0100
1000
1000
0002
0003
0200
0010
,
0300
1000
0001
0001
0010
0100
1000
0001
,
0100
0001
1000
0010
1010
1001
0001
0010
,
0110
0100
1000
1000
0001
0010
0011
0000
,
0001
0000
1000
0000
1001
0000
0000
0010
1000
0000
0001
0000
0101
0000
0000
0000
,
0101
0110
0101
0110
0101
0001
0010
0100
,
1000
1000
0010
0100
0001
0001
0010
0010
,
1100
0110
1100
0100
1100
1000
0001
0100
,
0010
0000
0010
1000
0100
0100
1000
1000
,
0101
1001
0011
0101
1001
1000
0010
0000
,
00M1
1000
0010
0000
0010
0000
0000
2000
,
3002
0000
0000
0003
0000
0000
2000
0000
0000
3000
0000
0000
0001
0100
0001
1000
0010
0100
0001
1000
0100
0010
0001
0100
,
0001
1000
0100
0010
0100
1000
0010
0100
0001
1000
0100
0010
0001
0100
0001
1000
0010
0100
0001
1000
0001
0100
0010
1000
,
0010
0100
0001
0010
0100
1000
0001
0100
0010
0100
0001
1000
0100
1000
0010
0100
0001
1000
0100
0010
0001
0100
0001
1000
,
0100
0010
0100
1000
0001
0100
0010
1000
0010
0100
0001
1000
0100
0010
0001
0100
0001
1000
0100
1000
0010
0100
0001
0100
,
0010
1000
0001
1000
0100
0010
0001
0100
0001
1000
0100
0010
0100
1000
0001
0100
0010
1000
0001
1000
0100
0010
0001
0100
,
0001
1000
0100
0010
0100
1000
0010
0100
0001
1000
0100
0010
0001
1000
0001
0100
0010
0100
0001
1000
0100
0010
0100
1000
,
0010
0100
0001
0100
0010
1000
0001
1000
0100
0010
0001
0100
0001
1000
0100
0010
0100
1000
0010
0100
0001
1000
0001
0010
,
0100
1000
0010
0100
0001
1000
0100
0010
0100
1000
0010
0100
0001
1000
0001
0010
0100
1000
0001
0100
0010
1000
0010
0100
,
0001
1000
0100
1000
0010
0100
0001
1000
0001
0010
0100
1000
0001
0100
0010
0100
0001
1000
0100
0010
0001
0100
0001
1000
,
0100
0010
0100
1000
0010
0100
0001
1000
0001
0010
0100
1000
0010
0100
0001
0100
0010
1000
0001
1000
0100
0010
0001
0100
,
0001
1000
0100
0010
0100
1000
0010
0100
0001
1000
0001
0010
0100
1000
0001
0100
0010
1000
0001
1000
0100
0010
0001
0100
,
0001
1000
0100
0010
0100
1000
0010
0100
0001
1000
0001
0010
0100
1000
0001
0100
0001
1000
0100
1000
0010
0100
0001
1000
,
0001
0100
0010
0100
0001
1000
0100
1000
0010
0100
0001
1000
0001
0010
0100
1000
0001
0100
0010
1000
0010
0100
0001
1000
,
0100
0010
0001
0100
0001
1000
0100
1000
0010
0100
0001
1000
0001
0010
0100
1000
0001
0100
0010
0100
0001
1000
0100
0010
,
0001
0100
0001
1000
0010
1000
0100
0010
0001
0100
0001
1000
0100
0010
0100
1000
0001
0100
0010
1000
0100
0010
0001
0100
,
0001
0010
0100
1000
0010
0100
0001
0010
0001
0100
0010
1000
0100
0010
0001
0100
0001
1000
0100
1000
0010
0100
0001
1000
,
0100
0010
0001
0100
0010
1000
0002
0000
0000
0000
0000
0000
0000
0000
0000
0000
0000
0000
0000
0000
0000
0000
0000
0000
,
0000
0003
0000
0000
,
1000
0001
1000
0100
0010
0001
0100
0001
0010
0100
1000
0010
0100
0000
0000
0000
0000
0000
0000
0000
0000
0000
0000
0000
,
0000
0000
0000
0000
,
0001
1000
0001
0010
0100
1000
0001
0100
0010
1000
0010
0100
0001
0000
0000
0000
0000
0000
0000
0000
0000
0000
0000
0000
,
2000
3000
0000
0000
2000
3000
0000
0000
,
0001
1000
0100
0010
0001
0100
0010
1000
0001
0010
0100
1000
0001
0000
0000
0000
0000
0000
1000
0000
0000
0001
0000
0000
,
0010
0000
0000
0000
0000
0000
0000
0000
0100
0000
0000
0000
0000
0000
0000
0000
1000
0000
0000
0000
0000
0000
0000
0000
0020
0000
0000
0000
0000
0000
0000
0000
0000
0000
0000
0000
0000
0000
0000
0000
0000
0000
0000
0000
0000
0000
0000
0030
0010
0000
0000
0000
0000
0000
0000
0000
0000
0000
0000
0000
0000
0000
0000
0000
,
0000
0000
0000
0000
2200
3301
2200
3301
,
2200
3310
2200
3310
1000
0001
0100
0010
,
2020
0000
0000
3130
0000
0000
2020
0000
0000
3130
0000
0000
0001
0000
0000
1000
0000
0000
0001
1000
0001
0010
0100
1000
,
0010
0100
0001
1000
0100
0010
0001
0000
0000
0000
0000
0000
1000
0001
0010
0100
1000
0010
0100
0001
1000
0100
0010
0001
,
0100
0000
0001
0100
2020
3130
2020
3130
,
0001
0001
2200
3301
2200
3301
0220
1330
,
0220
0331
1000
0100
0022
1033
0022
1033
,
0001
0100
0001
1000
1100
0100
0110
0100
,
0101
0100
0110
0100
1100
1000
0001
0001
,
0010
0010
0100
0100
2200
3301
2200
3301
,
0100
0010
1000
1000
0001
0010
0100
1000
,
MMM1
MMM1
MMM1
0100
0010
0100
0022
1033
,
0022
1033
0022
1033
0001
0010
0100
1000
,
0001
0100
0010
0100
0001
0010
1000
0010
,
1000
0010
0001
0001
1000
0010
0110
0100
,
0001
1000
1001
0001
0020
0130
1100
1000
,
001M
010M
001M
100M
010M
0010
0001
0100
,
0001
1000
0100
0010
0100
1000
0001
0100
,
00M1
10M0
01M0
10M0
00M1
0100
0010
1000
,
0001
0010
0100
0010
0001
1000
0100
1000
,
0M01
0M10
0M01
1M00
0M10
1000
0001
0100
,
0001
1000
0020
0030
0020
0030
0000
0000
,
M100
0000
M001
0000
M010
0000
M100
0000
M010
0000
0001
0000
0200
0000
0000
0300
,
0200
0300
0000
0002
0023
0030
0000
0002
,
2003
0000
0000
3000
0000
0000
0002
0000
0000
0003
0000
0000
1000
0010
1000
0001
0100
0010
1000
0001
0010
0100
1000
0010
,
1000
0001
0010
0100
0010
0001
0100
0010
1000
0001
0010
0100
1000
0010
1000
0001
0100
0010
1000
0001
1000
0010
0100
0001
,
0100
0010
1000
0100
0010
0001
1000
0010
0100
0010
1000
0001
0010
0001
0100
0010
1000
0001
0010
0100
1000
0010
1000
0001
,
0010
0100
0010
0001
1000
0010
0100
0001
0100
0010
1000
0001
0010
0100
1000
0010
1000
0001
0010
0001
0100
0010
1000
0010
,
0100
0001
1000
0001
0010
0100
1000
0010
1000
0001
0010
0100
0010
0001
1000
0010
0100
0001
1000
0001
0010
0100
1000
0010
,
1000
0001
0010
0100
0010
0001
0100
0010
1000
0001
0010
0100
1000
0001
1000
0010
0100
0010
1000
0001
0010
0100
0010
0001
,
0100
0010
1000
0010
0100
0001
1000
0001
0010
0100
1000
0010
1000
0001
0010
0100
0010
0001
0100
0010
1000
0001
1000
0100
,
0010
0001
0100
0010
1000
0001
0010
0100
0010
0001
0100
0010
1000
0001
1000
0100
0010
0001
1000
0010
0100
0001
0100
0010
,
1000
0001
0010
0001
0100
0010
1000
0001
1000
0100
0010
0001
1000
0010
0100
0010
1000
0001
0010
0100
1000
0010
1000
0001
,
0010
0100
0010
0001
0100
0010
1000
0001
1000
0100
0010
0001
0100
0010
1000
0010
0100
0001
1000
0001
0010
0100
1000
0010
,
1000
0001
0010
0100
0010
0001
0100
0010
1000
0001
1000
0100
0010
0001
1000
0010
0100
0001
1000
0001
0010
0100
1000
0010
,
1000
0001
0010
0100
0010
0001
0100
0010
1000
0001
1000
0100
0010
0001
1000
0010
1000
0001
0010
0001
0100
0010
1000
0001
,
1000
0010
0100
0010
1000
0001
0010
0001
0100
0010
1000
0001
1000
0100
0010
0001
1000
0010
0100
0001
0100
0010
1000
0001
,
0010
0100
1000
0010
1000
0001
0010
0001
0100
0010
1000
0001
1000
0100
0010
0001
1000
0010
0100
0010
1000
0001
0010
0100
,
1000
0010
1000
0001
0100
0001
0010
0100
1000
0010
1000
0001
0010
0100
0010
0001
1000
0010
0100
0001
0010
0100
1000
0010
,
1000
0100
0010
0001
0100
0010
1000
0100
1000
0010
0100
0001
0010
0100
1000
0010
1000
0001
0010
0001
0100
0010
1000
0001
,
0010
0100
1000
0010
0100
0001
1000
0100
0010
0001
1000
0010
1000
0000
0000
0000
0000
0000
1001
0000
0000
0000
0000
0000
,
0002
0003
0011
0000
0020
0030
0110
0000
,
0100
1000
0001
1000
0100
0010
0001
0100
0001
1000
0010
0100
0001
0000
0000
0000
0000
0000
1001
0000
0000
0000
0000
0000
,
2000
3000
1001
0000
0002
0003
0101
0000
,
0100
0001
1000
0001
0010
0100
1000
0010
0100
0001
1000
0100
0010
0000
0000
0000
0000
0000
0011
0000
0000
0000
0000
0000
,
0002
0003
0101
0000
0200
0300
0110
0000
,
0010
1000
0001
1000
0100
0010
0001
0100
0010
1000
0100
0010
0001
0000
0000
0000
0000
0000
0011
0000
0000
0002
0000
0000
,
2003
0000
0000
0000
3000
0000
0020
0000
0230
0000
0002
0003
2300
0000
3200
0000
,
0320
0000
0000
0032
0000
0000
2003
0000
0000
3002
0000
0000
1003
0100
1000
0010
0100
0001
1000
0100
0010
0001
0100
0001
,
1000
0100
1000
0010
0100
0001
1000
0001
0010
0100
1000
0010
0100
0001
1000
0100
0010
0100
1000
0001
0100
0010
1000
0010
,
0100
0001
1000
0100
0010
0001
0100
0001
1000
0001
0010
0100
1000
0010
0100
0001
1000
0001
0010
0100
1000
0010
0100
0001
,
0010
0100
1000
0010
0100
0001
1000
0100
1000
0010
0100
0001
0010
0100
1000
0010
0100
0001
0010
0100
1000
0010
0100
0001
,
1000
0001
1000
0100
0010
0001
0100
0001
1000
0100
0010
0100
1000
0010
0100
0001
1000
0100
0010
0001
0100
0001
1000
0100
,
1000
0010
0100
0001
1000
0001
0010
0100
1000
0001
0100
0010
0100
0001
1000
0100
1000
0010
0100
0001
1000
0001
0010
0100
,
1000
0000
0000
0000
0000
0000
0000
0000
0001
0000
0000
0000
0000
0000
0000
0000
0100
0000
0000
0000
0000
0000
0000
0000
0010
0000
0000
0000
0000
0000
0000
0000
0100
0000
0000
0000
0000
0000
0000
0000
0001
0000
0000
0000
0000
0000
0000
0000
0010
0000
0000
0000
0000
0000
0000
0000
0100
0000
0000
0000
0000
0000
0000
0000
1000
0000
0000
0000
0000
0000
0000
0000
0001
0000
0000
0000
0000
0000
0000
0000
0100
0000
0000
0000
0000
0000
0000
0000
0010
0000
0000
0000
0000
0000
0000
0000
0100
0000
0000
0000
0000
0000
0000
0000
0001
0000
0000
0000
0000
0000
0000
0000
1000
0000
0000
0000
0000
0000
0000
0000
0100
0000
0000
0000
0000
0000
0000
0000
0010
0000
0000
0000
0000
0000
0000
0000
0001
0000
0000
0000
0000
0000
0000
0000
1000
0000
0000
0000
0000
0000
0001
0000
0000
0000
0000
0000
1000
0000
0000
0000
0000
0000
0010
0000
0000
0000
0000
0000
0100
0000
0000
0000
0000
0000
0001
0000
0000
0000
0000
0000
0100
0000
0000
0000
0000
0000
0010
0000
0000
0000
0000
0000
,
1000
0000
0000
0000
0000
0000
0001
0000
0000
0000
0000
0000
1000
0000
0000
0000
0000
0000
0100
0000
0000
0000
0000
0000
0010
0000
0000
0000
0000
0000
0001
0000
0000
0000
0000
0000
1000
0000
0000
0000
0000
0000
0001
0000
0000
0000
0000
0000
0100
0000
0000
0000
0000
0000
0000
0000
0010
0000
0000
0000
0000
0000
0000
0000
1000
0000
0000
0000
0000
0000
0000
0000
0001
0000
0000
0000
0000
0000
0000
0000
0100
0000
0000
0000
0000
0000
0000
0000
0010
0000
0000
0000
0000
0000
0000
0000
1000
0000
0000
0000
0000
0000
0001
0000
0000
0000
0000
0000
1000
0000
0000
0000
0000
0000
0100
0000
0000
0000
0000
0000
0010
0000
0000
0000
0000
0000
0001
0000
0000
0000
0000
0000
1000
0000
0000
0000
0000
0000
0001
0000
0000
0000
0000
0000
0100
0000
0000
0000
0000
0000
0010
0000
0000
0000
0000
0000
1000
0000
0000
0000
0000
0000
0010
0000
0000
0000
0000
0000
0100
0000
0000
0000
0000
0000
0001
0000
0000
0000
0000
0000
1000
0000
0000
0000
0000
0000
0010
0000
0000
0000
0000
0000
,
0100
0001
1000
0100
0010
0001
1000
0001
0100
0001
0000
0000
0000
0000
0000
0000
0000
0000
0000
0000
0000
0000
0000
0000
;
