#TITLE:Gamma;
#SUBTITLE:;
#ARTIST:Onoken;
#TITLETRANSLIT:;
#SUBTITLETRANSLIT:;
#ARTISTTRANSLIT:;
#CREDIT:Darkmage;
#BANNER:gamma-bn.png;
#BACKGROUND:gamma-bg.png;
#LYRICSPATH:;
#CDTITLE:!darkmagetitle2.png;
#MUSIC:Gamma.ogg;
#OFFSET:2.441;
#SAMPLESTART:92.220;
#SAMPLELENGTH:9.980;
#SELECTABLE:YES;
#BPMS:0.000=90.000,44.000=45.000,45.000=180.000,169.000=90.000,171.000=45.000,187.000=180.000,311.000=45.000;
#STOPS:;
#BGCHANGES:0.000=gamma-bg.png=1.000=0=0=1,
99999=-nosongbg-=1.000=0=0=0 // don't automatically add -songbackground-
;
// cache tags:
#FIRSTBEAT:4.000;
#LASTBEAT:312.000;
#SONGFILENAME:Songs/Archmage and Dark0wl Hammer of Thor UltraHyperMegaPack/Gamma/Gamma.sm;
#HASMUSIC:1;
#HASBANNER:1;
#MUSICLENGTH:105.000;
// end cache tags

//---------------dance-single - Darkmage----------------
#NOTES:
     dance-single:
     Darkmage:
     Hard:
     13:
     1.000,1.000,0.924,1.000,1.000,1024.000,97.000,228.000,0.000,8.000:
0000
0000
0000
0000
,
0220
0000
0000
0000
,
0000
0000
0000
0000
,
0000
0000
0000
0000
0000
0000
0000
0330
1001
0100
0100
0010
1000
1000
0010
1000
,
0100
0000
0100
0000
0010
0000
0100
0000
0100
0000
1000
0000
0001
0000
1000
0010
1000
0000
0010
0000
0010
0000
1000
0000
0010
0000
0010
0000
1000
0000
0001
0100
,
0001
0000
0100
0000
0100
0000
0010
0000
0100
0000
0001
0000
1000
0010
1000
0010
0100
0000
0010
0000
0010
0000
1000
0000
0010
0000
0010
0000
0100
0000
0010
0000
,
1000
0000
0010
0000
0010
0000
0100
0000
0010
0000
0010
0000
1000
0000
0001
0010
0001
0000
0100
0000
0100
0000
0010
0000
1000
0000
1000
0000
0001
0000
1000
0000
,
0010
0000
0100
0000
0100
0000
0010
0000
0100
0000
0100
0000
0001
0000
0010
0000
1001
0100
0010
0001
1000
0010
0100
0001
0100
0010
1000
0001
0010
0100
1000
0100
,
0010
0001
1000
0010
0100
0010
1000
0001
0100
0010
0100
0001
1000
0100
0010
0001
1000
0100
1000
0010
0100
0001
0010
0001
0100
0010
1000
0100
0010
0001
0010
0100
,
1000
0001
0010
0100
0010
0001
1000
0100
0010
0001
0010
0100
1000
0001
0010
0100
1001
0100
0010
0001
1000
0010
0100
0001
0100
0010
1000
0001
0010
0100
0010
0001
,
1000
0010
0100
0010
1000
0001
0010
0100
1000
0100
0010
0001
1000
0010
0100
0001
1000
0100
1000
0010
0100
0001
0010
0001
0100
0010
1000
0100
1000
0010
0100
0001
,
1001
0000
0000
0000
1001
0000
0010
0000
0101
0000
0010
0000
1000
0010
1000
0000
,
0101
0000
0010
0000
1001
0000
0100
0000
1010
0000
0001
0000
0100
0010
0100
0000
,
1010
0000
0001
0000
1100
0000
0010
0000
0101
0000
1000
0000
0001
0010
0001
0000
,
0110
0000
1000
0000
0101
0000
0010
0000
1100
0000
0001
0000
0100
0010
0100
0000
,
1010
0000
0100
0000
1001
0000
0010
0000
0101
0000
1000
0000
0001
0010
0001
0000
,
0110
0000
0001
0000
1010
0000
0100
0000
0011
0000
1000
0000
0010
0100
0010
0000
,
1100
0000
0001
0000
0110
0000
1000
0000
0101
0000
0010
0000
1000
0100
1000
0000
,
0011
0000
0100
0000
1010
0000
0100
0000
1001
0000
0010
0000
0100
0001
0100
0000
,
1010
0000
0100
0000
2001
0000
3010
0000
1010
0000
0100
0000
0001
0010
0001
0000
,
0011
0000
0100
0000
1010
0000
0001
0000
1100
0000
0001
0000
1000
0100
0010
0001
,
0010
0000
0100
0000
1002
0000
0103
0000
0101
0000
0010
0000
0001
0010
0001
0000
,
0011
0000
0100
0000
1010
0000
0100
0000
1001
0000
0010
0000
0001
0010
0100
1000
,
0100
0000
0010
0000
2001
0000
3100
0000
1100
0000
0010
0000
0100
0010
0100
0000
,
0110
0000
1000
0000
0101
0000
0010
0000
1100
0000
0001
0000
0010
0100
1000
0100
,
0010
0000
0001
0000
1002
0000
0013
0000
1000
0100
1000
0010
0100
0001
0010
0001
,
0100
0010
1000
0100
0010
0001
0010
0100
1000
0100
1000
0010
0100
0001
0010
0001
,
0100
0010
1000
0100
2001
0000
3100
0000
1100
0001
0010
0100
1000
0100
0010
0001
,
1000
0001
0000
0000
0000
0000
2000
3020
,
0230
0302
2003
3002
0023
0030
0000
0000
,
1000
0000
0001
1000
0100
0010
0100
1000
0100
0010
0001
0010
0100
1000
0100
0010
,
0001
0010
0100
0010
1002
0000
0013
0000
0011
0000
0000
0000
0000
0000
0000
0000
,
1000
0000
0001
1000
0100
0010
0001
0010
0100
1000
0100
0010
0002
0000
0023
0000
,
0230
0000
2300
0000
3020
0000
0230
0000
0302
0000
1003
0100
0010
0001
1000
0010
,
1000
0000
0001
0010
0001
0100
0010
1000
0100
1000
0010
0100
0001
0010
0001
0100
,
0010
1000
0100
0010
1002
0000
0000
0000
2003
0000
3200
0000
0300
0000
0020
0030
,
0000
0002
2003
3020
0230
0302
0003
0020
,
0030
0000
0200
0000
2301
0000
0000
0000
3020
0000
0230
0000
0300
0000
0002
0003
,
0000
2000
3020
0230
0302
0023
0030
0200
,
0300
0000
0020
0000
1031
0100
0010
1000
0100
0010
0001
1000
0010
0100
0001
0100
,
0010
1000
0100
0010
1001
0100
1000
0010
0100
0001
0010
0001
0100
0010
1000
0100
,
1000
0010
0100
0010
1001
0100
0001
0010
0001
0100
0010
0100
1001
0010
0001
1000
,
0100
0010
0001
0010
2001
3020
0230
0302
0003
0000
0000
0000
1001
0100
0010
0100
,
0010
1000
0001
0000
0100
0000
0010
0000
1000
0000
0100
0000
0010
0000
0001
0000
1000
0100
0010
0000
0001
0000
1000
0000
0001
0000
0100
0000
0010
0000
1000
0000
,
0001
0000
0010
0000
0100
0000
0000
0000
1000
0000
0000
0000
0001
0000
0000
0000
0100
0000
0000
0000
0010
0000
0000
0000
1000
0000
0000
0000
0001
0000
0000
0000
0100
0000
0010
0000
1000
0000
0000
0000
0010
0000
0000
0000
0100
0000
0000
0000
1001
0100
0010
0001
1000
0010
0100
0010
1000
0001
0010
0100
0010
0001
1000
0010
,
0100
0010
1000
0001
0100
0010
0100
0001
1000
0100
0010
0001
0010
0100
1000
0001
0100
0010
1000
0010
0100
0001
0010
0001
1000
0100
1000
0010
0100
0001
0010
0001
0100
0010
1000
0100
0010
0001
1000
0010
0100
0001
0010
0100
0010
0001
1000
0010
1001
0100
0010
1000
0010
0100
0001
0010
0001
0100
0010
1000
0100
1000
0010
0100
,
0001
0010
0100
1000
0100
0010
0001
1000
0100
0010
0001
0010
0100
1000
0001
1000
0100
0010
0001
1000
0010
0100
0010
1000
0001
0100
0010
1000
0100
0010
0001
0100
1001
0000
0100
0001
1000
0000
0110
0000
0001
1000
0100
0000
1001
0000
0100
0010
1001
0000
0000
0000
0000
0000
0000
0000
0000
0000
0000
0000
0000
0000
0000
0000
,
0202
0000
0303
0000
0020
0000
2030
0000
3000
0000
2002
3003
0000
0000
0000
0000
,
0002
0203
0300
0020
2030
3000
1001
0000
,
2200
0000
3300
0000
0020
0000
0032
0000
0003
0000
2002
3003
0000
0000
0000
0000
,
0200
0320
0030
2000
3002
0003
1001
0000
,
0022
0033
0200
2300
3000
1001
0000
0000
,
0200
0302
0003
2000
3020
0030
1001
0000
,
0220
0330
2000
3002
0003
1001
0000
0000
,
0020
0230
0300
2000
3002
0003
1001
0000
,
0202
0000
0303
0000
0020
0000
2030
0000
3000
0000
1001
0100
0010
0001
1000
0010
,
0100
0001
0020
0100
2030
0100
3020
0001
2030
0100
3020
0130
1001
0000
0000
0000
,
2020
0000
3030
0000
0200
0000
0302
0000
0003
0000
1001
0010
0001
0100
0010
1000
,
0100
1000
0002
0010
0203
1000
0320
1000
0032
0100
0023
1030
1001
0000
0000
0000
,
2200
0000
3300
0000
0002
0000
0023
0000
0030
0000
1001
0010
0100
1000
0010
0100
,
0001
1000
0020
0100
0032
0010
0203
1000
0320
1000
0230
0310
1001
0000
0000
0000
,
0022
0000
0033
0000
2000
0000
3200
0000
0300
0000
1001
0010
0001
0100
0010
1000
,
0100
1000
0002
1000
0023
0100
0032
0010
0203
1000
0320
0130
1001
0100
1000
0010
,
0100
0001
0010
0001
0100
0010
1000
0100
1000
0010
0100
0001
0010
0001
0100
0010
,
1000
0100
0010
0001
0010
0100
1000
0100
0010
0001
0010
0100
1001
0010
0001
0100
,
0010
1000
0100
1000
0010
0100
0001
0010
0001
0100
0010
1000
0100
0010
0001
0010
,
0100
1000
0010
0100
0001
0010
0100
1000
0100
0010
0001
0010
1001
0100
1000
0100
,
0010
0001
0010
0100
1000
0100
0010
0100
1000
0001
0010
0100
1000
0010
0100
0001
,
0010
0001
0100
0010
1000
0001
0010
0001
0100
0010
1000
0010
1001
0100
0010
1000
,
0001
0010
0001
0100
0010
1000
0010
0100
0001
0010
0100
1000
0100
1000
0010
0100
,
0001
0010
0001
0100
0010
1000
0100
1000
0010
0100
0001
0010
1001
0200
2300
3020
,
0230
0302
0023
0032
0203
0320
2030
3200
2300
3020
0230
0302
0023
0032
0203
0320
,
2030
3002
0023
0230
0320
0032
2003
3200
0320
0032
2003
3020
1031
0200
0320
2030
,
3200
0320
0230
2300
3002
0203
0320
0230
0302
2003
3200
0320
0230
2300
3020
0230
,
0302
2003
3200
0320
0032
2003
3020
0230
0302
0203
0320
0230
1301
0020
0032
2003
,
3020
0230
0302
0023
0032
2003
3200
2300
3020
0230
0302
0203
1301
0020
2030
3002
,
0023
0032
2003
3200
0320
0032
2003
3002
0203
0320
2030
3020
1031
0200
0302
0023
,
0230
2300
3002
0203
1301
0020
2030
3020
0230
0302
0023
0230
2302
0000
0000
0000
,
3003
0000
0000
0000
;

//---------------dance-single - Darkmage----------------
#NOTES:
     dance-single:
     Darkmage:
     Challenge:
     15:
     1.000,1.000,1.000,1.000,1.000,1079.000,246.000,228.000,0.000,94.000:
0000
0000
0000
0000
,
0220
0000
0000
0000
,
0000
0000
0000
0000
,
0000
0000
0000
0000
0000
0000
0000
0330
1001
0100
0100
0010
1000
1000
0010
1000
,
0100
0000
0100
0000
0010
0000
0100
0000
0100
0000
1000
0000
0001
0000
1000
0010
1000
0000
0010
0000
0010
0000
1000
0000
0010
0000
0010
0000
1000
0000
0001
0100
,
0001
0000
0100
0000
0100
0000
0010
0000
0100
0000
0001
0000
1000
0010
1000
0010
0100
0000
0010
0000
0010
0000
1000
0000
0010
0000
0010
0000
0100
0000
0010
0000
,
1000
0000
0010
0000
0010
0000
0100
0000
0010
0000
0010
0000
1000
0000
0001
0010
0001
0000
0100
0000
0100
0000
0010
0000
1000
0000
1000
0000
0001
0000
1000
0000
,
0010
0000
0100
0000
0100
0000
0010
0000
0100
0000
0100
0000
0001
0000
0010
0000
1001
0100
0010
0001
1000
0010
0100
0001
0100
0010
1000
0001
0010
0100
1000
0100
,
0010
0001
1000
0010
0100
0010
1000
0001
0100
0010
0100
0001
1000
0100
0010
0001
1000
0100
1000
0010
0100
0001
0010
0001
0100
0010
1000
0100
0010
0001
0010
0100
,
1000
0001
0010
0100
0010
0001
1000
0100
0010
0001
0010
0100
1000
0001
0010
0100
1001
0100
0010
0001
1000
0010
0100
0001
0100
0010
1000
0001
0010
0100
0010
0001
,
1000
0010
0100
0010
1000
0001
0010
0100
1000
0100
0010
0001
1000
0010
0100
0001
1000
0100
1000
0010
0100
0001
0010
0001
0100
0010
1000
0100
1000
0010
0100
0001
,
1001
0000
0000
0000
1001
0000
0110
0000
0101
0000
1010
0000
1000
0010
1000
0000
,
0101
0000
0110
0000
1001
0000
0101
0000
1010
0000
0011
0000
0100
0010
0100
0000
,
1010
0000
0101
0000
1100
0000
1010
0000
0101
0000
1001
0000
0001
0010
0001
0000
,
0110
0000
1010
0000
0101
0000
0110
0000
1100
0000
0011
0000
0100
0010
0100
0000
,
1010
0000
0101
0000
1001
0000
1010
0000
0101
0000
1001
0000
0001
0010
0001
0000
,
0110
0000
0101
0000
1010
0000
0110
0000
0011
0000
1010
0000
0010
0100
0010
0000
,
1100
0000
1001
0000
0110
0000
1100
0000
0101
0000
1010
0000
1000
0100
1000
0000
,
0011
0000
0101
0000
1010
0000
0101
0000
1001
0000
1010
0000
0100
0001
0100
0000
,
1010
0000
0101
0000
2001
0000
3010
0000
1010
0000
0101
0000
0001
0010
0001
0000
,
0011
0000
0101
0000
1010
0000
1001
0000
1100
0000
0011
0000
1000
0100
0010
0001
,
0010
0000
0101
0000
1002
0000
0103
0000
0101
0000
0011
0000
0001
0010
0001
0000
,
0011
0000
1100
0000
1010
0000
0110
0000
1001
0000
1010
0000
0001
0010
0100
1000
,
0100
0000
1010
0000
2001
0000
3100
0000
1100
0000
1010
0000
0100
0010
0100
0000
,
0110
0000
1010
0000
0101
0000
0110
0000
1100
0000
1001
0000
0010
0100
1000
0100
,
0010
0000
0101
0000
1002
0000
0013
0000
1000
0100
1000
0010
0100
0001
0010
0001
,
0100
0010
1000
0100
0010
0001
0010
0100
1000
0100
1000
0010
0100
0001
0010
0001
,
0100
0010
1000
0100
2001
0000
3100
0000
1100
0001
0010
0100
1000
0100
0010
0001
,
1000
1001
0000
0000
0000
0000
2010
3021
,
1230
0312
2103
3102
1023
0030
0000
0000
,
1001
0000
0001
1000
0100
0010
0100
1000
0100
0010
0001
0010
0100
1000
0100
0010
,
0001
0010
0100
0010
1002
0000
0013
0000
0011
0000
0000
0000
0000
0000
0000
0000
,
1001
0000
0001
1000
0100
0010
0001
0010
0100
1000
0100
0010
1002
0000
0123
0000
,
0231
0000
2310
0000
3120
0000
1230
0000
0312
0000
1003
0100
0010
0001
1000
0010
,
1000
0000
0001
0010
0001
0100
0010
1000
0100
1000
0010
0100
0001
0010
0001
0100
,
0010
1000
0100
0010
1002
0000
0000
0000
2103
0000
3201
0000
0300
0000
1020
0030
,
0000
0102
2013
3021
1230
0312
0003
0021
,
0030
0000
0201
0000
2301
0000
0000
0000
3120
0000
0231
0000
0300
0000
1002
0003
,
0000
2100
3021
1230
0312
0123
0030
0201
,
0300
0000
0120
0000
1031
0100
0010
1000
0100
0010
0001
1000
0010
0100
0001
0100
,
0010
1000
0100
0010
1001
0100
1000
0010
0100
0001
0010
0001
0100
0010
1000
0100
,
1000
0010
0100
0010
1001
0100
0001
0010
0001
0100
0010
0100
1001
0010
0001
1000
,
0100
0010
0001
0010
2001
3020
0230
0302
0003
0000
0000
0000
1001
0100
0010
0100
,
0010
1000
0001
0000
0100
0000
0010
0000
1000
0000
0100
0000
0010
0000
0001
0000
1000
0100
0010
0000
0001
0000
1000
0000
0001
0000
0100
0000
0010
0000
1000
0000
,
0001
0000
0010
0000
0100
0000
0000
0000
1000
0000
0000
0000
0001
0000
0000
0000
0100
0000
0000
0000
0010
0000
0000
0000
1000
0000
0000
0000
0001
0000
0000
0000
0100
0000
0010
0000
1000
0000
0000
0000
0010
0000
0000
0000
0100
0000
0000
0000
1001
0100
0010
0001
1000
0010
0100
0010
1000
0001
0010
0100
0010
0001
1000
0010
,
0100
0010
1000
0001
0100
0010
0100
0001
1000
0100
0010
0001
0010
0100
1000
0001
0100
0010
1000
0010
0100
0001
0010
0001
1000
0100
1000
0010
0100
0001
0010
0001
0100
0010
1000
0100
0010
0001
1000
0010
0100
0001
0010
0100
0010
0001
1000
0010
1001
0100
0010
1000
0010
0100
0001
0010
0001
0100
0010
1000
0100
1000
0010
0100
,
0001
0010
0100
1000
0100
0010
0001
1000
0100
0010
0001
0010
0100
1000
0001
1000
0100
0010
0001
1000
0010
0100
0010
1000
0001
0100
0010
1000
0100
0010
0001
0100
1001
0000
0100
0001
1000
0000
0110
0000
0001
1000
0100
0000
1001
0000
0100
0010
1001
0000
0000
0000
0100
0000
0000
0000
0010
0000
0000
0000
1000
0000
0000
0000
,
0202
0000
0303
0000
0020
0000
2030
0000
3000
0000
2002
3103
0010
1000
0100
1000
,
0012
1000
0203
0010
0301
1000
0120
0001
2130
0010
3001
0100
1001
0000
0000
0000
,
2200
0000
3300
0000
0020
0000
0032
0000
0003
0000
2002
3103
0010
1000
0001
0010
,
0201
1000
0321
0100
1030
0010
2100
0010
3102
0010
1003
0010
1001
0000
0000
0000
,
0022
0000
0033
0000
0200
0000
2300
0000
3000
0000
1001
0100
0010
1000
0001
0010
,
0201
1000
0312
0100
1003
0100
2010
0001
3120
0001
1030
0100
1001
0000
0000
0000
,
0220
0000
0330
0000
2000
0000
3002
0000
0003
0000
1001
0010
0100
0001
1000
0100
,
1020
0001
1230
0010
0301
0100
2010
0100
3012
1000
0103
0010
1001
0000
0000
0000
,
0202
0000
0303
0000
0020
0000
2030
0000
3000
0000
1001
0100
0010
0001
1000
0010
,
0100
0001
1020
0100
2031
0100
3021
0100
2031
0100
3021
0130
1001
0000
0000
0000
,
2020
0000
3030
0000
0200
0000
0302
0000
0003
0000
1001
0010
0001
0100
0010
1000
,
0100
1000
0102
0010
1203
0001
1320
0100
1032
0100
1023
0130
1001
0000
0000
0000
,
2200
0000
3300
0000
0002
0000
0023
0000
0030
0000
1001
0010
0100
1000
0010
0100
,
0001
1000
0021
1000
0132
0010
1203
0001
1320
0001
1230
0310
1001
0000
0000
0000
,
0022
0000
0033
0000
2000
0000
3200
0000
0300
0000
1001
0010
0001
0100
0010
1000
,
0100
1000
0012
1000
0123
1000
0132
0010
1203
0001
1320
0130
1001
0100
1000
0010
,
0100
0001
0010
0001
0100
0010
1000
0100
1000
0010
0100
0001
0010
0001
0100
0010
,
1000
0100
0010
0001
0010
0100
1000
0100
0010
0001
0010
0100
1001
0010
0001
0100
,
0010
1000
0100
1000
0010
0100
0001
0010
0001
0100
0010
1000
0100
0010
0001
0010
,
0100
1000
0010
0100
0001
0010
0100
1000
0100
0010
0001
0010
1001
0100
1000
0100
,
0010
0001
0010
0100
1000
0100
0010
0100
1000
0001
0010
0100
1000
0010
0100
0001
,
0010
0001
0100
0010
1000
0001
0010
0001
0100
0010
1000
0010
1001
0100
0010
1000
,
0001
0010
0001
0100
0010
1000
0010
0100
0001
0010
0100
1000
0100
1000
0010
0100
,
0001
0010
0001
0100
0010
1000
0100
1000
0010
0100
0001
0010
1001
0200
2300
3020
,
1230
0302
0023
0032
1203
0320
2030
3200
2301
3020
0230
0302
1023
0032
0203
0320
,
2031
3002
0023
0230
1320
0032
2003
3200
1320
0032
2003
3020
1031
0200
0320
2030
,
3201
0320
0230
2300
3012
0203
0320
0230
0312
2003
3200
0320
0231
2300
3020
0230
,
0312
2003
3200
0320
0132
2003
3020
0230
1302
0203
0320
0230
1301
0020
0132
2003
,
3021
0230
1302
0023
0132
2003
3201
2300
3021
0230
1302
0203
1301
0020
2130
3002
,
0123
0032
2013
3200
1320
0032
2103
3002
1203
0320
2031
3020
1031
0200
0312
0023
,
0231
2300
3012
0203
1301
0120
2031
3120
1230
0312
0123
1230
2302
0000
0000
0000
,
3003
0000
0000
0000
;

//---------------dance-single - Darkmage----------------
#NOTES:
     dance-single:
     Darkmage:
     Medium:
     9:
     1.000,1.000,1.000,1.000,0.595,566.000,117.000,202.000,0.000,2.000:
0000
0000
0000
0000
,
0220
0000
0000
0000
,
0000
0000
0000
0000
,
0000
0000
0000
0000
0000
0000
0000
0330
1001
0100
0100
0010
1000
1000
0010
1000
,
0100
0100
0010
0100
0100
1000
0001
1000
1000
0010
0010
1000
0010
0010
1000
0001
,
0001
0100
0100
0010
0100
0001
1000
1000
0100
0010
0010
1000
0010
0010
0100
0010
,
1000
0010
0010
0100
0010
0010
1000
0001
0001
0100
0100
0010
1000
1000
0001
1000
,
0010
0100
0100
0010
0100
0100
0001
0010
1001
0100
1000
0001
0010
0001
0100
0010
,
2000
0100
3010
0001
0100
0010
1000
0100
0002
0010
0103
1000
0100
0001
1000
0010
,
0200
0001
0310
1000
0100
0010
0001
0100
1001
0010
0001
1000
0100
0010
0001
1000
,
0200
0001
0310
0100
1000
0010
0100
0001
0020
0100
0031
1000
0010
0100
0001
0010
,
1001
0000
0000
0000
1001
0000
0000
0000
0101
0000
0000
0000
1000
0010
1000
0000
,
1010
0000
0000
0000
0101
0000
0000
0000
0011
0000
0000
0000
0010
0001
0010
0000
,
0011
0000
0000
0000
1100
0000
0000
0000
0101
0000
0000
0000
0100
0010
0100
0000
,
0110
0000
0000
0000
0101
0000
0000
0000
1010
0000
0000
0000
0010
1000
0010
0000
,
1010
0000
0000
0000
1001
0000
0000
0000
0101
0000
0000
0000
0001
0010
0001
0000
,
0011
0000
0000
0000
1010
0000
0000
0000
0011
0000
0000
0000
0010
0100
0010
0000
,
0110
0000
0000
0000
0101
0000
0000
0000
0110
0000
0000
0000
1000
0100
1000
0000
,
1100
0000
0000
0000
1001
0000
0000
0000
0011
0000
0000
0000
0100
0001
0100
0000
,
0101
0000
0000
0000
2001
0000
3010
0000
1010
0000
0000
0000
1000
0010
0100
0000
,
1010
0000
0000
0000
1001
0000
0000
0000
0101
0000
0000
0000
0001
0010
0001
0010
,
0001
0000
0000
0000
1002
0000
0013
0000
0011
0000
0000
0000
0001
0010
0100
0000
,
0011
0000
0000
0000
1010
0000
0000
0000
1001
0000
0000
0000
1000
0100
1000
0100
,
1000
0000
0000
0000
2001
0000
3010
0000
1010
0000
0000
0000
0100
0010
0100
0000
,
0110
0000
0000
0000
0101
0000
0000
0000
1100
0000
0000
0000
0010
0100
0010
0100
,
0010
0000
1002
0013
0001
0010
0001
0100
,
0010
1000
0100
1000
0010
0100
0001
0010
,
0100
1000
2001
3100
1001
0000
0000
0000
,
1000
0001
0000
0000
0000
0000
2000
3020
,
0230
0302
2003
3002
0023
0030
0000
0000
,
1000
0001
1000
0100
1000
0010
0100
0001
,
0010
0100
1002
0013
1001
0000
0000
0000
,
1000
0001
0100
0010
0001
1000
0002
0023
,
0230
2300
3020
0230
0302
0003
0000
0000
,
1000
0001
0000
0000
0000
0000
0000
0000
,
0000
0000
0000
0000
1002
0000
0000
0000
2003
0000
3200
0000
0300
0000
0020
0030
,
0000
0002
2003
3020
0230
0302
0003
0020
,
0030
0000
0200
0000
2301
0000
0000
0000
3020
0000
0230
0000
0300
0000
0002
0003
,
0000
2000
3020
0230
0302
0023
0030
0200
,
0300
0020
1031
0100
0010
0001
1000
0010
,
0100
0001
1001
0010
0100
0010
0001
1000
,
0010
0100
1001
0010
1000
0100
1001
0010
,
1000
0000
0001
0000
2001
3020
0230
0302
0003
0000
0000
0000
1001
0100
0010
0100
,
0010
1000
0001
0000
0100
0000
0010
0000
1000
0000
0100
0000
0010
0000
0001
0000
1000
0100
0010
0000
0001
0000
1000
0000
0001
0000
0100
0000
0010
0000
1000
0000
,
0001
0010
0100
0000
1000
0000
0001
0000
0100
0000
0010
0000
1000
0000
0001
0000
0100
0010
1000
0000
0010
0000
0100
0000
1001
0000
0010
0000
0001
0000
1000
0000
,
0001
0010
0100
0000
1000
0000
0010
0000
0100
0000
0001
0000
1000
0000
0100
0000
0001
0100
1000
0000
0010
0000
0100
0000
1001
0000
0010
0000
0001
0000
1000
0000
,
0010
0000
0100
0000
0001
0000
0000
0000
1000
0000
0000
0000
0001
0000
0000
0000
0100
0000
0000
0000
0010
0000
0000
0000
1000
0000
0000
0000
0001
0000
0000
0000
0110
0000
1000
0001
1000
0000
0110
0000
0001
1000
0001
0000
0110
0000
0001
0100
1001
0000
0000
0000
0000
0000
0000
0000
0000
0000
0000
0000
0000
0000
0000
0000
,
0202
0000
0303
0000
0020
0000
2030
0000
3000
0000
2002
3003
0000
0000
0000
0000
,
0002
0203
0300
0020
2030
3000
1001
0000
,
2200
0000
3300
0000
0020
0000
0032
0000
0003
0000
2002
3003
0000
0000
0000
0000
,
0200
0320
0030
2000
3002
0003
1001
0000
,
0022
0033
0200
2300
3000
1001
0000
0000
,
0200
0302
0003
2000
3020
0030
1001
0000
,
0220
0330
2000
3002
0003
1001
0000
0000
,
0020
0230
0300
2000
3002
0003
1001
0000
,
0202
0303
0020
2030
3000
1001
0000
0000
,
0000
0000
0020
0000
2030
0000
3020
0000
2030
0000
3020
0030
1001
0000
0000
0000
,
2020
3030
0200
0302
0003
1001
0000
0000
,
0000
0000
0002
0000
0203
0000
0320
0000
0032
0000
0023
0030
1001
0000
0000
0000
,
2200
3300
0002
0023
0030
1001
0000
0000
,
0000
0000
0020
0000
0032
0000
0203
0000
0320
0000
0230
0300
1001
0000
0000
0000
,
0022
0033
2000
3200
0300
1001
0000
0000
,
0000
0000
0002
0000
0023
0000
0032
0000
0203
0000
0320
0030
1001
0000
0000
0000
,
0202
0303
0020
2030
3000
1001
0020
0032
,
2003
3020
0230
0302
0203
0310
1001
0000
,
2200
3300
0020
0032
0003
0011
0200
2300
,
3020
0230
0302
0023
0032
0103
1001
0000
,
0202
0303
0020
0230
0300
0110
2000
3002
,
0203
0320
2030
3002
0023
0130
0110
0000
,
2200
3300
0020
2030
3000
0101
0020
0230
,
0302
2003
3020
0230
0302
0013
1001
0000
,
2200
3300
1020
0130
0000
0110
0002
0203
,
0320
0032
2003
3200
0320
1030
1100
0000
,
0022
0033
1200
0310
0000
0011
2000
3200
,
0320
2030
3002
0203
0320
0031
1001
0000
,
0202
0303
0021
0130
0000
0101
1001
0000
,
2020
3030
0200
0302
0003
0101
1001
0000
,
0202
0303
0020
2030
3000
0110
2002
0000
,
3003
0000
0000
0000
;
