#TITLE:Rottel-Da-Station;
#SUBTITLE:;
#ARTIST:Sampling Masters CHANG;
#TITLETRANSLIT:;
#SUBTITLETRANSLIT:;
#ARTISTTRANSLIT:;
#CREDIT:Professor Raine;
#BANNER:RottelDaStation-banner.png;
#BACKGROUND:RottelDaStation-bg.png;
#LYRICSPATH:;
#CDTITLE:corbinek-cdtitle.png;
#MUSIC:rotteldastation.mp3;
#OFFSET:-0.040;
#SAMPLESTART:9.840;
#SAMPLELENGTH:28.000;
#SELECTABLE:YES;
#BPMS:0.000=200.000,76.000=399.998,80.000=200.000,92.000=100.000,94.000=200.000,108.000=100.000,109.000=200.000,181.000=399.998,185.000=200.000,217.000=100.000,219.000=200.000,223.000=100.000,225.000=199.980,229.000=100.000,231.000=200.000,232.500=100.000,233.500=200.000,235.000=100.000,236.000=200.000,287.000=100.000,288.000=200.000,336.000=100.000,338.000=200.000,342.000=100.000,344.000=200.000,348.000=100.000,350.000=200.000,354.000=100.000,356.000=200.000,360.000=100.000;
#STOPS:76.000=0.080
,76.500=0.074
,77.000=0.074
,77.500=0.074
,78.000=0.074
,78.500=0.074
,79.000=0.074
,79.500=0.074
,181.000=0.074
,181.500=0.074
,182.000=0.074
,182.500=0.074
,183.000=0.074
,183.500=0.074
,184.000=0.074
,184.500=0.074
,237.000=0.300
,238.000=0.300
,239.000=0.140
,239.500=0.140
,240.000=0.080
,240.250=0.080
,240.500=0.080
,240.750=0.080
;
#BGCHANGES:;
// cache tags:
#FIRSTBEAT:0.000;
#LASTBEAT:361.000;
#SONGFILENAME:Songs/KBU/Rottel Da Station (Corbinek)/Rottel.sm;
#HASMUSIC:1;
#HASBANNER:1;
#MUSICLENGTH:120.040;
// end cache tags

//---------------dance-single - ----------------
#NOTES:
     dance-single:
     :
     Challenge:
     12:
     1.000,1.000,1.000,0.816,0.625,774.000,391.000,98.000,31.000,36.000:
0011
0000
0001
0000
0000
0000
2100
3000
0000
0000
0000
0000
0000
0000
0000
0000
,
1000
0100
0011
0000
1000
0100
0011
0000
1000
0100
0011
0000
1000
0100
0011
0000
,
0101
0000
0001
0000
0000
0000
2100
3000
2100
3000
0000
0000
0000
0000
0000
0000
,
1000
0100
0011
0000
0011
1000
0100
0011
1000
0100
0011
1000
0100
0011
1000
0011
,
1100
0000
0100
0000
0000
0000
0012
0003
0000
0000
0000
0000
0000
0000
0000
0000
,
1000
0100
0011
1000
0001
1000
0011
1000
0001
1000
0011
1000
0001
1000
0011
0000
,
0110
0000
0110
0000
0000
0000
2100
3000
0000
0000
0000
0000
0000
0000
0000
0000
,
1000
0000
0100
0000
0011
0000
1000
0000
0001
0000
1000
0000
0100
0000
0011
0000
1000
0000
0100
0000
0010
0000
0001
0000
1000
0100
0010
0001
1000
0100
0010
0001
,
1100
0000
0010
0000
1002
0003
0100
0000
0011
0000
2000
3000
0110
0000
0001
0000
,
1100
0000
0010
0000
0102
0003
1100
0000
0010
0000
0201
0300
1010
0000
0011
0000
,
1001
0000
0100
0000
0021
0030
1000
0000
0110
0000
0002
0003
1100
0000
0010
0000
,
1001
0000
0100
0000
0021
0030
1100
0000
0002
0003
0110
0000
2100
3011
1100
0011
,
1200
0300
0010
0000
0102
0003
1000
0000
0110
0000
0002
0003
1100
0000
0010
0000
,
1001
0000
0100
0000
0021
0030
1100
0000
0001
0000
0210
0300
0011
0000
1100
0000
,
1001
0000
0100
0000
0021
0030
0100
0000
1010
0000
0002
0003
1100
0000
0010
0000
,
1001
0000
0000
0000
0100
0000
0000
0000
2001
0000
3000
0000
1001
0000
0000
0000
1002
0000
0103
0000
0010
0000
0001
0000
2000
0100
3010
0001
1000
0100
0010
0001
,
1000
1000
0011
1000
0011
1000
1000
0011
,
1000
0011
1000
1000
0011
1000
0011
1000
,
1000
1000
0011
1000
0011
1000
1000
0011
,
1100
1100
1100
1100
1100
1100
1100
1100
,
1101
1000
0011
1000
0011
1000
1000
0011
,
1000
0011
1000
1000
0011
1000
0011
1000
,
1000
1000
0011
1000
0011
1000
1000
0011
,
2110
0000
0000
3000
1001
0100
0011
1000
,
0110
0000
1000
0100
0011
1000
0100
0010
1001
0000
0010
0100
1001
0000
0100
0000
,
0011
1000
0100
0000
0011
0100
0011
0100
1011
0000
0010
0000
0101
0000
0010
0000
,
1001
0000
0100
0010
1001
0100
0010
0001
1100
0000
1100
0000
1100
0000
1100
0001
,
1100
0000
0002
0113
1101
0000
0010
0000
0101
0000
1000
0000
0110
0000
0001
0010
,
1100
0001
0010
0100
1001
0000
0010
0100
1001
0000
0010
0000
1100
0001
0010
0000
,
1001
0000
0110
0001
1110
0000
0010
0000
0101
0000
1000
0000
0110
0000
1000
0001
,
1100
0001
1000
0001
2000
0000
0000
0000
0M1M
0000
0000
0000
01MM
0000
0000
0000
,
0MM1
0000
0000
0000
3111
0000
1000
0000
0120
0030
0001
0000
1010
0000
0200
0300
,
0011
0000
0100
0000
1010
0000
0100
0000
0012
0003
0110
0000
0001
0000
0120
0030
,
1100
0000
0101
0000
1001
0000
0010
0000
1002
0003
0100
0000
0011
0000
2000
3000
,
0110
0000
0001
0000
1100
0000
0010
0000
0102
0003
1100
0000
0002
0003
0110
0000
,
2100
0000
0000
0000
3011
0000
0000
0000
1100
0000
0000
0000
0011
0000
0000
0000
1200
0000
0000
0000
0300
0000
0000
0000
0000
0000
0000
0000
0000
0000
0000
0000
002M
0030
0000
0000
0000
0000
0000
0000
0000
0000
0000
0000
0000
0000
0000
0000
00M0
0000
0000
0000
0000
0000
0000
0000
2000
3000
0000
0000
0000
0000
0000
0000
,
0M00
0000
0000
0000
0000
0000
0000
0000
0000
0000
0000
0000
0000
0000
0000
0000
M000
0000
0000
0000
0000
0000
0000
0000
0000
0000
0000
0000
0000
0000
0000
0000
0M02
0003
0000
0000
0000
0000
0000
0000
0000
0000
0000
0000
0000
0000
0000
0000
00M0
0000
0000
0000
0000
0000
0000
0000
0200
0300
0000
0000
0000
0000
0000
0000
,
000M
0000
0000
0000
0000
0000
0000
0000
0000
0000
0000
0000
0000
0000
0000
0000
00M0
0000
0000
0000
0000
0000
0000
0000
0000
0000
0000
0000
0000
0000
0000
0000
0M20
0030
0000
0000
0000
0000
0000
0000
0000
0000
0000
0000
0000
0000
0000
0000
M000
0000
0000
0000
0000
0000
0000
0000
0002
0003
0000
0000
0000
0000
0000
0000
,
0M00
0000
0000
0000
1001
0100
0010
0001
1100
0001
0010
0100
1001
0100
0010
0001
,
1100
0011
1100
0011
1200
0300
0010
0000
1002
0003
0100
0000
0011
0000
2000
3000
,
0110
0000
0001
0000
1100
0000
0010
0000
1002
0003
0110
0000
1000
0000
0021
0030
,
1100
0000
0101
0000
1110
0000
0001
0000
0210
0300
1000
0000
0101
0000
0020
0030
,
1100
0000
0010
0000
1001
0000
0100
0000
0012
0003
0110
0000
2000
3000
0110
0000
,
0012
1103
0011
1100
0021
0030
0100
0000
2001
3000
0010
0000
1100
0000
0002
0003
,
0110
0000
1000
0000
0111
0000
1000
0000
0210
0300
0011
0000
1110
0000
1020
0030
,
0101
0110
1001
1001
1001
1001
1001
1001
,
1001
1001
MMMM
0000
0000
0000
0000
0000
,
0100
0000
0100
0010
1101
0000
0010
0000
1000
0000
0010
0000
1001
0000
0010
0000
,
1000
0010
1001
0010
1000
0010
1100
1100
,
1100
0000
1100
0010
1100
0000
0010
0000
1000
0000
0010
0000
1001
0000
0010
0000
,
1000
0000
0010
0000
1001
0000
0010
0000
1000
0000
0010
0000
1001
0000
1100
0011
,
1100
0011
1100
0011
1100
0000
0001
0000
1000
0000
0001
0000
0110
0000
0001
0000
,
1000
0001
0110
0001
1000
0001
0110
0110
,
0110
0000
0110
0001
0110
0000
1000
0000
0010
0000
1000
0000
0011
0000
1000
0000
,
0010
0000
0000
0000
1000
0000
0000
0000
0011
0000
0200
0300
0000
0000
0100
0000
0000
0000
0100
0000
0000
0000
0100
0010
1001
0000
0000
0000
0200
0000
0300
0000
,
0000
0000
1001
0000
0200
0300
0000
0000
1001
0000
0200
0300
0012
0003
0000
0210
,
0300
0000
0000
0000
1001
0000
0200
0300
0000
0000
1001
0000
0200
0300
0000
0000
,
1001
0000
0200
0300
1001
1001
0000
0210
0300
0000
0000
0000
1001
0000
0000
0000
,
0000
0000
0000
0000
0210
0000
0300
0000
0000
0000
0000
0000
0000
0000
0000
0000
1001
0000
0000
0000
0000
0000
0000
0000
0120
0030
0120
0030
0000
0000
0000
0000
,
0000
0000
1001
0010
1001
0010
1001
1001
,
1001
1001
1001
1001
1001
0000
0010
0000
1001
0000
0010
0000
1001
0000
0010
0000
,
1001
0000
0010
0000
1101
0000
0010
0000
1100
0000
0010
0000
1100
0001
1100
0001
,
1100
0000
0011
1000
0111
0000
1000
0000
0110
0000
1101
0000
0110
0000
1101
0000
,
0011
0000
1000
0000
0111
0000
1000
0000
0001
1000
0110
0001
1100
0010
1001
0000
,
0011
1000
0110
0001
1110
0000
0001
0000
1100
0000
0001
0000
1100
0000
0001
0000
,
1100
0000
0001
0000
1110
0000
0001
0000
0101
0000
1110
0000
0001
0010
1101
0010
,
1001
0000
0010
0001
1110
0000
0001
0000
1110
0000
0001
0000
0111
0000
1000
0111
,
0000
0000
0111
0000
0111
0000
1000
0000
0011
0100
1010
0000
0110
0001
0000
0000
,
1100
0001
1100
0010
1101
0000
0010
0000
1001
0000
0100
0000
0011
0000
1000
0100
,
0011
1000
0001
1000
0110
0000
0001
0010
1100
0000
0010
0000
1001
0100
0010
0000
,
1001
0100
1001
0100
1011
0000
0100
0000
0011
0000
1000
0000
0110
0000
0001
0010
,
1100
0001
0010
0100
1001
0000
1001
0000
1001
0000
1001
0110
1001
0000
0002
0113
,
1101
0010
0000
0010
0000
0010
0000
1001
,
0000
1001
0000
0010
0000
0010
1001
0010
,
1101
0010
0000
0010
0000
0010
0000
1001
,
0100
0100
0100
0100
,
1001
0000
0010
0000
0201
0300
1000
0000
0110
0000
0002
0003
0110
0000
1000
0000
,
0011
0000
0100
0000
2010
3000
0011
0000
0100
0000
1020
0030
0101
0000
0110
0000
,
1001
0000
0010
0000
1200
0300
0010
0000
0101
0000
2000
3000
0110
0000
0001
0000
,
1100
0000
0010
0000
2001
3000
0110
0000
0002
0003
1010
0000
2100
3011
1100
0011
,
1100
0000
0010
0000
0201
0300
1000
0000
0110
0000
0002
0003
1100
0000
0010
0000
,
1001
0000
0100
0000
0021
0030
1100
0000
0010
0000
0102
0003
0110
0000
1001
0000
,
0011
0000
0100
0000
2010
3000
0001
0000
1100
0000
0002
0003
1010
0000
0100
0000
,
0020
1031
0000
1001
1001
0000
1001
0000
,
0012
0003
0001
0000
0000
0000
2000
3000
0110
0000
0000
0000
0000
0000
0000
0000
1100
0000
0010
0000
0001
0000
0000
0000
1100
0000
0010
0000
0001
0000
0000
0000
,
1100
0000
0010
0000
0001
0000
0000
0000
1100
0000
0010
0000
0001
0000
0000
0000
0210
0300
0100
0000
0011
0000
2000
3000
2000
3000
0110
0000
0000
0000
0000
0000
,
1100
0010
0001
0000
1100
0010
1100
0010
0001
0000
0110
1000
0110
1000
0110
1000
,
0102
0003
0000
0000
0000
0000
0210
0300
0000
0000
0000
0000
1001
0000
0000
0000
0110
0000
1000
0000
0001
0000
0000
0000
0110
0000
1000
0000
0001
0000
0000
0000
,
0110
0000
1000
0000
0001
0000
0000
0000
0110
0000
1000
0000
0001
0000
0000
0000
1200
0300
0210
0300
0000
0000
0012
0003
0101
0000
0000
0000
1001
0000
0000
0000
,
1100
0010
0001
0000
1100
0010
1100
0010
0001
0000
1001
0100
0011
1100
0011
1100
,
M00M
M0M0
MM00
M0M0
M00M
0000
0000
0000
0000
0000
0000
0000
0000
0000
0000
0000
;
