#TITLE:Agnus Dei-ANOTHER7-;
#SUBTITLE:;
#ARTIST:;
#TITLETRANSLIT:;
#SUBTITLETRANSLIT:;
#ARTISTTRANSLIT:;
#CREDIT:;
#BANNER:;
#BACKGROUND:;
#LYRICSPATH:;
#CDTITLE:;
#MUSIC:Agnus Dei_mp3.wav;
#OFFSET:1.414;
#SAMPLESTART:34.301;
#SAMPLELENGTH:12.000;
#SELECTABLE:YES;
#BPMS:0.000=168.000,201.000=150.000,205.000=168.000,277.000=168.000,285.000=165.000,298.500=140.000;
#STOPS:;
#BGCHANGES:;
// cache tags:
#FIRSTBEAT:14.000;
#LASTBEAT:301.000;
#SONGFILENAME:Songs/newbie/Agnus Dei/Agnus Dei.sm;
#HASMUSIC:1;
#HASBANNER:0;
#MUSICLENGTH:111.698;
// end cache tags

//---------------iidx-single7 - agnus dei-another7-----------------
#NOTES:
     iidx-single7:
     agnus dei-another7-:
     Edit:
     12:
     1.000,1.000,1.000,0.000,0.645,630.000,409.000,0.000,0.000,259.000:  // measure 1
00000000
00000000
00000000
00000000
,  // measure 2
00000000
00000000
00000000
00000000
,  // measure 3
00000000
00000000
00000000
00000000
,  // measure 4
00000000
00000000
00000000
00000000
00000010
00000000
00000000
00000010
,  // measure 5
00000000
00000000
00000010
10000000
00000010
00000000
00000000
00000000
00000000
00000000
00000000
00000000
10000000
00000010
10000000
00000000
,  // measure 6
00000000
00000000
00000000
00000000
00000000
00000000
00000000
00000000
00000100
00000100
01000000
00000000
00000000
00000000
00000000
00000000
,  // measure 7
10010011
00000000
00000000
00000000
,  // measure 8
10000001
00000000
00000000
00000000
00000000
00000000
00000000
00000000
10000010
00000000
00000000
00000000
10001000
00001000
00100000
00000000
,  // measure 9
10010011
00000000
00000000
00000000
00000000
00000000
00000000
00000000
10000001
00000000
00100000
00001000
00100000
00001000
00100000
00001000
,  // measure 10
10000011
00000000
01000000
00010000
00000100
00000000
10100000
00000000
00000010
00001000
00100000
00000000
10000010
00001000
00010000
01000000
,  // measure 11
10000010
00000000
00100000
00000010
00100000
00000000
00000000
00000000
10000011
00000000
00100000
00001000
00100000
00001000
01000100
00000000
,  // measure 12
10010011
00000000
01000000
00010000
00000100
00000000
00000000
00000000
10101011
00000000
10000010
00001000
10100000
00000000
10101011
00000000
,  // measure 13
11000000
00010000
10000100
00000000
10101011
00000000
10100000
00001000
10000010
00000000
10101011
00000000
10000100
00010000
11000000
00000000
,  // measure 14
10101011
00000000
10000010
00001000
10000100
00010000
10001000
00100000
10001000
00000010
10001000
00000000
10010000
00000100
10010000
01000000
,  // measure 15
10101011
00000000
00100000
00001000
00100000
00001000
00100000
00001000
00100000
00001000
00100000
00001000
00100000
00001000
00100000
00001000
,  // measure 16
10000011
00000000
01010100
10100110
01010100
10100110
01010100
10100110
,  // measure 17
01010100
10100110
01010100
10100110
01010100
10100110
01010100
10100110
,  // measure 18
01010100
10100110
01010100
10101000
01010000
10101000
00001000
10010010
,  // measure 19
10101100
10101100
10110010
10101000
10000001
00000000
10100110
11001010
,  // measure 20
10100110
11001010
10100110
11001010
10100110
11001010
10100110
11001010
,  // measure 21
10100101
10000000
10100110
11001010
10100110
11001010
10100110
10000100
,  // measure 22
00000100
00000000
10000100
10000000
00000100
00000000
10000100
00000000
10100000
00001000
00100000
00001000
10000011
00000000
00010000
00000100
,  // measure 23
10000010
00101000
11010110
00101000
10010010
00101000
11010110
00101000
,  // measure 24
10000001
00000000
01000100
00000000
10100000
00001000
00010010
00000000
10100000
00001000
00100000
00001000
10000010
00010000
01000100
00100000
,  // measure 25
10000011
00000000
00100000
00001000
00100000
00001000
11010110
00001000
00100000
00001000
11010110
00001000
00100000
00001000
11010110
00001000
,  // measure 26
00100000
00001000
01000000
00000100
10010011
00000000
00000000
00000000
10001010
00000000
10111010
00000000
10001010
00000000
10111010
00000000
,  // measure 27
10000100
00010000
11000000
00000000
10100010
00001000
00100000
00001000
10100010
00001000
00100000
00001000
00100001
00000000
10101010
00000000
,  // measure 28
10010110
10101010
11010010
10101010
10010110
10101010
11010010
10101010
,  // measure 29
10010110
00000000
10101010
00000000
11010010
00000000
10101010
00000000
10100000
00001000
10100000
00001000
10010100
00001000
10100000
00001000
,  // measure 30
11010000
00001000
10100000
00001000
10010011
00000000
10010011
00000000
00101010
00000000
00010100
10000000
00101010
00000000
01010100
00000000
,  // measure 31
00101000
00000000
10010010
00000000
00101000
00000000
01010100
10000000
00101011
00000000
00010100
01000000
00101000
00000000
10010010
00000000
,  // measure 32
00100100
00000000
01001000
00000000
10010011
00000000
00000000
00000000
10010011
00000000
00000000
00000000
10100000
00001000
00100000
00001000
,  // measure 33
10000010
00001000
00010000
01000000
10100010
00001000
00000010
00001000
10100010
00000000
10010011
00000000
00000000
00000000
10001010
00010100
,  // measure 34
00101000
00010000
00101000
01010000
10100001
00000000
01110010
00000000
10001000
00000000
00110100
00000000
10001000
00000000
01110010
00000000
,  // measure 35
10001000
00000000
00110100
00000000
10001000
00000000
01110010
00000000
10100000
00100000
00001000
00100000
10000010
00001000
10010000
01000000
,  // measure 36
10010000
01000100
10010000
01000100
10010011
00000000
00000000
00000000
10010010
00000000
10101011
00000000
01000000
00010000
00001000
00000010
,  // measure 37
00100000
00001000
00100000
00001000
11000101
00000000
10101010
00000000
11011110
00000000
10101010
00000000
11100110
00000000
10101010
00000000
,  // measure 38
11011110
10101010
11100110
10101010
11011110
10101010
11100110
10101010
,  // measure 39
11011110
00000000
10101010
00000000
11100110
00000000
10101010
00000000
11010010
00000000
00000100
00000100
10001000
00100000
00000100
00010000
,  // measure 40
10100000
00001000
00100000
00001000
11000101
00000000
10101010
00000000
11011100
00000000
10101010
00000000
11001100
00000000
10101010
00000000
,  // measure 41
11010101
10101010
11001100
10101010
11011100
10101010
11000101
10101010
,  // measure 42
11011100
00000000
10101010
00000000
10000010
00001000
10010000
01000000
10100000
00001000
00100000
00001000
10000010
00001000
00010000
01000000
,  // measure 43
10100000
00001000
00100000
00001000
10000011
00000000
00001000
00000000
10100100
00001000
00100100
00000000
11001000
00100000
01001000
00000000
,  // measure 44
10100100
00001000
00100110
00000000
11001000
00100000
01001000
00000000
10100100
00001000
00100100
00000000
11010111
00000000
00000000
00101010
,  // measure 45
10000000
00000000
01010111
00000000
10001000
00000000
00100000
00001000
10000010
00000000
00010000
00000000
10100000
00010010
00100100
00010010
,  // measure 46
10100000
00010000
10000101
00000010
10000010
00010000
10000010
00010000
,  // measure 47
10100000
00001000
00100000
00001000
10000100
00010000
01000000
00000000
10010011
00000000
00000000
00000000
10000100
00000000
00000000
00000100
,  // measure 48
10000010
00000000
01010100
00000000
00101000
00000000
00000000
10001000
00100010
00000000
01010100
00000000
00101000
00000000
10010000
00000010
,  // measure 49
01010000
00000100
00100000
00001000
10010011
00000000
00000000
00000000
10010000
00101010
01000000
00000100
10010011
00000000
00000000
00000000
,  // measure 50
01010000
00000100
00100000
00001000
00000010
00000000
00000000
00000000
10010011
00000000
00000000
00000000
00100000
00001000
00100000
00001000
,  // measure 51
00100000
00001000
00100000
10010011
00000000
00000000
00000000
00000000
00000000
00000000
00000000
00000000
,  // measure 52
00000000
00000000
10000001
10001000
11111000
10001000
11111000
10001000
,  // measure 53
00101011
00011000
10101010
00001100
00101011
00011000
11111000
10001000
,  // measure 54
11111000
10001000
11111000
10001000
00101110
00001100
00111010
00011000
,  // measure 55
00101110
00111000
11111101
10001000
11111100
10001000
11111110
10001010
,  // measure 56
10101001
00011000
10101010
00001100
00101011
00011000
11111100
10001100
,  // measure 57
11111100
00000000
10001100
00000000
11111000
00100000
10001010
00000000
11111001
00000000
00000000
00000000
10010011
00000000
00000000
00000000
,  // measure 58
10000010
00001000
00010000
01000000
11111000
00000000
10001000
00000000
11111001
00000000
10001000
00000000
11111000
00000000
10001000
00000000
,  // measure 59
00101011
00011010
00101011
00011010
00101011
00001110
11111000
10001000
,  // measure 60
11111000
10001000
11111000
10001000
00101110
00001100
00111010
00011000
,  // measure 61
00101110
00011000
10101001
00000000
01010100
00000000
10101001
00000000
,  // measure 62
11111000
10001000
11111000
10001000
11111000
10001000
01101010
01001010
,  // measure 63
00101110
00000000
00001110
00000000
00101110
00000000
00011010
00000000
00101010
00100000
00000100
00000000
01001010
00010000
01000100
00010000
,  // measure 64
10100000
00001000
00100000
00001000
10101000
00000000
00001110
00000000
01110001
00000000
00010100
00000000
10101000
00000000
00001110
00000000
,  // measure 65
01110001
00010100
10101000
00001110
01110001
00010100
11111000
10001000
,  // measure 66
11111000
10001000
11111000
10001000
00101110
00001110
00111010
00011010
,  // measure 67
00101110
00011010
10101000
00001110
01110001
00010100
10101000
00001110
,  // measure 68
01110001
00010100
10101000
00001110
01110001
00010100
10101000
10001000
,  // measure 69
01011010
00000000
00011010
00000000
01110100
00000000
00110100
00000000
11010000
00001000
10100010
00010100
10101010
01010100
10101000
01010100
,  // measure 70
10101000
00010010
10101100
01010010
10101001
00000000
00000000
00000000
00000000
00000000
00000000
00000000
00000000
00000000
00000000
00000000
,  // measure 71
00000000
00000000
00000000
00000000
,  // measure 72
00000000
00000000
00000000
00000000
10000001
00000000
00000000
00000000
10000000
00000010
10000000
00000010
00000000
00000000
00000100
00000000
,  // measure 73
00000000
00000000
00000000
00000000
00000100
00000000
00000000
00000000
00000000
00000100
00000000
00000000
10000001
00000000
00000000
00000000
,  // measure 74
00100000
00001000
00100000
00001000
01000000
00000000
00000000
01000000
00000000
00000000
01000000
00000000
10000000
00000010
10000000
00001000
,  // measure 75
00000000
00000000
00000000
00000000
00000000
00000000
00000000
00000000
00000010
00000010
10000000
00000000
00000000
00000000
00000000
00000000
,  // measure 76
00000000
10010011
00000000
00000000
;

//---------------iidx-single7 - agnus dei-hyper7u-----------------
#NOTES:
     iidx-single7:
     agnus dei-hyper7u-:
     Hard:
     11:
     1.000,1.000,1.000,0.000,0.645,630.000,379.000,0.000,0.000,194.000:  // measure 1
00000000
00000000
00000000
00000000
,  // measure 2
00000000
00000000
00000000
00000000
,  // measure 3
00000000
00000000
00000000
00000000
,  // measure 4
00000000
00000000
00000000
00000000
00000010
00000000
00000000
00000010
,  // measure 5
00000000
00000000
00000010
10000000
00000010
00000000
00000000
00000000
00000000
00000000
00000000
00000000
10000000
00000010
10000000
00000000
,  // measure 6
00000000
00000000
00000000
00000000
00000000
00000000
00000000
00000000
00000100
00000100
01000000
00000000
00000000
00000000
00000000
00000000
,  // measure 7
10000011
00000000
00000000
00000000
,  // measure 8
10000001
00000000
00000000
00000000
00000000
00000000
00000000
00000000
10000010
00000000
00000000
00000000
10001000
00001000
00100000
00000000
,  // measure 9
10000011
00000000
00000000
00000000
00000000
00000000
00000000
00000000
10000001
00000000
00100000
00001000
00100000
00001000
00100000
00001000
,  // measure 10
10000001
00000000
01000000
00010000
00000100
00000000
10100000
00000000
00000010
00001000
00100000
00000000
10000010
00001000
00010000
01000000
,  // measure 11
10000010
00000000
00100000
00000010
00100000
00000000
00000000
00000000
10000011
00000000
00100000
00001000
00100000
00001000
01000100
00000000
,  // measure 12
10000011
00000000
01000000
00010000
00000100
00000000
00000000
00000000
10000001
00000000
10000010
00001000
10100000
00000000
10000001
00000000
,  // measure 13
11000000
00010000
10000100
00000000
10000001
00000000
10100000
00001000
10000010
00000000
10000001
00000000
10000100
00010000
11000000
00000000
,  // measure 14
10000001
00000000
10000010
00001000
10000100
00010000
10001000
00100000
10001000
00000010
10001000
00000000
10010000
00000100
10010000
01000000
,  // measure 15
10000001
00000000
00100000
00001000
00100000
00001000
00100000
00001000
00100000
00001000
00100000
00001000
00100000
00001000
00100000
00001000
,  // measure 16
10000001
00000000
01010100
10000100
01010100
10000100
01010100
10000100
,  // measure 17
01010100
10000100
01010100
10000100
01010100
10000100
01010100
10000100
,  // measure 18
01010100
10000100
01010100
10001000
01000000
10001000
00001000
10000010
,  // measure 19
10101000
10101000
10100010
10101000
10000001
00000000
00100010
10001010
,  // measure 20
00100010
10001010
00100010
10001010
00100010
10001010
00100010
10001010
,  // measure 21
00100001
10000000
00100010
10001010
00100010
10001010
10100010
10000100
,  // measure 22
00000100
00000000
10000100
10000000
00000100
00000000
10000100
00000000
10100000
00001000
00100000
00001000
10000011
00000000
00010000
00000100
,  // measure 23
10000010
00101000
11000110
00101000
10010010
00101000
11000110
00101000
,  // measure 24
10000001
00000000
00000100
00000000
10100000
00001000
00000010
00000000
10100000
00001000
00100000
00001000
10000010
00010000
00000100
00100000
,  // measure 25
10000011
00000000
00100000
00001000
00100000
00001000
10000010
00001000
00100000
00001000
10000010
00001000
00100000
00001000
10000010
00001000
,  // measure 26
00100000
00001000
01000000
00000100
10000011
00000000
00000000
00000000
10001010
00000000
10101010
00000000
10001010
00000000
10101010
00000000
,  // measure 27
10000100
00010000
11000000
00000000
10100010
00001000
00100000
00001000
10100010
00001000
00100000
00001000
00100001
00000000
10101010
00000000
,  // measure 28
10000110
10101010
11000010
10101010
10000110
10101010
11000010
10101010
,  // measure 29
10000110
00000000
10101010
00000000
11000010
00000000
10101010
00000000
10100000
00001000
10100000
00001000
10000100
00001000
10100000
00001000
,  // measure 30
11000000
00001000
10100000
00001000
10000011
00000000
10000011
00000000
00101010
00000000
00010100
10000000
00101010
00000000
01010100
00000000
,  // measure 31
00101000
00000000
10010010
00000000
00101000
00000000
01010100
10000000
00101011
00000000
00010100
01000000
00101000
00000000
10010010
00000000
,  // measure 32
00100100
00000000
01001000
00000000
10000011
00000000
00000000
00000000
10000011
00000000
00000000
00000000
10100000
00001000
00100000
00001000
,  // measure 33
10000010
00001000
00010000
01000000
10100010
00001000
00000010
00001000
10100010
00000000
10000011
00000000
00000000
00000000
10000010
00000100
,  // measure 34
00001000
00010000
00100000
01000000
10000001
00000000
01100010
00000000
10001000
00000000
00100100
00000000
10001000
00000000
01100010
00000000
,  // measure 35
10001000
00000000
00100100
00000000
10001000
00000000
01100010
00000000
10100000
00100000
00001000
00100000
10000010
00001000
10010000
01000000
,  // measure 36
10010000
00000100
10010000
00000100
10000011
00000000
00000000
00000000
10010010
00000000
10000011
00000000
01000000
00010000
00001000
00000010
,  // measure 37
00100000
00001000
00100000
00001000
11000101
00000000
10101010
00000000
11010010
00000000
10101010
00000000
11000110
00000000
10101010
00000000
,  // measure 38
11010010
10101010
11000110
10101010
11010010
10101010
11000110
10101010
,  // measure 39
11010010
00000000
10101010
00000000
11000110
00000000
10101010
00000000
11010010
00000000
00000100
00000100
10001000
00100000
00000100
00010000
,  // measure 40
10100000
00001000
00100000
00001000
11000101
00000000
10101010
00000000
10001000
00000000
10101010
00000000
10001000
00000000
10101010
00000000
,  // measure 41
11000101
10101010
10001000
10101010
10001000
10101010
11000101
10101010
,  // measure 42
10001000
00000000
10101010
00000000
10000010
00001000
10010000
01000000
10100000
00001000
00100000
00001000
10000010
00001000
00010000
01000000
,  // measure 43
10100000
00001000
00100000
00001000
10000011
00000000
00001000
00000000
10100000
00001000
00100000
00000000
10001000
00100000
00001000
00000000
,  // measure 44
10100000
00001000
00100010
00000000
10001000
00100000
00001000
00000000
10100000
00001000
00100000
00000000
10010011
00000000
00000000
00101010
,  // measure 45
10000000
00000000
01010011
00000000
10001000
00000000
00100000
00001000
10000010
00000000
00010000
00000000
10100000
00000010
00100000
00000010
,  // measure 46
10100000
00010000
10000001
00000010
10000010
00010000
10000010
00010000
,  // measure 47
10100000
00001000
00100000
00001000
10000100
00010000
01000000
00000000
10000011
00000000
00000000
00000000
10000100
00000000
00000000
00000100
,  // measure 48
10000010
00000000
01010100
00000000
00101000
00000000
00000000
10001000
00100010
00000000
01010100
00000000
00101000
00000000
10010000
00000010
,  // measure 49
01010000
00000100
00100000
00001000
10010011
00000000
00000000
00000000
10010000
00101010
01000000
00000100
10010011
00000000
00000000
00000000
,  // measure 50
01010000
00000100
00100000
00001000
00000010
00000000
00000000
00000000
10000011
00000000
00000000
00000000
00100000
00001000
00100000
00001000
,  // measure 51
00100000
00001000
00100000
10000011
00000000
00000000
00000000
00000000
00000000
00000000
00000000
00000000
,  // measure 52
00000000
00000000
10000001
10001000
10101000
10001000
10101000
10001000
,  // measure 53
00101011
00010000
10101010
00000100
00101011
00010000
10101000
10001000
,  // measure 54
10101000
10001000
10101000
10001000
00101110
00000100
00111010
00010000
,  // measure 55
00101110
00110000
10101001
10001000
10101000
10001000
10101010
10001010
,  // measure 56
10101001
00010000
10101010
00000100
00101011
00010000
10101100
10001100
,  // measure 57
10101100
00000000
10001100
00000000
10101000
00100000
10001010
00000000
10101001
00000000
00000000
00000000
10000011
00000000
00000000
00000000
,  // measure 58
10000010
00001000
00010000
01000000
10101000
00000000
10001000
00000000
10101001
00000000
10001000
00000000
10101000
00000000
10001000
00000000
,  // measure 59
00101011
00010010
00101011
00010010
00101011
00000110
10101000
10001000
,  // measure 60
10101000
10001000
10101000
10001000
00101110
00000100
00111010
00010000
,  // measure 61
00101110
00010000
10100001
00000000
01010100
00000000
10100001
00000000
,  // measure 62
10101000
10001000
10101000
10001000
10101000
10001000
01101010
01000010
,  // measure 63
00101110
00000000
00000110
00000000
00101110
00000000
00010010
00000000
00101010
00100000
00000100
00000000
01001010
00010000
00000100
00010000
,  // measure 64
10100000
00001000
00100000
00001000
01011000
00000000
00001010
00000000
01001001
00000000
00001100
00000000
10101000
00000000
00011010
00000000
,  // measure 65
01001001
00001100
10101000
00011010
01001001
00001100
10101000
10001000
,  // measure 66
10101000
10001000
10101000
10001000
00101110
00001100
00111010
00011000
,  // measure 67
00101110
00011000
10101000
00011010
01001001
00001100
10101000
00011010
,  // measure 68
01001001
00001100
10101000
00011010
01001001
00001100
10101000
10001000
,  // measure 69
01001010
00000000
00001010
00000000
01001100
00000000
00001100
00000000
11000000
00001000
10100000
00000100
10001010
00010100
10101000
01010000
,  // measure 70
10101000
00010010
10100100
01010010
10101001
00000000
00000000
00000000
00000000
00000000
00000000
00000000
00000000
00000000
00000000
00000000
,  // measure 71
00000000
00000000
00000000
00000000
,  // measure 72
00000000
00000000
00000000
00000000
10000001
00000000
00000000
00000000
10000000
00000010
10000000
00000010
00000000
00000000
00000100
00000000
,  // measure 73
00000000
00000000
00000000
00000000
00000100
00000000
00000000
00000000
00000000
00000100
00000000
00000000
10000001
00000000
00000000
00000000
,  // measure 74
00100000
00001000
00100000
00001000
01000000
00000000
00000000
01000000
00000000
00000000
01000000
00000000
10000000
00000010
10000000
00001000
,  // measure 75
00000000
00000000
00000000
00000000
00000000
00000000
00000000
00000000
00000010
00000010
10000000
00000000
00000000
00000000
00000000
00000000
,  // measure 76
00000000
10000011
00000000
00000000
;

//---------------iidx-single7 - agnus dei-hyper7-----------------
#NOTES:
     iidx-single7:
     agnus dei-hyper7-:
     Challenge:
     11:
     1.000,1.000,1.000,0.000,0.645,630.000,379.000,0.000,0.000,189.000:  // measure 1
00000000
00000000
00000000
00000000
,  // measure 2
00000000
00000000
00000000
00000000
,  // measure 3
00000000
00000000
00000000
00000000
,  // measure 4
00000000
00000000
00000000
00000000
00000010
00000000
00000000
00000010
,  // measure 5
00000000
00000000
00000010
10000000
00000010
00000000
00000000
00000000
00000000
00000000
00000000
00000000
10000000
00000010
10000000
00000000
,  // measure 6
00000000
00000000
00000000
00000000
00000000
00000000
00000000
00000000
00000100
00000100
01000000
00000000
00000000
00000000
00000000
00000000
,  // measure 7
10000011
00000000
00000000
00000000
,  // measure 8
10000001
00000000
00000000
00000000
00000000
00000000
00000000
00000000
10000010
00000000
00000000
00000000
10001000
00001000
00100000
00000000
,  // measure 9
10000011
00000000
00000000
00000000
00000000
00000000
00000000
00000000
10000001
00000000
00100000
00001000
00100000
00001000
00100000
00001000
,  // measure 10
10000001
00000000
01000000
00010000
00000100
00000000
10100000
00000000
00000010
00001000
00100000
00000000
10000010
00001000
00010000
01000000
,  // measure 11
10000010
00000000
00100000
00000010
00100000
00000000
00000000
00000000
10000011
00000000
00100000
00001000
00100000
00001000
01000100
00000000
,  // measure 12
10000011
00000000
01000000
00010000
00000100
00000000
00000000
00000000
10000001
00000000
10000010
00001000
10100000
00000000
10000001
00000000
,  // measure 13
11000000
00010000
10000100
00000000
10000001
00000000
10100000
00001000
10000010
00000000
10000001
00000000
10000100
00010000
11000000
00000000
,  // measure 14
10000001
00000000
10000010
00001000
10000100
00010000
10001000
00100000
10001000
00000010
10001000
00000000
10010000
00000100
10010000
01000000
,  // measure 15
10000001
00000000
00100000
00001000
00100000
00001000
00100000
00001000
00100000
00001000
00100000
00001000
00100000
00001000
00100000
00001000
,  // measure 16
10000001
00000000
01010100
10000100
01010100
10000100
01010100
10000100
,  // measure 17
01010100
10000100
01010100
10000100
01010100
10000100
01010100
10000100
,  // measure 18
01010100
10000100
01010100
10001000
01000000
10001000
00001000
10000010
,  // measure 19
10101000
10101000
10100010
10101000
10000001
00000000
00100010
10001010
,  // measure 20
00100010
10001010
00100010
10001010
00100010
10001010
00100010
10001010
,  // measure 21
00100001
10000000
00100010
10001010
00100010
10001010
10100010
10000100
,  // measure 22
00000100
00000000
10000100
10000000
00000100
00000000
10000100
00000000
10100000
00001000
00100000
00001000
10000011
00000000
00010000
00000100
,  // measure 23
10000010
00101000
11000110
00101000
10010010
00101000
11000110
00101000
,  // measure 24
10000001
00000000
00000100
00000000
10100000
00001000
00000010
00000000
10100000
00001000
00100000
00001000
10000010
00010000
00000100
00100000
,  // measure 25
10000011
00000000
00100000
00001000
00100000
00001000
10000010
00001000
00100000
00001000
10000010
00001000
00100000
00001000
10000010
00001000
,  // measure 26
00100000
00001000
01000000
00000100
10000011
00000000
00000000
00000000
10001010
00000000
10101010
00000000
10001010
00000000
10101010
00000000
,  // measure 27
10000100
00010000
11000000
00000000
10100010
00001000
00100000
00001000
10100010
00001000
00100000
00001000
00100001
00000000
10101010
00000000
,  // measure 28
10000110
10101010
11000010
10101010
10000110
10101010
11000010
10101010
,  // measure 29
10000110
00000000
10101010
00000000
11000010
00000000
10101010
00000000
10100000
00001000
10100000
00001000
10000100
00001000
10100000
00001000
,  // measure 30
11000000
00001000
10100000
00001000
10000011
00000000
10000011
00000000
00101010
00000000
00010100
10000000
00101010
00000000
01010100
00000000
,  // measure 31
00101000
00000000
10010010
00000000
00101000
00000000
01010100
10000000
00101011
00000000
00010100
01000000
00101000
00000000
10010010
00000000
,  // measure 32
00100100
00000000
01001000
00000000
10000011
00000000
00000000
00000000
10000011
00000000
00000000
00000000
10100000
00001000
00100000
00001000
,  // measure 33
10000010
00001000
00010000
01000000
10100010
00001000
00000010
00001000
10100010
00000000
10000011
00000000
00000000
00000000
10000010
00000100
,  // measure 34
00001000
00010000
00100000
01000000
10000001
00000000
01100010
00000000
10001000
00000000
00100100
00000000
10001000
00000000
01100010
00000000
,  // measure 35
10001000
00000000
00100100
00000000
10001000
00000000
01100010
00000000
10100000
00100000
00001000
00100000
10000010
00001000
10010000
01000000
,  // measure 36
10010000
00000100
10010000
00000100
10000011
00000000
00000000
00000000
10010010
00000000
10000011
00000000
01000000
00010000
00001000
00000010
,  // measure 37
00100000
00001000
00100000
00001000
11000101
00000000
10101010
00000000
11010010
00000000
10101010
00000000
11000110
00000000
10101010
00000000
,  // measure 38
11010010
10101010
11000110
10101010
11010010
10101010
11000110
10101010
,  // measure 39
11010010
00000000
10101010
00000000
11000110
00000000
10101010
00000000
11010010
00000000
00000100
00000100
10001000
00100000
00000100
00010000
,  // measure 40
10100000
00001000
00100000
00001000
11000101
00000000
10101010
00000000
10001000
00000000
10101010
00000000
10001000
00000000
10101010
00000000
,  // measure 41
11000101
10101010
10001000
10101010
10001000
10101010
11000101
10101010
,  // measure 42
10001000
00000000
10101010
00000000
10000010
00001000
10010000
01000000
10100000
00001000
00100000
00001000
10000010
00001000
00010000
01000000
,  // measure 43
10100000
00001000
00100000
00001000
10000011
00000000
00001000
00000000
10100000
00001000
00100000
00000000
10001000
00100000
00001000
00000000
,  // measure 44
10100000
00001000
00100010
00000000
10001000
00100000
00001000
00000000
10100000
00001000
00100000
00000000
10010011
00000000
00000000
00101010
,  // measure 45
10000000
00000000
01010011
00000000
10001000
00000000
00100000
00001000
10000010
00000000
00010000
00000000
10100000
00000010
00100000
00000010
,  // measure 46
10100000
00010000
10000001
00000010
10000010
00010000
10000010
00010000
,  // measure 47
10100000
00001000
00100000
00001000
10000100
00010000
01000000
00000000
10000011
00000000
00000000
00000000
10000100
00000000
00000000
00000100
,  // measure 48
10000010
00000000
01010100
00000000
00101000
00000000
00000000
10001000
00100010
00000000
01010100
00000000
00101000
00000000
10010000
00000010
,  // measure 49
01010000
00000100
00100000
00001000
10010011
00000000
00000000
00000000
10010000
00101010
01000000
00000100
10010011
00000000
00000000
00000000
,  // measure 50
01010000
00000100
00100000
00001000
00000010
00000000
00000000
00000000
10000011
00000000
00000000
00000000
00100000
00001000
00100000
00001000
,  // measure 51
00100000
00001000
00100000
10000011
00000000
00000000
00000000
00000000
00000000
00000000
00000000
00000000
,  // measure 52
00000000
00000000
10000001
10001000
10101000
10001000
10101000
10001000
,  // measure 53
00101011
00010000
10101010
00000100
00101011
00010000
10101000
10001000
,  // measure 54
10101000
10001000
10101000
10001000
00101110
00000100
00111010
00010000
,  // measure 55
00101110
00110000
10101001
10001000
10101000
10001000
10101010
10001010
,  // measure 56
10101001
00010000
10101010
00000100
00101011
00010000
10101100
10001100
,  // measure 57
10101100
00000000
10001100
00000000
10101000
00100000
10001010
00000000
10101001
00000000
00000000
00000000
10000011
00000000
00000000
00000000
,  // measure 58
10000010
00001000
00010000
01000000
10101000
00000000
10001000
00000000
10101001
00000000
10001000
00000000
10101000
00000000
10001000
00000000
,  // measure 59
00101011
00010010
00101011
00010010
00101011
00000110
10101000
10001000
,  // measure 60
10101000
10001000
10101000
10001000
00101110
00000100
00111010
00010000
,  // measure 61
00101110
00010000
10100001
00000000
01010100
00000000
10100001
00000000
,  // measure 62
10101000
10001000
10101000
10001000
10101000
10001000
01101010
01000010
,  // measure 63
00101110
00000000
00000110
00000000
00101110
00000000
00010010
00000000
00101010
00100000
00000100
00000000
01001010
00010000
00000100
00010000
,  // measure 64
10100000
00001000
00100000
00001000
10101000
00000000
00001010
00000000
01010001
00000000
00010100
00000000
10101000
00000000
00001010
00000000
,  // measure 65
01010001
00010100
10101000
00001010
01010001
00010100
10101000
10001000
,  // measure 66
10101000
10001000
10101000
10001000
00101110
00000110
00111010
00010010
,  // measure 67
00101110
00010010
10101000
00001010
01010001
00010100
10101000
00001010
,  // measure 68
01010001
00010100
10101000
00001010
01010001
00010100
10101000
10001000
,  // measure 69
01001010
00000000
00001010
00000000
01010100
00000000
00010100
00000000
11000000
00001000
10100000
00000100
10001010
00010100
10101000
01010000
,  // measure 70
10101000
00010010
10100100
01010010
10101001
00000000
00000000
00000000
00000000
00000000
00000000
00000000
00000000
00000000
00000000
00000000
,  // measure 71
00000000
00000000
00000000
00000000
,  // measure 72
00000000
00000000
00000000
00000000
10000001
00000000
00000000
00000000
10000000
00000010
10000000
00000010
00000000
00000000
00000100
00000000
,  // measure 73
00000000
00000000
00000000
00000000
00000100
00000000
00000000
00000000
00000000
00000100
00000000
00000000
10000001
00000000
00000000
00000000
,  // measure 74
00100000
00001000
00100000
00001000
01000000
00000000
00000000
01000000
00000000
00000000
01000000
00000000
10000000
00000010
10000000
00001000
,  // measure 75
00000000
00000000
00000000
00000000
00000000
00000000
00000000
00000000
00000010
00000010
10000000
00000000
00000000
00000000
00000000
00000000
,  // measure 76
00000000
10000011
00000000
00000000
;
