#TITLE:Destination of the Heart;
#SUBTITLE:;
#ARTIST:Renard;
#TITLETRANSLIT:;
#SUBTITLETRANSLIT:;
#ARTISTTRANSLIT:;
#CREDIT:;
#BANNER:../banner.png;
#BACKGROUND:../bg.png;
#LYRICSPATH:;
#CDTITLE:;
#MUSIC:Destination of the Heart.ogg;
#OFFSET:0.013;
#SAMPLESTART:62.400;
#SAMPLELENGTH:19.400;
#SELECTABLE:YES;
#BPMS:0.000=199.999;
#STOPS:;
#BGCHANGES:;
// cache tags:
#FIRSTBEAT:17.000;
#LASTBEAT:288.000;
#SONGFILENAME:Songs/Cirque du Lykan/Destination of the Heart - [Zaia]/Destination of the Heart.sm;
#HASMUSIC:1;
#HASBANNER:1;
#MUSICLENGTH:104.768;
// end cache tags

//---------------dance-single - Zaia - 14(low)----------------
#NOTES:
     dance-single:
     Zaia - 14(low):
     Challenge:
     14:
     0.971,1.000,0.143,0.095,1.000,683.000,15.000,10.000,0.000,4.000:
0000
0000
0000
0000
,
0000
0000
0000
0000
,
0000
0000
0000
0000
,
0000
0000
0000
0000
,
0000
0000
1000
0100
0010
0000
0001
0100
,
0010
0000
1000
0001
0010
0000
0001
1000
,
0100
0000
0010
0100
1000
0000
0010
0100
,
0001
0100
0001
1001
,
1100
0000
0100
0000
1000
0001
0100
0000
0010
0000
1000
0000
0001
0010
0100
0000
,
1000
0000
0001
0100
0001
0000
0010
0000
0001
0000
0100
0000
0100
0000
0010
0000
,
1000
0000
0001
1000
0010
0000
0100
0001
1000
0000
0100
0000
0010
0001
1000
0000
,
0101
0000
0001
0000
1001
0000
0001
0000
0011
0000
0001
0000
0010
0100
1000
0000
,
0001
0000
0100
0010
1000
0000
0100
0010
0001
0000
0010
0100
1000
0000
0001
0000
,
0100
0000
0010
1000
0001
0000
0001
0000
0010
0000
0100
1000
0010
0000
0100
0000
,
0010
0000
1000
0000
0100
0000
1000
0001
0010
0000
0001
0000
0100
0000
0010
0000
,
0110
0000
0100
0000
0001
0000
0110
0000
0010
0000
1000
0000
0001
0010
0001
0000
,
1001
0000
1000
0000
0100
0010
0001
0000
0100
0000
0010
0000
1000
0010
0100
0000
,
0001
0000
0010
0100
1000
0010
0100
0000
0001
0000
1000
0000
1000
0000
0010
0000
,
0100
0000
0001
0100
0010
0000
1000
0100
0010
0000
0001
0000
0010
0001
1000
0000
,
1100
0000
1000
0000
1001
0000
1000
0000
1010
0000
1000
0000
0010
0100
0001
0000
,
0100
0010
1000
0001
0010
0100
1000
0001
1000
0000
0010
0100
0001
0000
1000
0000
,
0100
0000
0010
0100
1000
0000
0001
0000
0100
0000
0010
1000
0001
0000
0010
0000
,
0100
0000
1000
0000
0010
0000
0100
0001
0010
0000
0100
0000
1000
0001
1000
0010
,
0100
0000
0001
0000
1000
0000
1100
0000
0100
0000
0010
0000
0001
1000
0001
0000
,
2000
0000
0020
0000
,
0200
0000
0002
3333
,
1111
0000
0000
0000
,
0000
0000
0000
0000
,
0001
0100
0001
0010
0100
1000
0001
0100
,
0010
0000
1000
0000
0100
0000
0010
0000
0100
0000
1000
0000
0010
0100
0001
1000
,
0100
0000
0010
0000
0100
0000
1000
0000
0001
0000
0100
0010
1000
0000
0001
0000
,
0010
0000
0100
0000
0010
0000
0001
0000
1000
0000
0010
0000
0100
0001
0100
0000
,
0110
0010
1000
0100
0010
0100
1000
0010
,
0100
0000
0001
0000
0010
0000
0100
0000
1000
0000
0001
0000
0100
0010
0100
0001
,
1000
0000
0100
0000
0010
0000
0001
0000
0100
0000
0001
0010
0100
0000
1000
0000
,
0010
0000
0100
0000
0001
0000
1000
0000
0100
0000
0010
0000
0100
1000
0001
0000
,
0100
0000
0010
0000
0100
0001
1000
0000
0100
0000
0010
0000
0001
0000
1000
0000
,
0010
0000
1000
0000
0100
0010
0001
0000
1000
0000
0001
0000
0010
0000
0001
0000
,
0100
0010
1000
0100
0010
0100
1000
0010
,
0100
0000
0001
0000
1000
0000
0001
0000
0010
0000
0001
0000
1000
0001
0100
0000
,
0010
1000
0001
1000
0100
0010
0001
0000
1000
0000
0001
0000
0100
0000
0001
0000
,
0010
0100
1000
0001
0100
0010
1000
0000
0001
0000
0100
0000
0010
0100
0001
0000
,
1000
0100
1000
0001
0100
0010
0100
0001
,
1000
0000
0100
0000
1000
0000
0001
0000
0100
0000
0001
0000
1000
0010
0100
0000
,
0001
0000
0000
1000
0100
0000
0000
1000
0001
0000
0000
0100
0010
0000
1000
0000
,
0001
0000
0000
0010
0100
0000
0000
1000
0100
0000
0000
0010
0001
0000
1000
0000
,
0010
0000
1000
0000
0100
1000
0002
0000
0000
0000
0000
0000
0103
0000
0000
0000
,
0001
0000
0100
0000
0001
0000
1000
0000
0100
0000
1000
0000
0001
0100
0001
0000
,
1000
0010
1000
0100
1000
0001
2000
0000
3001
0010
0001
0100
0001
1000
0200
0000
,
0310
0001
0100
0010
1000
0001
2000
0000
3001
0010
0100
1000
0001
0100
0020
0000
,
0030
0000
0000
0000
,
0000
0000
0000
0000
,
1000
0010
1000
0001
1000
0010
0100
0001
1000
0100
0010
0001
1000
0010
0100
0001
,
1000
0100
1000
0010
0100
0001
1000
0100
0010
0001
1000
0010
0100
0001
1000
0100
,
0010
0100
1000
0010
0100
0001
1000
0100
1000
0001
0010
0001
1000
0010
0100
0001
,
1000
0010
1000
0001
0010
0100
1000
0010
0100
0010
1000
0100
0010
0001
0100
0010
,
1000
0100
0010
0001
0100
0001
1000
0010
0100
0001
1000
0001
0010
0100
1000
0001
,
1000
0010
0100
0001
1000
0100
0010
0001
1000
0100
1000
0001
1000
0010
0100
0001
,
0010
0100
1000
0001
0100
0001
1000
0001
1000
0100
0010
0001
1000
0001
0100
0010
,
1000
0100
0010
0100
1000
0001
0100
0010
0100
0001
1000
0100
1000
0001
0100
0010
,
1000
0001
0100
0001
1000
0100
0010
0001
1000
0010
0100
0001
1000
0100
0010
0001
,
1000
0010
1000
0100
0010
0001
1000
0010
0100
0001
1000
0100
0010
0001
1000
0010
,
0100
0010
1000
0100
0010
0001
1000
0010
1000
0001
0100
0001
1000
0100
0010
0001
,
1000
0100
1000
0001
0100
0010
1000
0100
0010
0100
1000
0010
0100
0001
0010
0100
,
1000
0010
0100
0001
0010
0001
1000
0100
0010
0001
1000
0001
0100
0010
1000
0001
,
1000
0100
0010
0001
1000
0010
0100
0001
1000
0010
1000
0001
1000
0100
0010
0001
,
0100
0010
1000
0001
0010
0001
1000
0001
1000
0010
0100
0001
1000
0001
0010
0100
,
1000
0010
0100
0010
1000
0001
0010
0100
0010
0001
1000
0100
1000
0001
0100
0001
,
1000
0100
0010
0001
0100
0001
0010
0100
1000
0001
0100
0010
1000
0001
1000
0100
,
1000
0001
0100
0010
1000
0100
1000
0010
0100
0001
1000
0010
1000
0100
0010
0001
,
2000
0000
0000
0000
,
0000
0000
0000
3000
,
1111
0000
0000
0000
;

//---------------dance-single - Zaia - 12(mid)----------------
#NOTES:
     dance-single:
     Zaia - 12(mid):
     Hard:
     12:
     0.859,1.000,0.220,0.095,0.630,593.000,23.000,10.000,0.000,4.000:
0000
0000
0000
0000
,
0000
0000
0000
0000
,
0000
0000
0000
0000
,
0000
0000
0000
0000
,
0000
0000
1000
0100
0010
0000
0001
0100
,
0010
0000
1000
0001
0010
0000
0001
1000
,
0100
0000
0010
0100
1000
0000
0010
0100
,
0001
0100
0001
1001
,
1100
0000
0100
0000
1000
0001
0100
0000
0010
0000
1000
0000
0001
0010
0100
0000
,
1000
0000
0001
0100
0001
0000
0010
0000
0001
0000
0100
0000
0100
0000
0010
0000
,
1000
0000
0001
1000
0010
0000
0100
0001
1000
0000
0100
0000
0010
0001
1000
0000
,
0101
0000
0001
0000
1001
0000
0001
0000
0011
0000
0001
0000
0010
0100
1000
0000
,
0001
0000
0100
0010
1000
0000
0100
0010
0001
0000
0010
0100
1000
0000
0001
0000
,
0100
0000
0010
1000
0001
0000
0001
0000
0010
0000
0100
1000
0010
0000
0100
0000
,
0010
0000
1000
0000
0100
0000
1000
0001
0010
0000
0001
0000
0100
0000
0010
0000
,
0110
0000
0100
0000
0001
0000
0110
0000
0010
0000
1000
0000
0001
0010
0001
0000
,
1001
0000
1000
0000
0100
0010
0001
0000
0100
0000
0010
0000
1000
0010
0100
0000
,
0001
0000
0010
0100
1000
0010
0100
0000
0001
0000
1000
0000
1000
0000
0010
0000
,
0100
0000
0001
0100
0010
0000
1000
0100
0010
0000
0001
0000
0010
0001
1000
0000
,
1100
0000
1000
0000
1001
0000
1000
0000
1010
0000
1000
0000
0010
0100
0001
0000
,
0100
0010
1000
0001
0010
0100
1000
0001
1000
0000
0010
0100
0001
0000
1000
0000
,
0100
0000
0010
0100
1000
0000
0001
0000
0100
0000
0010
1000
0001
0000
0010
0000
,
0100
0000
1000
0000
0010
0000
0100
0001
0010
0000
0100
0000
1000
0001
1000
0010
,
0100
0000
0001
0000
1000
0000
1100
0000
0100
0000
0010
0000
0001
1000
0001
0000
,
2000
0000
0020
0000
,
0200
0000
0002
3333
,
1111
0000
0000
0000
,
0000
0000
0000
0000
,
0001
0100
0001
0010
0100
1000
0001
0100
,
0010
0000
1000
0000
0100
0000
0010
0000
0100
0000
1000
0000
0010
0100
0001
1000
,
0100
0000
0010
0000
0100
0000
1000
0000
0001
0000
0100
0010
1000
0000
0001
0000
,
0010
0000
0100
0000
0010
0000
0001
0000
1000
0000
0010
0000
0100
0001
0100
0000
,
0110
0010
1000
0100
0010
0100
1000
0010
,
0100
0000
0001
0000
0010
0000
0100
0000
1000
0000
0001
0000
0100
0010
0100
0001
,
1000
0000
0100
0000
0010
0000
0001
0000
0100
0000
0001
0010
0100
0000
1000
0000
,
0010
0000
0100
0000
0001
0000
1000
0000
0100
0000
0010
0000
0100
1000
0001
0000
,
0100
0000
0010
0000
0100
0001
1000
0000
0100
0000
0010
0000
0001
0000
1000
0000
,
0010
0000
1000
0000
0100
0010
0001
0000
1000
0000
0001
0000
0010
0000
0001
0000
,
0100
0010
1000
0100
0010
0100
1000
0010
,
0100
0000
0001
0000
1000
0000
0001
0000
0010
0000
0001
0000
1000
0001
0100
0000
,
0010
1000
0001
1000
0100
0010
0001
0000
1000
0000
0001
0000
0100
0000
0001
0000
,
0010
0100
1000
0001
0100
0010
1000
0000
0001
0000
0100
0000
0010
0100
0001
0000
,
1000
0100
1000
0001
0100
0010
0100
0001
,
1000
0000
0100
0000
1000
0000
0001
0000
0100
0000
0001
0000
1000
0010
0100
0000
,
0001
0000
0000
1000
0100
0000
0000
1000
0001
0000
0000
0100
0010
0000
1000
0000
,
0001
0000
0000
0010
0100
0000
0000
1000
0100
0000
0000
0010
0001
0000
1000
0000
,
0010
0000
1000
0000
0100
1000
0002
0000
0000
0000
0000
0000
0103
0000
0000
0000
,
0001
0000
0100
0000
0001
0000
1000
0000
0100
0000
1000
0000
0001
0100
0001
0000
,
1000
0010
1000
0100
1000
0001
2000
0000
3001
0010
0001
0100
0001
1000
0200
0000
,
0310
0001
0100
0010
1000
0001
2000
0000
3001
0010
0100
1000
0001
0100
0020
0000
,
0030
0000
0000
0000
,
0000
0000
0000
0000
,
1000
0000
0010
0000
0100
0001
1000
0000
0100
1000
0001
0000
0010
0001
1000
0000
,
0010
0000
0100
0000
0001
0010
0100
0000
1000
0010
0100
0000
0001
1000
0100
0000
,
1000
0001
0100
0010
1000
0001
1000
0100
,
0110
0000
1100
0000
1001
0000
0101
0100
,
0010
0000
1000
0000
0001
1000
0010
0000
0100
0001
1000
0000
0100
1000
0001
0000
,
0010
0000
0001
0000
1000
0010
0100
0000
0001
0010
0100
0000
1000
0001
0100
0000
,
0010
0000
1000
0000
0100
1000
0010
0000
0100
0001
0010
0000
0100
1000
0010
0000
,
0100
0000
0001
0000
0010
0000
0100
0000
1000
0000
0010
0000
0100
0001
1000
0000
,
0001
0000
0100
0000
0010
1000
0001
0000
0010
0001
1000
0000
0100
1000
0001
0000
,
0100
0000
0010
0000
1000
0100
0010
0000
0001
0100
0010
0000
1000
0001
0010
0000
,
0001
1000
0010
0100
0001
1000
0001
0010
,
0110
0000
0011
0000
1001
0000
1010
0010
,
0100
0000
0001
0000
1000
0001
0100
0000
0010
1000
0001
0000
0010
0001
1000
0000
,
0100
0000
1000
0000
0001
0100
0010
0000
1000
0100
0010
0000
0001
1000
0001
0000
,
1000
0010
1000
0001
0010
0001
1000
0001
1000
0010
0100
0001
1000
0001
0010
0100
,
1000
0010
0100
0010
1000
0001
0010
0100
0010
0001
1000
0100
1000
0001
0100
0001
,
1000
0100
0010
0001
0100
0001
0010
0100
1000
0001
0100
0010
1000
0001
1000
0100
,
1000
0001
0100
0010
1000
0100
1000
0010
0100
0001
1000
0010
1000
0100
0010
0001
,
2000
0000
0000
0000
,
0000
0000
0000
3000
,
1111
0000
0000
0000
;

//---------------dance-single - Zaia - 10(low-mid)----------------
#NOTES:
     dance-single:
     Zaia - 10(low-mid):
     Medium:
     10:
     0.747,0.962,0.038,0.439,0.177,498.000,4.000,46.000,0.000,0.000:
0000
0000
0000
0000
,
0000
0000
0000
0000
,
0000
0000
0000
0000
,
0000
0000
0000
0000
,
0000
0000
1000
0100
0010
0000
0001
0100
,
0010
0000
1000
0001
0010
0000
0001
1000
,
0100
0000
0010
0100
1000
0000
0010
0100
,
0001
0100
0001
1001
,
1100
0100
0010
0001
0100
0010
1000
0100
,
1000
0001
0100
0010
1000
0100
0010
0001
,
1000
0000
0001
0100
0001
0000
1000
0100
1000
0000
0010
0000
0100
0000
0001
0000
,
2000
0000
0000
0000
3200
0000
0000
0000
0320
0000
0000
0000
0130
1000
0001
0000
,
1000
0000
0001
0100
0001
0000
1000
0010
1000
0000
0001
0000
1000
0000
0001
0000
,
0100
0010
1000
0001
0100
0010
1000
0010
,
0100
0000
0001
0000
0010
0000
0001
1000
0100
0000
1000
0000
0001
0000
0100
0000
,
0020
0000
0230
0000
0302
0000
0023
0000
0230
0000
2300
0000
3001
0100
0001
0000
,
1000
0001
0010
0001
1000
0100
1000
0010
,
1000
0100
1000
0001
0100
0001
1000
0100
,
0010
0000
0001
0000
0100
0000
0001
0010
0001
0000
1000
0000
0100
1000
0001
0000
,
2000
0000
0000
0000
3020
0000
0000
0000
0230
0000
0000
0000
0310
1000
0001
0000
,
0100
0000
0001
0100
0001
0000
1000
0100
1000
0000
0010
0000
0100
0000
0001
0000
,
0010
0100
1000
0001
0100
0010
1000
0100
,
0010
0000
0001
0000
0100
0000
0010
1000
0001
0000
0010
0000
0001
0000
1000
0000
,
0020
2030
3200
0320
0032
0203
0320
2030
,
3200
0000
0320
0000
,
0032
0000
2003
3000
,
1001
0000
0000
0000
,
0000
0000
0000
0000
,
1000
0010
1000
0100
0010
0001
1000
0010
,
0100
0001
0010
0100
0010
0001
0200
0302
,
0013
0000
0100
0000
0010
0000
0001
0000
1000
0000
0010
0100
0001
0000
1000
0000
,
0100
0000
0010
0000
0100
0000
1000
0000
0001
0000
0100
0000
0010
1000
0010
0000
,
0100
0001
0010
0100
0010
0001
0100
0010
,
1000
0001
0010
0100
1000
0001
0200
0302
,
1003
0000
0100
0000
0010
0000
0001
0000
0100
0000
0001
0010
0100
0000
1000
0000
,
0010
0000
0100
0000
0001
0000
1000
0000
0100
0000
0010
0000
0100
1000
0001
0000
,
0100
0000
0010
0000
0100
0001
1000
0000
0100
0000
0010
0000
0001
0000
1000
0000
,
0010
0000
1000
0000
0100
0010
0001
0000
1000
0000
0001
0000
0010
0000
0001
0000
,
0100
0010
1000
0100
0010
0100
1000
0010
,
0100
0000
0001
0000
1000
0000
0001
0000
0010
0000
0001
0000
1000
0001
0100
0000
,
0020
2030
3200
0320
0031
1000
0100
1000
,
0020
0000
0230
0000
0302
0000
0023
0000
0031
0000
0100
0000
0010
0100
0001
0000
,
1000
0100
1000
0001
0100
0010
0100
0001
,
1000
0000
0100
0000
1000
0000
0001
0000
0100
0000
0001
0000
1000
0010
0100
0000
,
0001
0000
0000
1000
0100
0000
0000
1000
0001
0000
0000
0100
0010
0000
1000
0000
,
0001
0000
0000
0010
0100
0000
0000
1000
0100
0000
0000
0010
0001
0000
1000
0000
,
0010
0000
1000
0000
0100
1000
0002
0000
0000
0000
0000
0000
0103
0000
0000
0000
,
0001
0000
0100
0000
0001
0000
1000
0000
0100
0000
1000
0000
0001
0100
0001
0000
,
1000
0010
2000
0000
3002
0000
0013
0000
0001
0100
0002
0000
2003
0000
3001
0000
,
0010
0100
0020
0000
0032
0000
1003
0000
0010
0100
0020
0000
2030
0000
3100
0000
,
0000
0000
0000
0000
,
0000
0000
0000
0000
,
0001
1000
0010
0100
0001
1000
0100
0010
,
0100
1000
0010
0100
0001
0010
0001
0100
,
0010
1000
0010
0100
0001
0010
0100
0010
,
0001
0000
0001
0000
1000
0000
1000
0000
0010
0000
0010
0000
0100
0001
0010
0000
,
0001
1000
0100
1000
0001
0100
0001
1000
,
0100
0010
0001
1000
0010
0100
0010
1000
,
0001
0010
0001
1000
0010
0100
0010
1000
,
0001
0000
0010
0000
0100
0000
1000
0000
0010
0000
0100
0000
0010
1000
0001
0000
,
1000
0100
0010
0001
1000
0010
0100
0010
,
1000
0100
0010
0001
0100
0001
0010
0100
,
1000
0100
0010
0001
0100
0010
0100
0001
,
1000
0000
1000
0000
0001
0000
0001
0000
0010
0000
0010
0000
0100
1000
0010
0000
,
1000
0001
0100
0001
1000
0100
1000
0001
,
0100
0010
1000
0001
0010
0100
0010
0001
,
1000
0100
0010
0001
0100
0010
1000
0100
,
1000
0010
0100
0001
0010
0100
1000
0010
,
0100
0010
1000
0100
0010
0001
0100
0010
,
0100
0001
0010
0100
1000
0010
0100
0001
,
2000
0000
0000
0000
,
0000
0000
0000
3000
,
1001
0000
0000
0000
;
