#TITLE:Empty Glasses;
#SUBTITLE:;
#ARTIST:Scary Kids Scaring Kids;
#TITLETRANSLIT:;
#SUBTITLETRANSLIT:;
#ARTISTTRANSLIT:;
#CREDIT:;
#BANNER:BN.png;
#BACKGROUND:BG.jpg;
#LYRICSPATH:;
#CDTITLE:!cartoon.png;
#MUSIC:09 empty glasses.mp3;
#OFFSET:0.000;
#SAMPLESTART:83.600;
#SAMPLELENGTH:13.140;
#SELECTABLE:YES;
#BPMS:0.000=170.000;
#STOPS:;
#BGCHANGES:;
// cache tags:
#FIRSTBEAT:0.500;
#LASTBEAT:476.500;
#SONGFILENAME:Songs/Definitive Keyboard Megapack/Empty Glasses(Cartoon)/09 empty glasses.sm;
#HASMUSIC:1;
#HASBANNER:1;
#MUSICLENGTH:170.240;
// end cache tags

//---------------dance-single - ----------------
#NOTES:
     dance-single:
     :
     Easy:
     10:
     1.000,1.000,1.000,1.000,0.076,789.000,441.000,190.000,0.000,175.000:

0000
0000
0110
0000
1001
0000
0010
0000
0101
0000
1000
0000
0001
0010
0100
0000
,
1001
0110
1101
1100
0011
0011
0110
0110
,
1011
0011
1100
1100
0011
0011
1001
1001
,
1110
0110
1100
1100
0011
0011
0110
0110
,
1011
0011
1100
1100
0011
0011
1100
1100
,
0110
0110
1000
0100
0010
1002
0013
1000
,
1011
0100
1000
0100
0111
1000
0001
0010
,
1101
0001
0010
1000
0111
0001
0010
1000
,
1011
0100
0010
0001
1110
0010
0100
0010
,
0111
1000
0011
0110
1100
0112
1003
0100
,
1011
0100
0010
0001
1110
0100
1000
0001
,
1110
0010
1001
0110
0110
2001
3001
0100
,
1011
0001
0010
0100
1101
0100
1010
0101
,
0011
1000
0110
0011
0110
2100
3011
0100
,
1110
1000
0110
0001
1101
0010
1001
0100
,
1011
0001
0101
0100
1011
0001
0110
0010
,
1101
0010
0110
1000
0111
0010
0110
0010
,
1101
0010
0110
0011
0110
1002
0013
0100
,
1011
0001
0110
0100
1011
0001
0110
0010
,
1101
0010
0101
0110
1010
0120
1130
0010
,
0111
1000
0110
0001
1110
0010
0110
1100
,
0011
0100
1000
0100
0011
0000
0000
0000
1010
0000
0202
0000
0000
0000
0303
0000
,
0101
2020
0000
3030
0022
0033
0220
0330
,
0022
2233
3300
0021
1000
0001
0100
1000
,
0001
0100
0031
1000
0001
0100
1010
0110
,
1001
0000
0000
0000
1001
2200
0000
3300
,
1100
2002
0000
3003
2010
0000
3022
0000
,
1133
0120
0000
0030
0002
0000
0023
0000
,
0032
0000
0000
0000
0203
0000
0000
0000
0000
0000
0320
0000
0030
0000
1000
0010
,
0001
0100
1000
0010
0100
0000
0000
0000
0011
0000
2200
0000
0000
0000
3300
0000
,
1100
0022
0000
0033
2020
3030
0202
0303
,
2002
3223
0330
0120
1000
0001
0100
0001
,
1000
0100
0031
0010
0100
1000
0022
0000
,
0233
0000
0000
0300
2200
0001
0000
0000
,
0001
0011
3300
0000
0022
0033
0220
0330
,
0202
2303
0000
0000
0011
0000
0101
3000
,
1001
0000
0000
0000
0110
0000
0000
0000
0000
0000
1001
0000
0000
0001
0010
0100
,
1000
0001
0100
0010
1100
0000
0000
0000
1001
0000
0220
0000
0000
0000
0330
0000
,
0110
2002
0000
3003
0220
0330
2002
3003
,
0022
2133
3111
0011
1100
1100
0110
0110
,
1011
0011
1100
1100
1001
1001
0101
0101
,
1100
1100
0001
0010
0100
1002
0013
0100
,
1011
0010
0100
0010
1101
0010
0100
1000
,
0111
0100
0010
1000
1110
0100
0010
0001
,
1011
0010
0100
0001
1110
0100
0001
1000
,
0111
0100
1001
0110
1100
1020
0031
0100
,
1110
0010
0100
0010
1101
0010
0100
1000
,
0111
0100
0110
1001
0110
0201
1300
0001
,
1110
0010
0001
0100
1011
0001
1100
0110
,
0110
0011
1000
0001
1110
1000
0101
0010
,
0111
1000
1001
0100
1011
0001
0110
0100
,
1110
0001
1001
0100
1011
0001
0110
0010
,
1101
0001
0101
0010
1101
0010
0101
2000
,
0010
0001
3102
0010
0100
0010
0123
1000
,
0100
0001
2031
0100
0010
0001
3102
0010
,
0100
0000
0000
0000
0000
0000
0000
0000
0000
0000
0000
0000
0000
0000
0000
0000
0000
0000
0000
0000
0000
0000
0000
0000
1000
0000
0000
0000
0000
0000
0000
0000
0000
0000
0000
0000
0000
0000
0000
0000
0000
0000
0000
0000
0000
0000
0000
0000
0023
0000
0000
0000
0000
0000
0000
0000
0000
0000
0000
0000
0000
0000
0000
0000
0000
0000
0000
0000
0000
0000
0000
0000
0100
0000
0000
0000
0000
0000
0000
0000
0000
0000
0000
0000
0000
0000
0000
0000
0000
0000
0000
0000
0000
0000
0000
0030
0120
0000
0000
0000
0000
0000
0000
0000
0000
0000
0000
0000
0000
0000
0000
0000
0000
0000
0000
0000
0000
0000
0000
0000
0001
0000
0000
0000
0000
0000
0000
0000
0000
0000
0000
0000
0000
0000
0000
0000
0000
0000
0000
0000
0000
0000
0000
0000
0100
0000
0000
0000
0000
0000
0000
0000
0000
0000
0000
0000
0000
0000
0000
0000
0000
0000
0000
0000
0000
0000
0000
0000
0001
0000
0000
0000
0000
0000
0000
0000
0000
0000
0000
0000
0000
0000
0000
0000
0000
0000
0000
0000
0000
0000
0000
0000
,
0100
1000
0130
0010
0001
0100
0010
1000
,
0001
1100
1011
0011
0111
1001
1110
0011
,
1110
0011
1101
0000
1100
0011
0000
1100
,
0000
1100
0011
0000
1100
2200
0000
3300
,
1100
2022
0000
0003
3031
0000
1000
0000
,
0001
0100
0000
0020
1000
0100
0001
1000
,
0100
1000
0031
0100
0001
1000
0101
1001
,
1010
0000
0000
0000
0110
0202
0000
0303
,
0101
0220
0000
0000
0332
0000
2003
0000
,
3020
0230
0000
0000
0011
0000
1310
0000
,
0011
0000
0000
0000
1100
0000
0000
0000
0000
0000
0011
0000
0000
0000
0100
0010
,
0001
1000
0100
0010
0101
0000
0000
0000
1100
0000
0022
0000
0000
0000
0033
0000
,
0011
2200
0000
0000
3302
0000
2003
0000
,
3002
0203
0300
0020
0001
1000
0001
1000
,
0100
0001
0130
0001
0010
0100
2020
0000
,
3230
0000
0000
0000
0312
1100
0000
0000
,
1100
0010
0003
0000
2000
0000
3002
0000
,
0203
0320
0000
0000
1100
0000
1001
0000
,
0131
0000
0000
0000
0110
0000
0000
0000
0000
0000
0110
0000
0000
0000
0001
1000
,
0100
0010
0001
0010
1100
0000
0000
0000
1100
0000
0202
0000
0000
0000
0303
0000
,
0101
2200
0000
0000
3302
0000
0203
0000
,
0302
0023
1101
1101
1130
1100
0110
0110
,
1011
1011
0110
0110
0011
0011
1010
1010
,
0101
0101
1110
1110
1100
1100
1001
1001
,
0111
0111
1100
1100
0110
0011
0001
1100
,
0010
0100
0001
1000
0020
0101
1100
0230
,
2300
0011
0110
0011
3101
0110
0011
2000
,
3002
0110
0203
0320
1001
0230
1010
0302
,
0110
2003
0110
3101
0110
1010
0002
0110
,
2003
0101
3002
1010
0113
1001
0110
1001
,
0200
0011
0320
1001
1100
0032
2003
0110
,
3110
1001
0110
1010
0002
0110
2003
0011
,
3101
0011
0101
1001
0002
0110
0023
1100
,
0230
1010
0311
0110
2000
0110
3002
0110
,
0203
1010
0011
1001
0320
1001
0101
1001
,
2030
0110
0110
3101
1010
0110
0002
1010
,
2003
0011
0110
0101
3020
0101
1100
0101
,
2030
0000
0110
0000
3101
1010
0101
0000
0101
0000
0000
0000
0101
0000
0000
0000
,
0011
1100
0011
0000
0101
0000
0000
0000
1100
0011
1100
0000
0101
0000
0000
0000
,
0101
0000
0000
0000
0110
1001
0110
0000
0101
0000
0000
0000
1010
0000
0000
0000
,
0011
1120
0000
0000
0000
0000
0000
0000
,
0000
1130
0011
0110
1001
0101
0010
0100
,
0011
1100
0110
1100
0101
2020
0000
3030
,
1010
0202
0000
0303
0002
0000
2003
0000
,
3002
0203
0300
0020
0001
1000
0100
1000
,
0001
0100
0031
1000
0100
0010
1010
0101
,
1010
0000
0000
0000
1010
0022
0000
0033
,
0011
2020
0000
3030
0200
0000
0302
0000
,
2003
3020
0000
0000
1100
0030
0101
0000
,
1010
0000
0000
0000
0101
0000
0000
0000
0000
0000
0110
0000
0000
0000
0001
0010
,
0100
0010
0001
0100
0011
0000
0000
0000
0110
0000
2002
0000
0000
0000
3003
0000
,
1001
0220
0000
0330
0002
0000
2003
0000
,
3020
0230
0000
1000
0302
0010
1000
0100
,
0010
0100
0013
1000
0100
0010
0022
0000
,
2033
0000
0000
0000
3110
1001
0000
0000
,
1001
0110
0000
0000
0020
0000
2030
0000
,
3002
0203
0000
0000
0011
0000
0311
0000
,
1100
0000
0000
0000
0110
0000
0000
0000
0000
0000
1001
0000
0000
0000
0001
0010
,
0100
0010
1000
0100
0011
0000
0000
0000
1100
0000
0220
0000
0000
0000
0330
0000
,
0110
2200
0000
3300
0002
0000
0203
0000
,
0320
0000
2030
3000
0111
0000
1101
0000
1101
0000
0111
0000
1110
0000
1011
0000
,
1101
0111
0111
1011
1011
1110
0111
1110
,
1101
1101
0111
1110
1011
1011
1110
0111
,
1110
1111
0000
0000
0000
0000
0000
0000
;
