#TITLE:Gold Dust;
#SUBTITLE:;
#ARTIST:DJ Fresh;
#TITLETRANSLIT:;
#SUBTITLETRANSLIT:;
#ARTISTTRANSLIT:;
#CREDIT:;
#BANNER:../ban - Jawn2.png;
#BACKGROUND:../Jawn2 - bg.png;
#LYRICSPATH:;
#CDTITLE:../CDa.png;
#MUSIC:Gold Dust.ogg;
#OFFSET:-0.215;
#SAMPLESTART:44.429;
#SAMPLELENGTH:22.100;
#SELECTABLE:YES;
#BPMS:0.000=177.000;
#STOPS:;
#BGCHANGES:;
// cache tags:
#FIRSTBEAT:4.000;
#LASTBEAT:452.000;
#SONGFILENAME:Songs/Jimmy Jawns 2/Gold Dust - [Gazeboreo]/Gold Dust.sm;
#HASMUSIC:1;
#HASBANNER:1;
#MUSICLENGTH:154.799;
// end cache tags

//---------------dance-single - Gazebo----------------
#NOTES:
     dance-single:
     Gazebo:
     Easy:
     9:
     0.700,0.728,0.672,0.491,0.032,578.000,104.000,76.000,62.000,17.000:
0000
0000
0000
0000
,
0000
0000
0000
0000
,
0000
0000
0000
0000
,
0000
0000
0000
0000
,
0000
0000
0000
0000
,
0000
0000
0000
0000
,
0000
0000
0000
0000
,
0000
0000
0000
0000
,
0000
0000
0000
0000
,
1000
0000
0000
0011
0000
0000
1001
0000
,
0000
1010
0000
0000
0110
0000
0000
0100
,
0001
0000
0000
1001
0000
0000
1100
0000
,
0000
0110
0000
0000
0011
0000
0000
0001
,
0100
0000
0000
1010
0000
0000
1001
0000
,
0000
1100
0000
0000
0110
0000
0000
0010
,
0001
0000
0000
0101
0000
0000
1010
0000
,
0000
0000
1001
0000
0000
0000
0001
0000
0010
0001
0010
0001
0010
0001
0010
0000
,
M001
0010
0100
M010
0001
0010
M100
0010
,
0001
M100
0010
0100
0110
0000
0101
0000
,
10M0
0001
0100
00M1
1000
0001
01M0
0001
,
1000
01M0
0001
0100
1100
0000
0011
0000
,
0M01
1000
0010
1M00
0001
1000
0M10
1000
,
0001
0M10
1000
0010
0011
0000
1001
0000
,
0202
0000
1000
0303
2002
0000
0010
3003
,
2200
0000
0001
3300
2002
0000
0010
3003
,
10M0
0001
0100
00M1
1000
0001
01M0
0001
,
1000
01M0
0001
0100
0011
0000
1100
0000
,
100M
0010
0100
001M
1000
0010
010M
0010
,
1000
010M
0010
0100
0011
0000
1001
0000
,
0M01
1000
0010
1M00
0001
1000
0M10
1000
,
0001
0M10
1000
0010
1100
0000
1001
0000
,
0202
0000
1000
0303
2002
0000
0010
3003
,
2200
0000
0000
0000
0001
0000
3300
0000
1000
0000
0100
1000
0100
1000
0100
0000
,
0010
00M0
1002
0000
0100
0000
0010
0000
,
1003
0100
1000
0001
0100
0001
0100
0100
,
1010
0110
0201
0010
,
0301
1000
1000
0001
0010
0100
0010
0001
,
1100
1002
0010
0100
,
1003
0001
0010
0010
0200
0000
1300
0001
,
0100
0100
0010
0000
1020
0000
0100
0000
,
0001
0000
0100
0000
1030
0001
1000
0000
,
0100
0M00
2001
0000
0010
0000
0100
0000
,
3001
0010
0001
1000
0010
1000
0100
0100
,
0011
0110
1200
0010
,
1300
0001
0001
0100
0010
1000
0100
1000
,
0011
2001
0100
0010
,
3001
1000
0100
0100
0020
0000
0031
1000
,
0010
0010
0100
0000
0201
0000
0010
0000
,
1000
0010
0302
0000
,
1003
0000
0000
1001
0000
0000
1010
0000
,
0000
0110
0000
0000
0101
0000
0000
0001
,
0010
0000
0000
0110
0000
0000
1100
0000
,
0000
1001
0000
0000
2010
0000
0000
3010
,
0100
0000
0000
0101
0000
0000
1001
0000
,
0000
1100
0000
0000
0110
0000
0000
0010
,
0001
0000
0000
1001
0000
0000
1010
0000
,
0000
0110
0000
0000
0201
0000
0000
0301
,
1000
0000
0100
0010
0200
0000
2300
0000
,
3001
0200
0000
0000
0302
0000
0000
1003
,
0010
0000
1000
0100
0020
0000
0130
2000
,
0000
0010
0000
3000
0210
0000
0000
0310
,
1000
0000
0001
0100
0001
1000
0100
0001
,
0100
0000
0010
0000
0002
0000
0000
0103
,
0010
1000
0001
0100
0010
1000
0001
1000
,
0100
0000
0010
0000
0001
0000
1000
0000
0001
0100
0001
0100
0001
0100
0001
0000
,
10M0
0100
0001
01M0
1000
0100
00M1
0100
,
1000
00M1
0100
0001
1001
0000
1010
0000
,
001M
0100
1000
010M
0010
0100
100M
0100
,
0010
100M
0100
1000
1100
0000
1001
0000
,
1M00
0010
0001
0M10
1000
0010
0M01
0010
,
1000
0M01
0010
0001
0011
0000
1001
0000
,
0202
0000
1000
0303
2002
0000
0010
3003
,
2200
0000
0001
3300
2002
0000
0010
3003
,
1M00
0010
0001
0M10
1000
0010
0M01
0010
,
1000
0M01
0010
0001
1100
0000
1001
0000
,
00M1
0100
1000
01M0
0001
0100
10M0
0100
,
0001
10M0
0100
1000
0011
0000
0101
0000
,
M100
0010
0001
M010
0100
0010
M001
0010
,
0100
M001
0010
0001
1100
0000
1001
0000
,
0202
0000
1000
0303
2002
0000
0010
3003
,
2200
0000
0000
0000
0001
0000
3300
0000
1000
0000
0100
1000
0100
1000
0100
0000
,
0010
00M0
1002
0000
0100
0000
0010
0000
,
1003
0001
1000
0100
0010
0100
1000
1000
,
0011
0110
2100
0010
,
3001
0100
0100
0010
1000
0001
1000
0100
,
0011
1002
0100
1000
,
0013
0100
1000
1000
0020
0000
0130
0001
,
0010
0010
0001
0000
0201
0000
0010
0000
,
1000
0000
0010
0000
0301
1000
0001
0000
,
0100
0M00
2001
0000
0010
0000
0100
0000
,
3001
1000
0001
0100
0010
0100
0001
0001
,
1010
1001
0102
0010
,
1003
0100
0100
0010
0001
0100
0010
1000
,
0101
2001
0100
0001
,
3010
1000
0001
0001
0200
0000
0301
1000
,
0010
0010
0100
0000
1020
0000
0100
0000
,
0001
0000
0100
0000
1030
M000
0110
0000
,
0010
1000
0100
0010
0001
0100
0010
1000
,
0100
0010
0001
0100
0010
1000
0001
2000
,
0000
3000
0010
2000
0000
3000
0001
2000
,
0000
0000
3200
0000
1300
M000
0011
0000
,
0010
0001
0100
0010
1000
0100
0010
0001
,
0100
0010
1000
0100
0010
0001
1000
0002
,
0000
0003
0010
0002
0000
0003
1000
0002
,
0000
0000
0103
0000
0010
00M0
1001
0000
,
0001
0010
1000
0001
0100
1000
0001
0010
,
1000
0001
0100
1000
0001
0010
1000
0020
,
0000
0030
0001
0020
0000
0030
0100
0020
,
0000
0000
0032
0000
0103
0M00
1010
0000
,
1000
0010
0001
1000
0100
0001
1000
0010
,
0001
1000
0100
0001
1000
0010
1000
0002
,
0200
0000
1000
0303
2002
0000
0010
3003
,
2200
0000
0001
3300
00MM
0000
MMMM
0000
;

//---------------dance-single - Gazebo feat. Aoreo----------------
#NOTES:
     dance-single:
     Gazebo feat. Aoreo:
     Medium:
     13:
     1.000,1.000,0.220,0.413,1.000,1096.000,34.000,64.000,4.000,17.000:
0000
0000
0000
0000
,
1000
0000
0000
1000
0000
0001
1000
0000
,
0000
1000
0000
0000
0010
0100
0000
0001
,
0010
0000
0000
0010
0000
0001
0010
0000
,
0000
0010
0000
0000
0010
0001
0000
1000
,
0100
0000
0000
0100
0000
1000
0100
0000
,
0000
0100
0000
0000
0100
1000
0000
0001
,
0100
0000
0000
0100
0000
0001
0100
0000
,
0000
0100
0000
0000
0100
0000
0000
0001
,
1000
0000
0000
1010
0000
0000
0110
0000
,
0000
0101
0000
0000
1001
0000
0000
1000
,
0100
0000
0000
0110
0000
0000
0011
0000
,
0000
1001
0000
0000
1100
0000
0000
0100
,
1000
0000
0000
1001
0000
0000
0101
0000
,
0000
0110
0000
0000
1010
0000
0000
1000
,
0001
0000
0000
0101
0000
0000
1010
0000
,
0000
0000
1001
0000
0000
0000
0001
0000
1000
0001
1000
0100
0010
0001
1000
0000
,
0001
0100
0001
1000
0010
0100
0010
1000
0001
1000
0100
0010
0001
1000
0001
0100
,
0001
1000
0010
0100
0010
1000
0001
1000
0200
0000
0000
0000
0320
0000
0000
0000
,
0031
1000
0001
0100
0010
0100
0001
1000
0010
0100
0001
1000
0001
0010
0100
1000
,
0001
1000
0001
0100
0010
0100
0010
1000
0002
0000
0000
0000
2003
0000
0000
0000
,
3001
0100
0001
1000
0010
0100
0010
1000
0001
1000
0100
0010
0100
0010
0001
1000
,
0001
0100
0010
0100
0001
1000
0010
0100
0002
0000
0000
0000
2003
0000
0000
0000
,
3020
0000
0131
0000
200M
0100
3011
0000
,
0200
1310
0002
1103
,
0001
1000
0001
0100
0010
0100
0001
1000
0001
0010
0100
1000
0001
1000
0001
0100
,
0010
0100
0010
1000
0001
1000
0100
0010
0002
0000
0000
0000
0203
0000
0000
0000
,
0301
1000
0001
0010
0100
1000
0001
1000
0010
0100
0010
0100
0001
1000
0001
0010
,
0100
1000
0001
1000
0010
0100
0001
0100
0020
0000
0000
0000
2030
0000
0000
0000
,
3001
0100
0001
1000
0010
1000
0010
0100
0001
1000
0001
1000
0100
0010
0100
0010
,
0001
1000
0001
0100
0010
0100
0001
1000
0020
0000
0000
0000
2030
0000
0000
0000
,
3020
0000
0131
0000
200M
0100
3011
0000
,
0200
0000
0000
0000
1310
0000
0000
0000
0001
1000
0001
0010
0100
1000
0001
1000
,
0010
0100
0001
0100
0001
1000
0100
0010
0100
1000
0100
0010
0100
1000
0100
0010
,
0001
1000
0001
0100
0010
0100
0001
1000
0001
1000
0010
0100
0010
1000
0001
1000
,
0100
0010
0100
0010
0001
0100
0001
0100
0010
1000
0010
0100
0010
1000
0010
0100
,
0001
1000
0001
0010
0100
0010
0100
1000
0001
1000
0001
0100
0010
0100
0010
1000
,
0001
0100
0010
0100
0001
1000
0100
1000
0001
1000
0100
1000
0001
1000
0100
0010
,
0001
1000
0001
0100
0001
1000
0010
1000
0010
0100
0001
1000
0001
0010
0100
1000
,
0001
1000
0001
0100
0010
1000
0010
1000
0001
0010
0100
0010
0001
0010
0100
0010
,
0001
0010
0100
1000
0001
1000
0001
0100
0010
1000
0010
1000
0001
0100
0001
1000
,
0010
0100
0001
0100
0001
1000
0100
0010
0100
1000
0100
0010
0100
1000
0100
0010
,
0001
1000
0001
0100
0010
0100
0001
1000
0001
1000
0010
0100
0010
1000
0001
1000
,
0100
0010
0100
0010
0001
0100
0001
0100
0010
1000
0010
0100
0010
1000
0010
0100
,
0001
1000
0001
0010
0100
0010
0100
1000
0001
1000
0001
0100
0010
0100
0010
1000
,
0001
0100
0010
0100
0001
1000
0100
1000
0001
1000
0100
1000
0001
1000
0100
0010
,
0001
1000
0001
0100
0001
1000
0010
1000
0010
0100
0001
1000
0001
0010
0100
1000
,
0001
1000
0001
0100
0010
1000
0010
1000
0001
0010
0100
0010
0001
0010
0100
0010
,
0001
0010
0100
1000
0001
1000
0001
0100
0010
1000
0010
1000
0001
0100
0001
1000
,
0001
0000
0000
0001
0000
0000
0001
0000
,
0000
0001
0000
0000
0001
0000
0000
1000
,
0100
0000
0000
0100
0000
0000
0100
0000
,
0000
0100
0000
0000
0100
0000
0000
1000
,
0001
0000
0000
0001
0000
0000
0001
0000
,
0000
0001
0000
0000
0001
0000
0000
0100
,
0010
0000
0000
0010
0000
0000
0010
0000
,
0000
0010
0000
0000
2000
0000
0000
3001
,
1000
0000
0100
0010
0200
0000
2300
0000
,
3001
0200
0000
0000
0302
0000
0000
1003
,
0010
0000
1000
0100
0020
0000
0130
2000
,
0000
0010
0000
3000
0020
0000
0000
0130
,
0001
0000
1000
0010
1000
0100
0010
0001
,
1000
0001
0200
0000
,
0310
1000
0001
0100
0010
1000
0001
1000
,
0100
0000
0010
0000
0001
0000
1000
0000
0001
1000
0001
0010
0100
1000
0001
0000
,
1000
0010
1000
0001
0100
0010
0100
0001
1000
0001
0010
0100
1000
0001
1000
0010
,
1000
0001
0100
0010
0100
0001
1000
0001
0020
0000
0000
0000
0230
0000
0000
0000
,
1300
0001
1000
0010
0100
0010
1000
0001
0100
0010
1000
0001
1000
0100
0010
0001
,
1000
0001
1000
0010
0100
0010
0100
0001
2000
0000
0000
0000
3002
0000
0000
0000
,
1003
0010
1000
0001
0100
0010
0100
0001
1000
0001
0010
0100
0010
0100
1000
0001
,
1000
0010
0100
0010
1000
0001
0100
0010
2000
0000
0000
0000
3002
0000
0000
0000
,
0023
0000
1130
0000
0020
0001
1130
0000
,
0020
0000
1130
0000
0020
1000
0131
0000
,
1000
0001
1000
0010
0100
0010
1000
0001
1000
0100
0010
0001
1000
0001
1000
0010
,
0100
0010
0100
0001
1000
0001
0010
0100
2000
0000
0000
0000
3020
0000
0000
0000
,
1030
0001
1000
0100
0010
0001
1000
0001
0100
0010
0100
0010
1000
0001
1000
0100
,
0010
0001
1000
0001
0100
0010
1000
0010
0200
0000
0000
0000
0302
0000
0000
0000
,
1003
0010
1000
0001
0100
0001
0100
0010
1000
0001
1000
0001
0010
0100
0010
0100
,
1000
0001
1000
0010
0100
0010
1000
0001
0200
0000
0000
0000
0302
0000
0000
0000
,
0023
0000
1130
0000
0020
0001
1130
0000
,
0020
0000
0000
0000
1130
0000
0000
0000
1000
0001
1000
0001
0010
0100
1000
0001
,
0100
0010
1000
0010
1000
0001
0010
0100
0010
0001
0010
0100
0010
0001
0010
0100
,
1000
0001
1000
0010
0100
0010
1000
0001
1000
0001
0100
0010
0100
0001
1000
0001
,
0010
0100
0010
0100
1000
0010
1000
0010
0100
0001
0100
0010
0100
0001
0100
0010
,
1000
0001
1000
0100
0010
0100
0010
0001
1000
0001
1000
0010
0100
0010
0100
0001
,
1000
0010
0100
0010
1000
0001
0010
0001
1000
0001
0010
0001
1000
0001
0010
0100
,
1000
0001
1000
0010
1000
0001
0100
0001
0100
0010
1000
0001
1000
0100
0010
0001
,
1000
0001
1000
0010
0100
0001
0100
0001
1000
0100
0010
0100
1000
0100
0010
0100
,
1000
0100
0010
0001
1000
0001
1000
0010
0100
0001
0100
0001
1000
0010
1000
0001
,
0100
0010
1000
0010
1000
0001
0010
0100
0010
0001
0010
0100
0010
0001
0010
0100
,
1000
0001
1000
0010
0100
0010
1000
0001
1000
0001
0100
0010
0100
0001
1000
0001
,
0010
0100
0010
0100
1000
0010
1000
0010
0100
0001
0100
0010
0100
0001
0100
0010
,
1000
0001
1000
0100
0010
0100
0010
0001
1000
0001
1000
0010
0100
0010
0100
0001
,
1000
0010
0100
0010
1000
0001
0010
0001
1000
0001
0010
0001
1000
0001
0010
0100
,
1000
0001
1000
0010
1000
0001
0100
0001
0100
0010
1000
0001
1000
0100
0010
0001
,
1000
0001
1000
0010
0100
0001
0100
0001
1000
0100
0010
0100
1000
0100
0010
0100
,
1000
0100
0010
0001
1000
0001
1000
0010
0100
0001
0100
0001
1000
0010
1000
0001
,
1000
0001
0010
0100
1000
0010
0100
0001
,
0010
0100
1000
0010
0100
0001
1000
0002
,
0000
0003
0100
0002
0000
0003
1000
0002
,
0000
0023
0031
1100
,
0100
1000
0010
0100
0001
0010
0100
1000
,
0010
0100
0001
0010
0100
1000
0001
2000
,
0000
3000
0100
2000
0000
3000
0001
2000
,
0000
0000
3010
0000
0100
0M00
1001
0000
,
1000
0100
0001
1000
0010
0001
1000
0100
,
0001
1000
0010
0001
1000
0100
0001
0200
,
0000
0300
1000
0200
0000
0300
0010
0200
,
0000
0000
2300
0000
3010
00M0
0101
0000
,
0001
0100
1000
0001
0010
1000
0001
0100
,
1000
0001
0010
1000
0001
0100
0001
2000
,
0020
0000
0001
3030
2002
0000
0100
3003
,
0022
0000
1000
0033
0000
0000
0000
0000
;

//---------------dance-single - J. Nero (14-)----------------
#NOTES:
     dance-single:
     J. Nero (14-):
     Hard:
     14:
     1.000,1.000,0.187,0.304,1.000,1262.000,29.000,47.000,2.000,14.000:
0000
0000
0000
0000
,
1000
0000
0000
1000
0000
0001
1000
0000
,
0000
1000
0000
0000
0010
0100
0000
0001
,
0010
0000
0000
0010
0000
0001
0010
0000
,
0000
0010
0000
0000
0010
0001
0000
1000
,
0100
0000
0000
0100
0000
1000
0100
0000
,
0000
0100
0000
0000
0100
1000
0000
0001
,
0100
0000
0000
0100
0000
0001
0100
0000
,
0000
0100
0000
0000
0100
0000
0000
0001
,
1000
0000
0000
1010
0000
0000
0110
0000
,
0000
0101
0000
0000
1001
0000
0000
1000
,
0100
0000
0000
0110
0000
0000
0011
0000
,
0000
1001
0000
0000
1100
0000
0000
0100
,
1000
0000
0000
1001
0000
0000
0101
0000
,
0000
0110
0000
0000
1010
0000
0000
1000
,
0001
0000
0000
0101
0000
0000
1010
0000
,
0000
0000
1001
0000
0000
0000
0001
0000
1000
0001
1000
0100
0010
0001
1000
0000
,
0001
0100
0001
1000
0010
0100
0010
1000
0001
1000
0100
0010
0001
1000
0001
0100
,
0001
1000
0010
0100
0010
1000
0001
1000
0200
0000
0000
0000
0320
0000
0000
0000
,
0031
1000
0001
0100
0010
0100
0001
1000
0010
0100
0001
1000
0001
0010
0100
1000
,
0001
1000
0001
0100
0010
0100
0010
1000
0002
0000
0000
0000
2003
0000
0000
0000
,
3001
0100
0001
1000
0010
0100
0010
1000
0001
1000
0100
0010
0100
0010
0001
1000
,
0001
0100
0010
0100
0001
1000
0010
0100
0002
0000
0000
0000
2003
0000
0000
0000
,
3020
0000
0131
0000
200M
0100
3011
0000
,
0200
1310
0002
1103
,
0001
1000
0001
0100
0010
0100
0001
1000
0001
0010
0100
1000
0001
1000
0001
0100
,
0010
0100
0010
1000
0001
1000
0100
0010
0002
0000
0000
0000
0203
0000
0000
0000
,
0301
1000
0001
0010
0100
1000
0001
1000
0010
0100
0010
0100
0001
1000
0001
0010
,
0100
1000
0001
1000
0010
0100
0001
0100
0020
0000
0000
0000
2030
0000
0000
0000
,
3001
0100
0001
1000
0010
1000
0010
0100
0001
1000
0001
1000
0100
0010
0100
0010
,
0001
1000
0001
0100
0010
0100
0001
1000
0020
0000
0000
0000
2030
0000
0000
0000
,
3020
0000
0131
0000
200M
0100
3011
0000
,
0200
0000
0000
0000
1310
0000
0000
0000
0001
1000
0001
0010
0100
1000
0001
1000
,
0010
0100
0001
0100
0001
1000
0100
0010
0100
1000
0100
0010
0100
1000
0100
0010
,
0001
1000
0001
0100
0010
0100
0001
1000
0001
1000
0010
0100
0010
1000
0001
1000
,
0100
0010
0100
0010
0001
0100
0001
0100
0010
1000
0010
0100
0010
1000
0010
0100
,
0001
1000
0001
0010
0100
0010
0100
1000
0001
1000
0001
0100
0010
0100
0010
1000
,
0001
0100
0010
0100
0001
1000
0100
1000
0001
1000
0100
1000
0001
1000
0100
0010
,
0001
1000
0001
0100
0001
1000
0010
1000
0010
0100
0001
1000
0001
0010
0100
1000
,
0001
1000
0001
0100
0010
1000
0010
1000
0001
0010
0100
0010
0001
0010
0100
0010
,
0001
0010
0100
1000
0001
1000
0001
0100
0010
1000
0010
1000
0001
0100
0001
1000
,
0010
0100
0001
0100
0001
1000
0100
0010
0100
1000
0100
0010
0100
1000
0100
0010
,
0001
1000
0001
0100
0010
0100
0001
1000
0001
1000
0010
0100
0010
1000
0001
1000
,
0100
0010
0100
0010
0001
0100
0001
0100
0010
1000
0010
0100
0010
1000
0010
0100
,
0001
1000
0001
0010
0100
0010
0100
1000
0001
1000
0001
0100
0010
0100
0010
1000
,
0001
0100
0010
0100
0001
1000
0100
1000
0001
1000
0100
1000
0001
1000
0100
0010
,
0001
1000
0001
0100
0001
1000
0010
1000
0010
0100
0001
1000
0001
0010
0100
1000
,
0001
1000
0001
0100
0010
1000
0010
1000
0001
0010
0100
0010
0001
0010
0100
0010
,
0001
0010
0100
1000
0001
1000
0001
0100
0010
1000
0010
1000
0001
0100
0001
1000
,
0001
0000
0000
0001
0000
0000
0001
0000
,
0000
0001
0000
0000
0001
0000
0000
1000
,
0100
0000
0000
0100
0000
0000
0100
0000
,
0000
0100
0000
0000
0100
0000
0000
1000
,
0001
0000
0000
0001
0000
0000
0001
0000
,
0000
0001
0000
0000
0001
0000
0000
0100
,
0010
0000
0000
0010
0000
0000
0010
0000
,
0000
0010
0000
0000
2000
0000
0000
3001
,
1000
0000
0100
0010
0200
0000
2300
0000
,
3001
0200
0000
0000
0302
0000
0000
1003
,
0010
0000
1000
0100
0020
0000
0130
2000
,
0000
0010
0000
3000
0020
0000
0000
0130
,
0001
0000
1000
0010
1000
0100
0010
0001
,
1000
0001
0200
0000
,
0310
1000
0001
0100
0010
1000
0001
1000
,
0100
0000
0010
0000
0001
0000
1000
0000
0001
1000
0001
0010
0100
1000
0001
0000
,
1000
0010
1000
0001
0100
0010
0100
0001
1000
0001
0010
0100
1000
0001
1000
0010
,
1000
0001
0100
0010
0100
0001
1000
0001
0020
0000
0000
0000
0230
0000
0000
0000
,
1300
0001
1000
0010
0100
0010
1000
0001
0100
0010
1000
0001
1000
0100
0010
0001
,
1000
0001
1000
0010
0100
0010
0100
0001
2000
0000
0000
0000
3002
0000
0000
0000
,
1003
0010
1000
0001
0100
0010
0100
0001
1000
0001
0010
0100
0010
0100
1000
0001
,
1000
0010
0100
0010
1000
0001
0100
0010
2000
0000
0000
0000
3002
0000
0000
0000
,
0023
0000
1130
0000
0020
0001
1130
0000
,
0020
0000
1130
0000
0020
1000
0131
0000
,
1000
0001
1000
0010
0100
0010
1000
0001
1000
0100
0010
0001
1000
0001
1000
0010
,
0100
0010
0100
0001
1000
0001
0010
0100
2000
0000
0000
0000
3020
0000
0000
0000
,
1030
0001
1000
0100
0010
0001
1000
0001
0100
0010
0100
0010
1000
0001
1000
0100
,
0010
0001
1000
0001
0100
0010
1000
0010
0200
0000
0000
0000
0302
0000
0000
0000
,
1003
0010
1000
0001
0100
0001
0100
0010
1000
0001
1000
0001
0010
0100
0010
0100
,
1000
0001
1000
0010
0100
0010
1000
0001
0200
0000
0000
0000
0302
0000
0000
0000
,
0023
0000
1130
0000
0020
0001
1130
0000
,
0020
0000
0000
0000
1130
0000
0000
0000
1000
0001
1000
0001
0010
0100
1000
0001
,
0100
0010
1000
0010
1000
0001
0010
0100
0010
0001
0010
0100
0010
0001
0010
0100
,
1000
0001
1000
0010
0100
0010
1000
0001
1000
0001
0100
0010
0100
0001
1000
0001
,
0010
0100
0010
0100
1000
0010
1000
0010
0100
0001
0100
0010
0100
0001
0100
0010
,
1000
0001
1000
0100
0010
0100
0010
0001
1000
0001
1000
0010
0100
0010
0100
0001
,
1000
0010
0100
0010
1000
0001
0010
0001
1000
0001
0010
0001
1000
0001
0010
0100
,
1000
0001
1000
0010
1000
0001
0100
0001
0100
0010
1000
0001
1000
0100
0010
0001
,
1000
0001
1000
0010
0100
0001
0100
0001
1000
0100
0010
0100
1000
0100
0010
0100
,
1000
0100
0010
0001
1000
0001
1000
0010
0100
0001
0100
0001
1000
0010
1000
0001
,
0100
0010
1000
0010
1000
0001
0010
0100
0010
0001
0010
0100
0010
0001
0010
0100
,
1000
0001
1000
0010
0100
0010
1000
0001
1000
0001
0100
0010
0100
0001
1000
0001
,
0010
0100
0010
0100
1000
0010
1000
0010
0100
0001
0100
0010
0100
0001
0100
0010
,
1000
0001
1000
0100
0010
0100
0010
0001
1000
0001
1000
0010
0100
0010
0100
0001
,
1000
0010
0100
0010
1000
0001
0010
0001
1000
0001
0010
0001
1000
0001
0010
0100
,
1000
0001
1000
0010
1000
0001
0100
0001
0100
0010
1000
0001
1000
0100
0010
0001
,
1000
0001
1000
0010
0100
0001
0100
0001
1000
0100
0010
0100
1000
0100
0010
0100
,
1000
0100
0010
0001
1000
0001
1000
0010
0100
0001
0100
0001
1000
0010
1000
0001
,
1000
0100
0010
0100
0010
0001
1000
0010
0100
0010
0100
0001
1000
0100
0010
0100
,
0010
0001
1000
0010
0100
0010
0100
0001
1000
0100
0010
0100
0010
0001
1000
0001
,
0100
0001
1000
0010
1000
0001
1000
0100
1000
0010
0100
0001
1000
0001
0100
0001
,
1000
0010
1000
0001
0100
0010
1000
0010
0100
0001
0100
0001
0010
0100
0010
0100
,
1000
0010
0100
0010
0100
0001
1000
0100
0010
0100
0010
0001
1000
0010
0100
0010
,
0100
0001
1000
0100
0010
0100
0010
0001
1000
0010
0100
0010
0100
0001
1000
0001
,
0010
0001
1000
0100
1000
0001
1000
0010
1000
0100
0010
0001
1000
0001
0010
0001
,
1000
0100
1000
0001
0010
0100
1000
0100
0010
0001
0010
0001
0100
0010
0100
0010
,
1000
0100
0010
0100
0010
0001
1000
0010
0100
0010
0100
0001
1000
0100
0010
0100
,
0010
0001
1000
0010
0100
0010
0100
0001
1000
0100
0010
0100
0010
0001
1000
0001
,
0100
0001
1000
0010
1000
0001
1000
0100
1000
0010
0100
0001
1000
0001
0100
0001
,
1000
0010
1000
0001
0100
0010
1000
0010
0100
0001
0100
0001
0010
0100
0010
0100
,
1000
0010
0100
0010
0100
0001
1000
0100
0010
0100
0010
0001
1000
0010
0100
0010
,
0100
0001
1000
0100
0010
0100
0010
0001
1000
0010
0100
0010
0100
0001
1000
0001
,
0010
0001
1000
0100
1000
0001
1000
0010
1000
0100
0010
0001
1000
0001
0010
0001
,
1000
0100
1000
0001
0010
0100
1000
0100
0010
0001
0010
0001
0100
0010
0100
0010
,
1000
0000
0000
0000
;

//---------------dance-single - J. Nero (14+)----------------
#NOTES:
     dance-single:
     J. Nero (14+):
     Challenge:
     14:
     1.000,1.000,0.097,0.065,1.000,1413.000,15.000,10.000,0.000,0.000:
0000
0000
0000
0000
,
1000
0000
0000
1000
0000
0001
1000
0000
,
0000
1000
0000
0000
0010
0100
0000
0001
,
0010
0000
0000
0010
0000
0001
0010
0000
,
0000
0010
0000
0000
0010
0001
0000
1000
,
0100
0000
0000
0100
0000
1000
0100
0000
,
0000
0100
0000
0000
0100
1000
0000
0001
,
0100
0000
0000
0100
0000
0001
0100
0000
,
0000
0100
0000
0000
0100
0000
0000
0001
,
1000
0000
0000
1010
0000
0000
0110
0000
,
0000
0101
0000
0000
1001
0000
0000
1000
,
0100
0000
0000
0110
0000
0000
0011
0000
,
0000
1001
0000
0000
1100
0000
0000
0100
,
1000
0000
0000
1001
0000
0000
0101
0000
,
0000
0110
0000
0000
1010
0000
0000
1000
,
0001
0000
0000
0101
0000
0000
1010
0000
,
0000
0000
1001
0000
0000
0000
0001
0000
1000
0001
1000
0100
0010
0001
1000
0000
,
0001
0100
0001
1000
0010
0100
0010
1000
0001
1000
0100
0010
0001
1000
0001
0100
,
0001
1000
0010
0100
0010
1000
0001
1000
0100
0010
0100
0010
0001
1000
0010
0100
,
0001
1000
0001
0100
0010
0100
0001
1000
0010
0100
0001
1000
0001
0010
0100
1000
,
0001
1000
0001
0100
0010
0100
0010
1000
0001
0010
0100
1000
0001
1000
0010
0100
,
0001
0100
0001
1000
0010
0100
0010
1000
0001
1000
0100
0010
0100
0010
0001
1000
,
0001
0100
0010
0100
0001
1000
0010
0100
0001
1000
0100
0010
0001
1000
0010
0100
,
0001
1000
0100
1000
0001
0010
0100
1000
0001
1000
0010
1000
0100
0010
0001
1000
,
0001
0010
0100
1000
0001
1000
0010
0100
0010
1000
0001
0100
0001
1000
0100
0010
,
0001
1000
0001
0100
0010
0100
0001
1000
0001
0010
0100
1000
0001
1000
0001
0100
,
0010
0100
0010
1000
0001
1000
0100
0010
0001
1000
0001
0100
0001
1000
0100
0010
,
0001
1000
0001
0010
0100
1000
0001
1000
0010
0100
0010
0100
0001
1000
0001
0010
,
0100
1000
0001
1000
0010
0100
0001
0100
0010
1000
0001
1000
0100
1000
0001
0010
,
0100
1000
0001
0100
0010
1000
0010
0100
0001
1000
0001
1000
0100
0010
0100
0010
,
0001
1000
0001
0100
0010
0100
0001
1000
0010
0100
0010
1000
0001
1000
0100
0010
,
0001
0100
0001
1000
0010
0100
0010
1000
0001
0010
0001
1000
0100
0010
0001
1000
,
0001
0100
0010
1000
0001
1000
0100
0010
0001
1000
0001
0010
0100
1000
0001
1000
,
0010
0100
0001
0100
0001
1000
0100
0010
0100
1000
0100
0010
0100
1000
0100
0010
,
0001
1000
0001
0100
0010
0100
0001
1000
0001
1000
0010
0100
0010
1000
0001
1000
,
0100
0010
0100
0010
0001
0100
0001
0100
0010
1000
0010
0100
0010
1000
0010
0100
,
0001
1000
0001
0010
0100
0010
0100
1000
0001
1000
0001
0100
0010
0100
0010
1000
,
0001
0100
0010
0100
0001
1000
0100
1000
0001
1000
0100
1000
0001
1000
0100
0010
,
0001
1000
0001
0100
0001
1000
0010
1000
0010
0100
0001
1000
0001
0010
0100
1000
,
0001
1000
0001
0100
0010
1000
0010
1000
0001
0010
0100
0010
0001
0010
0100
0010
,
0001
0010
0100
1000
0001
1000
0001
0100
0010
1000
0010
1000
0001
0100
0001
1000
,
0010
0100
0001
0100
0001
1000
0100
0010
0100
1000
0100
0010
0100
1000
0100
0010
,
0001
1000
0001
0100
0010
0100
0001
1000
0001
1000
0010
0100
0010
1000
0001
1000
,
0100
0010
0100
0010
0001
0100
0001
0100
0010
1000
0010
0100
0010
1000
0010
0100
,
0001
1000
0001
0010
0100
0010
0100
1000
0001
1000
0001
0100
0010
0100
0010
1000
,
0001
0100
0010
0100
0001
1000
0100
1000
0001
1000
0100
1000
0001
1000
0100
0010
,
0001
1000
0001
0100
0001
1000
0010
1000
0010
0100
0001
1000
0001
0010
0100
1000
,
0001
1000
0001
0100
0010
1000
0010
1000
0001
0010
0100
0010
0001
0010
0100
0010
,
0001
0010
0100
1000
0001
1000
0001
0100
0010
1000
0010
1000
0001
0100
0001
1000
,
0001
0000
0000
0001
0000
0000
0001
0000
,
0000
0001
0000
0000
0001
0000
0000
1000
,
0100
0000
0000
0100
0000
0000
0100
0000
,
0000
0100
0000
0000
0200
0000
0000
1300
,
0001
0000
0000
0001
0000
0000
0001
0000
,
0000
0001
0000
0000
0001
0000
0000
0100
,
0010
0000
0000
0010
0000
0000
0010
0000
,
0000
0010
0000
0000
2000
0000
0000
3001
,
1000
0000
0100
0010
0200
0000
2300
0000
,
3001
0200
0000
0000
0302
0000
0000
1003
,
0010
0000
1000
0100
0020
0000
0130
2000
,
0000
0010
0000
3000
0020
0000
0000
0130
,
0001
0000
1000
0010
1000
0100
0010
0001
,
1000
0001
0200
0000
,
0310
1000
0001
0100
0010
1000
0001
1000
,
0100
0000
0010
0000
0001
0000
1000
0000
0001
1000
0001
0010
0100
1000
0001
0000
,
1000
0010
1000
0001
0100
0010
0100
0001
1000
0001
0010
0100
1000
0001
1000
0010
,
1000
0001
0100
0010
0100
0001
1000
0001
0010
0100
0010
0100
1000
0001
0100
0010
,
1000
0001
1000
0010
0100
0010
1000
0001
0100
0010
1000
0001
1000
0100
0010
0001
,
1000
0001
1000
0010
0100
0010
0100
0001
1000
0100
0010
0001
1000
0001
0100
0010
,
1000
0010
1000
0001
0100
0010
0100
0001
1000
0001
0010
0100
0010
0100
1000
0001
,
1000
0010
0100
0010
1000
0001
0100
0010
1000
0001
0010
0100
1000
0001
0100
0010
,
1000
0001
0010
0001
1000
0100
0010
0001
1000
0001
0100
0001
0010
0100
1000
0001
,
1000
0100
0010
0001
1000
0001
0100
0010
0100
0001
1000
0010
1000
0001
0010
0100
,
1000
0001
1000
0010
0100
0010
1000
0001
1000
0100
0010
0001
1000
0001
1000
0010
,
0100
0010
0100
0001
1000
0001
0010
0100
1000
0001
1000
0010
1000
0001
0010
0100
,
1000
0001
1000
0100
0010
0001
1000
0001
0100
0010
0100
0010
1000
0001
1000
0100
,
0010
0001
1000
0001
0100
0010
1000
0010
0100
0001
1000
0001
0010
0001
1000
0100
,
0010
0001
1000
0010
0100
0001
0100
0010
1000
0001
1000
0001
0010
0100
0010
0100
,
1000
0001
1000
0010
0100
0010
1000
0001
0100
0010
0100
0001
1000
0001
0010
0100
,
1000
0010
1000
0001
0100
0010
0100
0001
1000
0100
1000
0001
0010
0100
1000
0001
,
1000
0010
0100
0001
1000
0001
0010
0100
1000
0001
1000
0100
0010
0001
1000
0001
,
0100
0010
1000
0010
1000
0001
0010
0100
0010
0001
0010
0100
0010
0001
0010
0100
,
1000
0001
1000
0010
0100
0010
1000
0001
1000
0001
0100
0010
0100
0001
1000
0001
,
0010
0100
0010
0100
1000
0010
1000
0010
0100
0001
0100
0010
0100
0001
0100
0010
,
1000
0001
1000
0100
0010
0100
0010
0001
1000
0001
1000
0010
0100
0010
0100
0001
,
1000
0010
0100
0010
1000
0001
0010
0001
1000
0001
0010
0001
1000
0001
0010
0100
,
1000
0001
1000
0010
1000
0001
0100
0001
0100
0010
1000
0001
1000
0100
0010
0001
,
1000
0001
1000
0010
0100
0001
0100
0001
1000
0100
0010
0100
1000
0100
0010
0100
,
1000
0100
0010
0001
1000
0001
1000
0010
0100
0001
0100
0001
1000
0010
1000
0001
,
0100
0010
1000
0010
1000
0001
0010
0100
0010
0001
0010
0100
0010
0001
0010
0100
,
1000
0001
1000
0010
0100
0010
1000
0001
1000
0001
0100
0010
0100
0001
1000
0001
,
0010
0100
0010
0100
1000
0010
1000
0010
0100
0001
0100
0010
0100
0001
0100
0010
,
1000
0001
1000
0100
0010
0100
0010
0001
1000
0001
1000
0010
0100
0010
0100
0001
,
1000
0010
0100
0010
1000
0001
0010
0001
1000
0001
0010
0001
1000
0001
0010
0100
,
1000
0001
1000
0010
1000
0001
0100
0001
0100
0010
1000
0001
1000
0100
0010
0001
,
1000
0001
1000
0010
0100
0001
0100
0001
1000
0100
0010
0100
1000
0100
0010
0100
,
1000
0100
0010
0001
1000
0001
1000
0010
0100
0001
0100
0001
1000
0010
1000
0001
,
1000
0100
0010
0100
0010
0001
1000
0010
0100
0010
0100
0001
1000
0100
0010
0100
,
0010
0001
1000
0010
0100
0010
0100
0001
1000
0100
0010
0100
0010
0001
1000
0001
,
0100
0001
1000
0010
1000
0001
1000
0100
1000
0010
0100
0001
1000
0001
0100
0001
,
1000
0010
1000
0001
0100
0010
1000
0010
0100
0001
0100
0001
0010
0100
0010
0100
,
1000
0010
0100
0010
0100
0001
1000
0100
0010
0100
0010
0001
1000
0010
0100
0010
,
0100
0001
1000
0100
0010
0100
0010
0001
1000
0010
0100
0010
0100
0001
1000
0001
,
0010
0001
1000
0100
1000
0001
1000
0010
1000
0100
0010
0001
1000
0001
0010
0001
,
1000
0100
1000
0001
0010
0100
1000
0100
0010
0001
0010
0001
0100
0010
0100
0010
,
1000
0100
0010
0100
0010
0001
1000
0010
0100
0010
0100
0001
1000
0100
0010
0100
,
0010
0001
1000
0010
0100
0010
0100
0001
1000
0100
0010
0100
0010
0001
1000
0001
,
0100
0001
1000
0010
1000
0001
1000
0100
1000
0010
0100
0001
1000
0001
0100
0001
,
1000
0010
1000
0001
0100
0010
1000
0010
0100
0001
0100
0001
0010
0100
0010
0100
,
1000
0010
0100
0010
0100
0001
1000
0100
0010
0100
0010
0001
1000
0010
0100
0010
,
0100
0001
1000
0100
0010
0100
0010
0001
1000
0010
0100
0010
0100
0001
1000
0001
,
0010
0001
1000
0100
1000
0001
1000
0010
1000
0100
0010
0001
1000
0001
0010
0001
,
1000
0100
1000
0001
0010
0100
1000
0100
0010
0001
0010
0001
1000
0010
1000
0001
,
1000
0000
0000
0000
;
