#TITLE:Cutthroat;
#SUBTITLE:;
#ARTIST:Halogen-X;
#TITLETRANSLIT:;
#SUBTITLETRANSLIT:;
#ARTISTTRANSLIT:;
#CREDIT:;
#BANNER:../fthescorept1bn.png;
#BACKGROUND:../fthescorept1bg.png;
#LYRICSPATH:;
#CDTITLE:;
#MUSIC:Cutthroat.ogg;
#OFFSET:-0.061;
#SAMPLESTART:10.340;
#SAMPLELENGTH:10.230;
#SELECTABLE:YES;
#BPMS:0.000=209.920;
#STOPS:;
#BGCHANGES:;
// cache tags:
#FIRSTBEAT:0.000;
#LASTBEAT:133.500;
#SONGFILENAME:Songs/Fuck The Score Part I/Cutthroat [Dossar]/Cutthroat.sm;
#HASMUSIC:1;
#HASBANNER:1;
#MUSICLENGTH:45.818;
// end cache tags

//---------------dance-single - ----------------
#NOTES:
     dance-single:
     :
     Challenge:
     15:
     0.982,1.000,0.000,0.218,1.000,305.000,0.000,10.000,0.000,0.000:
2000
0000
0000
0000
0000
0000
0000
0000
3001
0100
0010
1000
0001
1000
0100
0010
,
0001
1000
0100
0010
0100
1000
0001
0010
0100
0010
0001
1000
0100
0010
0100
1000
,
0001
0001
0100
0100
0010
0010
1000
1000
,
0002
0000
0103
0010
1000
0100
1000
0000
0001
0000
0001
0000
0010
0000
0010
0000
,
0001
0010
0100
1000
0000
0000
1000
0000
0000
0001
0000
0000
0100
0000
0000
0100
0000
0000
0010
0000
0000
1000
0000
0000
,
0002
0000
0013
0100
1000
0000
0001
0000
0001
0000
0001
0000
0100
0000
0010
0000
,
0010
1000
0100
0010
0100
1000
0100
0010
,
0002
0000
1003
0000
0010
0000
0100
0000
0001
0000
1000
0100
0010
0000
0001
0000
,
0001
0000
0000
0000
0000
0000
1000
0000
0000
0001
0000
0000
0000
0000
0000
0100
0000
0000
0000
0000
0000
0001
0000
0000
1000
0000
0000
0000
0000
0000
0010
0000
0000
0000
0000
0000
0100
0000
0001
0000
0100
0000
0010
0000
1000
0000
0010
0000
,
0200
0000
0000
0000
,
0301
0000
1000
0000
0001
0010
0100
0000
1000
0010
0100
0000
0001
0000
1000
0100
,
0010
0000
0001
0000
0100
0000
0010
1000
0100
0010
0001
0000
0100
0001
0010
0100
,
1000
0000
0001
0000
0100
0000
0010
1000
0001
0000
0100
0000
0010
1000
0100
0010
,
0001
0000
0100
0010
1000
0000
0001
0000
0010
0000
0010
0000
0001
0000
0001
0000
,
1000
0000
0000
0000
0010
0000
0000
0000
0100
0001
0000
0000
0100
0001
0000
0000
1000
0000
0010
0000
0100
0000
0000
0000
0001
0000
0010
0000
0100
0000
1000
0000
,
0001
0000
0010
0000
0001
0000
1000
0000
0100
0000
0010
0000
0001
0000
0000
0000
0000
0000
1000
0000
0000
0010
0000
0000
0100
0000
0001
0000
1000
0000
0001
0000
0100
0000
0010
0000
1000
0000
0001
0000
0100
0000
0001
0000
0000
1000
0000
0000
,
0010
0000
0100
0000
0001
0000
1000
0100
0010
0001
1000
0000
0001
0100
0010
1000
,
0001
0000
0000
0000
0000
0000
0100
0000
0000
0000
0000
0000
0000
0000
0000
0000
0000
0000
0000
0000
0000
0000
0000
0000
0001
0000
0000
0000
0000
0000
0100
0000
0000
0000
0000
0000
0000
0000
0000
0000
0000
0000
0000
0000
0000
0000
0000
0000
0010
0000
0000
0000
0000
0000
1000
0000
0000
0000
0000
0000
0000
0000
0000
0000
0000
0000
0000
0000
0000
0000
0000
0000
0010
0000
0000
0000
0000
0000
1000
0000
0000
0000
0000
0000
0000
0000
0000
0000
0000
0000
0000
0000
0000
0000
0000
0000
0001
0000
0000
0000
0000
0000
0000
0000
0100
0000
0000
0000
0000
0000
0000
0000
0001
0000
0000
0000
0000
0000
0000
0000
1000
0000
0000
0000
0000
0000
0000
0000
0010
0000
0000
0000
0000
0000
0000
0000
0100
0000
0000
0000
0000
0000
0000
0000
0001
0000
0000
0000
0000
0000
0000
0000
1000
0000
0000
0000
0000
0000
0000
0000
0010
0000
0000
0000
0000
0000
0000
0000
1000
0000
0000
0000
0000
0000
0000
0000
0001
0000
0000
0000
0000
0000
0000
0000
0100
0000
0000
0000
0000
0000
0000
0000
,
0001
1000
0100
0100
1000
0001
0100
0100
,
0010
1000
0001
0010
0100
0000
1000
0010
0100
0001
2000
0000
0000
0000
3001
0000
,
0010
0100
0100
1000
1000
0001
0001
0010
,
0001
0000
0000
1000
0000
0000
0010
0000
0000
1000
0000
0000
0001
0000
0000
0100
0000
0000
0001
0000
1000
0000
0010
0000
0100
0000
0001
0000
1000
0000
0001
0000
0100
0000
0010
0000
1000
0000
0001
0000
1000
0000
0010
0000
0100
0000
0001
0000
,
1000
0010
0100
0000
0001
0100
0000
0010
0100
0000
0001
0000
0020
0000
0130
0000
,
1000
0100
0100
0010
0100
0100
2000
3000
,
0001
0000
0000
0000
1000
0000
0000
0000
0010
0000
0100
0000
0001
0000
0100
0000
0010
1000
0000
0000
0010
1000
0000
0000
0002
0000
0000
0000
0000
0000
0000
0000
,
1003
0010
0100
0001
0100
0001
1000
0010
0100
0001
1000
0010
1000
0001
0100
0010
1000
0010
0100
0001
1000
0010
0100
0001
,
2000
0000
0000
0000
,
0000
0000
0000
0000
,
0000
0000
0000
0000
,
0000
0000
0000
0000
,
0000
0000
0000
0000
,
0000
0000
0000
0000
,
0000
0000
0000
0000
,
0001
0000
0000
0001
0000
0000
3001
0000
0000
0000
0000
0000
0000
0000
0000
0000
;
