#TITLE:8bit Dreamer;
#SUBTITLE:;
#ARTIST:Lime;
#TITLETRANSLIT:;
#SUBTITLETRANSLIT:;
#ARTISTTRANSLIT:;
#CREDIT:owenviau1;
#BANNER:BN.png;
#BACKGROUND:BG.png;
#LYRICSPATH:;
#CDTITLE:../CDTitleOV1.png;
#MUSIC:Lime - 8bit Dreamer.mp3;
#OFFSET:-4.104;
#SAMPLESTART:256.315;
#SAMPLELENGTH:29.999;
#SELECTABLE:YES;
#DISPLAYBPM:145.000:170.000;
#BPMS:0.000=170.000,391.000=145.022,557.000=170.000;
#STOPS:;
#BGCHANGES:;
// cache tags:
#FIRSTBEAT:0.000;
#LASTBEAT:1151.500;
#SONGFILENAME:Songs/owenviau1 (2016) (Pad & Index)/8bit Dreamer - [owenviau1] v1.0.4/8bit Dreamer.sm;
#HASMUSIC:1;
#HASBANNER:1;
#MUSICLENGTH:426.245;
// end cache tags

//---------------dance-single - 15.09 (15) (owenviau----------------
#NOTES:
     dance-single:
     15.09 (15) (owenviau:
     Challenge:
     15:
     1.000,1.000,0.073,0.352,1.000,3958.000,31.000,150.000,39.000,0.000:
1000
0100
0010
0001
0100
0010
1000
0001
0010
0100
1000
0010
0100
0001
0100
0010
,
1000
0100
0010
0001
0100
0010
1000
0001
0010
0001
1000
0100
0010
0001
0100
0010
,
0100
0001
1000
0001
0100
0010
1000
0100
0010
0001
1000
0100
1000
0001
0010
0001
,
0100
0010
1000
0100
0010
0001
0100
0010
1000
0001
0010
0100
1000
0100
0010
0001
,
0100
0010
0100
0001
1000
0010
0100
0001
1000
0100
0010
0001
1000
0010
1000
0001
,
0100
0010
1000
0001
0010
0001
0100
0010
1000
0100
0010
0001
0100
0001
0010
0100
,
1000
0010
0100
0010
1000
0001
0100
0001
0010
0100
1000
0010
0100
0010
1000
0100
,
0010
0001
0100
0010
1000
0001
0010
0001
0100
0010
1000
0100
0010
0001
1000
0010
,
1000
0001
0100
0001
1000
0100
1000
0010
0100
0001
0010
0001
1000
0010
0100
0001
,
0010
0100
1000
0010
0100
0001
1000
0100
0010
0001
0100
0010
0100
0001
1000
0100
,
0010
0001
0100
0010
1000
0001
0010
0001
0100
0010
1000
0100
1000
0001
0100
0010
,
1000
0010
0100
0001
1000
0100
0010
0001
0100
0010
1000
0001
0010
0001
0100
0010
,
1000
0100
0010
0001
0100
0010
1000
0001
0100
0010
1000
0100
0010
0001
0100
0010
,
1000
0001
0010
0001
1000
0100
0010
0001
0100
0010
0100
0001
0010
0100
1000
0010
,
0100
0001
1000
0100
1000
0010
0100
0001
0100
0010
1000
0100
0010
0001
0100
0010
,
1000
0001
0100
0001
1000
0010
0100
0001
1000
0100
0010
0001
0000
0000
0010
0100
,
10M0
0001
0100
0010
1000
0001
0010
0001
0100
0010
1000
0100
0010
0001
0100
0010
,
1000
0001
0010
0001
0100
0010
1000
0100
0010
0001
0100
0010
1000
0001
0100
0001
,
0010
0100
1000
0010
0100
0001
1000
0100
0010
0001
0100
0010
1000
0001
0010
0100
,
1000
0010
0100
0010
1000
0001
0010
0001
0100
0010
1000
0100
0010
0001
0100
0010
,
1000
0001
0100
0001
1000
0010
0100
0001
1000
0100
0010
0001
0100
0010
1000
0001
,
0010
0001
0100
0010
1000
0100
0010
0001
0100
0010
1000
0010
0100
0001
0010
0001
,
1000
0100
0010
0001
0100
0010
1000
0010
0100
0001
1000
0100
0010
0001
0100
0010
,
1000
0001
0010
0001
0100
0010
1000
0001
0000
0100
0010
0000
1000
0000
0001
0000
,
100M
0100
0010
0001
0100
0010
1000
0001
0010
0100
1000
0010
0100
0001
0100
0010
,
1000
0100
0010
0001
0100
0010
1000
0001
0010
0001
1000
0100
0010
0001
0100
0010
,
0100
0001
1000
0001
0100
0010
1000
0100
0010
0001
1000
0100
1000
0001
0010
0001
,
0100
0010
1000
0100
0010
0001
0100
0010
1000
0001
0010
0100
1000
0100
0010
0001
,
0100
0010
0100
0001
1000
0010
0100
0001
1000
0100
0010
0001
1000
0010
1000
0001
,
0100
0010
1000
0001
0010
0001
0100
0010
1000
0100
0010
0001
0100
0001
0010
0100
,
1000
0010
0100
0010
1000
0001
0100
0001
0010
0100
1000
0010
0100
0010
1000
0100
,
0010
0000
0001
0000
1000
0000
0010
0000
0100
0000
0001
0000
2000
0000
0000
0000
0000
0000
0000
0000
0000
0000
0000
0000
3100
0000
0000
0010
0000
0000
0001
0000
0000
1000
0000
0000
0020
0000
0000
0000
0000
0000
0030
0000
0000
0000
0000
0000
,
1M00
0001
0100
0001
1000
0100
1000
0010
0100
0001
0010
0001
1000
0010
0100
0001
,
0010
0100
1000
0010
0100
0001
1000
0100
0010
0001
0100
0010
0100
0001
1000
0100
,
0010
0001
0100
0010
1000
0001
0010
0001
0100
0010
1000
0100
1000
0001
0100
0010
,
1000
0010
0100
0001
1000
0100
0010
0001
0100
0010
1000
0001
0010
0001
0100
0010
,
1000
0100
0010
0001
0100
0010
1000
0001
0100
0010
1000
0100
0010
0001
0100
0010
,
1000
0001
0010
0001
1000
0100
0010
0001
0100
0010
0100
0001
0010
0100
1000
0010
,
0100
0001
1000
0100
1000
0010
0100
0001
0100
0010
1000
0100
0010
0001
0100
0010
,
1000
0001
0100
0001
1000
0010
0100
0001
0010
0100
1000
0001
0100
0000
0010
1000
,
00M1
0100
0010
1000
0001
0010
0100
1000
0010
0100
0001
0100
0010
1000
0100
0010
,
0001
0100
0010
1000
0001
0010
0001
1000
0100
0010
0001
0100
0010
0100
0001
1000
,
0001
0100
0010
1000
0100
0010
0001
1000
0100
1000
0001
0010
0001
0100
0010
1000
,
0100
0010
0001
0100
0010
1000
0001
0010
0100
1000
0100
0010
0001
0100
0010
0100
,
0001
1000
0010
0100
0001
1000
0100
0010
0001
1000
0010
1000
0001
0100
0010
1000
,
0001
0010
0001
0100
0010
1000
0100
0010
0001
0100
0001
0010
0100
1000
0010
0100
,
0010
1000
0001
0100
0001
0010
0100
1000
0010
0100
0010
1000
0100
0010
0001
0100
,
0010
1000
0001
0010
0001
0100
0010
1000
0000
0001
0100
0000
0010
1000
0001
0100
,
001M
1000
0001
0100
0010
1000
0001
0010
0001
1000
0010
0100
0001
0010
0100
1000
,
0010
0100
0001
1000
0100
0010
0001
0100
0010
0100
0001
1000
0100
0010
0001
0100
,
0010
1000
0001
0010
0001
0100
0010
1000
0100
1000
0001
0100
0010
1000
0010
0100
,
0001
1000
0100
0010
0001
0100
0010
1000
0001
0010
0001
0100
0010
1000
0100
0010
,
0001
0100
0010
1000
0001
0100
0010
1000
0100
0010
0001
0100
0010
1000
0001
0010
,
0001
1000
0100
0010
0001
0100
0010
0100
0001
0010
0100
1000
0010
0100
0001
1000
,
0100
1000
0010
0100
0001
0100
0010
1000
0100
0010
0001
0100
0010
1000
0001
0100
,
0001
1000
0010
0100
0001
1000
0100
0010
0001
0100
0010
1000
0001
0010
0100
1000
,
0010
0100
0001
0100
0010
1000
0100
0010
0001
0100
0010
1000
0001
0010
0001
1000
,
0100
0010
0001
0100
0010
0100
0001
1000
0001
0100
0010
1000
0100
0010
0001
1000
,
0100
1000
0001
0010
0001
0100
0010
1000
0100
0010
0001
0100
0010
1000
0001
0010
,
0100
1000
0100
0010
0001
0100
0010
0100
0001
1000
0010
0100
0001
1000
0100
0010
,
0001
1000
0010
1000
0001
0100
0010
1000
0001
0010
0001
0100
0010
1000
0100
0010
,
0001
0100
0001
0010
0100
1000
0010
0100
0010
1000
0001
0100
0001
0010
0100
1000
,
0010
0100
0010
1000
0100
0010
0001
0100
0010
1000
0001
0010
0001
0100
0010
1000
,
0001
0000
0020
0000
0130
0000
2000
0000
3010
0000
1000
0001
0100
0000
0020
0000
,
1030
0100
0010
0001
0100
0010
1000
0001
0010
0100
1000
0010
0100
0001
0100
0010
,
1000
0100
0010
0001
0100
0010
1000
0001
0010
0001
1000
0100
0010
0001
0100
0010
,
0100
0001
1000
0001
0100
0010
1000
0100
0010
0001
1000
0100
1000
0001
0010
0001
,
0100
0010
1000
0100
0010
0001
0100
0010
1000
0001
0010
0100
1000
0100
0010
0001
,
0100
0010
0100
0001
1000
0010
0100
0001
1000
0100
0010
0001
1000
0010
1000
0001
,
0100
0010
1000
0001
0010
0001
0100
0010
1000
0100
0010
0001
0100
0001
0010
0100
,
1000
0010
0100
0010
1000
0001
0100
0001
0010
0100
1000
0010
0100
0010
1000
0100
,
0010
0001
0100
0010
1000
0001
0010
0001
0100
0010
1000
0100
0010
0001
1000
0010
,
1000
0001
0100
0001
1000
0100
1000
0010
0100
0001
0010
0001
1000
0010
0100
0001
,
0010
0100
1000
0010
0100
0001
1000
0100
0010
0001
0100
0010
0100
0001
1000
0100
,
0010
0001
0100
0010
1000
0001
0010
0001
0100
0010
1000
0100
1000
0001
0100
0010
,
1000
0010
0100
0001
1000
0100
0010
0001
0100
0010
1000
0001
0010
0001
0100
0010
,
1000
0100
0010
0001
0100
0010
1000
0001
0100
0010
1000
0100
0010
0001
0100
0010
,
1000
0001
0010
0001
1000
0100
0010
0001
0100
0010
0100
0001
0010
0100
1000
0010
,
0100
0001
1000
0100
1000
0010
0100
0001
0100
0010
1000
0100
0010
0001
0100
0010
,
1000
0001
0100
0010
1000
0000
0001
0100
0000
0010
1000
0000
0001
0000
0100
0000
,
0010
1000
0001
0010
0100
1000
0001
0100
0010
1000
0100
0010
0001
0100
0010
1000
,
0001
0010
0001
1000
0100
0010
0001
0100
0010
0100
0001
1000
0001
0100
0010
1000
,
0100
0010
0001
1000
0100
1000
0001
0010
0001
0100
0010
1000
0100
0010
0001
0100
,
0010
1000
0001
0010
0100
1000
0100
0010
0001
0100
0010
0100
0001
1000
0010
0100
,
0001
1000
0100
0010
0001
1000
0010
1000
0001
0100
0010
1000
0001
0010
0001
0100
,
0010
1000
0100
0010
0001
0100
0001
0010
0100
1000
0010
0100
0010
1000
0001
0100
,
0001
0010
0100
1000
0010
0100
0010
1000
0100
0010
0001
0100
0010
1000
0001
0010
,
0100
1000
0100
0010
0001
1000
0001
0100
0010
1000
0100
0010
0001
0100
0010
1000
,
0M01
0010
0001
1000
0100
0010
0001
0100
0010
0100
0001
1000
0001
0100
0010
1000
,
0100
0010
0001
1000
0100
1000
0001
0010
0001
0100
0010
1000
0100
0010
0001
0100
,
0010
1000
0001
0010
0100
1000
0100
0010
0001
0100
0010
0100
0001
1000
0010
0100
,
0001
1000
0100
0010
0001
1000
0010
1000
0001
0100
0010
1000
0001
0010
0001
0100
,
001M
1000
0100
0010
0001
0100
0001
0010
0100
1000
0010
0100
0010
1000
0001
0100
,
0001
0010
0100
1000
0010
0100
0010
1000
0100
0010
0001
1000
0001
0010
0100
1000
,
0010
0100
0001
0100
0010
1000
0100
0010
0001
0100
0010
1000
0001
0010
0001
1000
,
0020
0000
0000
0000
0030
0000
2000
0000
3000
0020
0000
0000
0030
0100
0001
1000
,
0020
0000
000M
M000
0030
0M00
000M
M000
0000
00M0
0M00
000M
0000
0000
M000
0000
,
0000
0000
0000
0000
,
0000
0000
0000
0000
0000
0000
0000
0000
0000
0000
0000
0000
0000
0000
0000
0000
0000
0000
0000
0000
0000
0000
0000
0000
0000
0000
0000
0000
0000
0000
0000
0000
0000
0000
0000
0000
0000
0000
0000
0000
0000
0000
0000
0000
0000
0000
0000
0000
0000
0000
0000
0000
0000
0000
0000
0000
0000
0000
0000
0000
0000
0000
0000
0000
0000
0000
0000
0000
0000
0000
0000
0000
0000
0000
0000
0000
0000
0000
0000
0000
0000
0000
0000
0000
0000
0000
0000
0000
0000
0000
0000
0000
0000
0000
0000
0000
0000
0000
0000
0000
0000
0000
0000
0000
0000
0000
0000
0000
0000
0000
0000
0000
0000
0000
0000
0000
0000
0000
0000
0000
0000
0000
0000
0000
0000
0000
0000
0000
0000
0000
0000
0000
0000
0000
0000
0000
0000
0000
0000
0000
0000
1000
0000
0000
0000
0000
0000
0000
0002
0000
0000
0000
0000
0000
0000
0000
0000
0000
0000
0000
0000
0000
0000
0000
0000
0000
0000
0000
0000
0000
0000
0000
0000
0000
0000
0000
0000
0000
0000
0000
0000
0000
0000
0000
0000
0000
0000
0000
0000
0000
0000
0000
,
0000
0000
0000
0000
0000
0000
0000
0000
0000
0000
0000
0000
0000
0000
0000
0000
0000
0000
0000
0000
0000
0000
0000
0000
0000
0000
0000
0000
0000
0000
0000
0000
0000
0000
0000
0000
0000
0000
0000
0000
0000
0000
0000
0000
0000
0000
0000
0000
0000
0000
0000
0000
0000
0000
0000
0000
0000
0000
0000
0000
0000
0000
0000
0000
0000
0000
0000
0000
0000
0000
0000
0000
0000
0000
0000
0000
0000
0000
0000
0000
0000
0000
0000
0000
0000
0000
0000
0000
0000
0003
0000
0000
0000
0000
0000
0000
0000
0000
0000
0000
0000
0000
0000
0000
0000
0000
0000
0000
0000
0000
0000
0000
0000
0000
0000
0000
0000
0000
0000
0000
0000
0000
0000
0000
0000
0000
0000
0000
0000
0000
0000
0000
0000
0000
0000
0000
0000
0000
0000
0000
0000
0000
0000
0000
0000
0000
0000
0000
0000
0000
0000
0000
1000
0000
0000
0000
0000
0000
0000
0000
0000
0000
0000
0000
0000
0000
0000
0000
0000
0000
0000
0000
0000
0000
0000
0000
0000
0000
0000
0000
0000
0000
0000
0010
0000
0000
0000
0000
0000
0000
0000
0000
,
0000
0000
0000
0000
0000
0000
0000
0000
0000
0000
0000
0000
0000
0000
0000
0000
0000
0000
0000
0000
0000
0000
0100
0000
0000
0000
0000
0000
0000
0000
0000
0000
0000
0000
0000
0000
0000
0000
0000
0000
0000
0000
0000
0000
0000
0000
0000
0000
0000
0000
0000
0000
0000
0000
0000
0000
0000
0000
0000
0000
0000
0000
0000
0000
0000
0000
0000
0000
0000
0000
0000
0000
0000
0000
0000
0004
0000
0000
0000
0000
0000
0000
0000
0000
0000
0000
0000
0000
0000
0000
0000
0000
0000
0000
0000
0000
0000
0000
0000
0000
0000
0000
0000
0000
0000
0003
0000
0000
0000
0000
0000
0000
0000
0000
0000
0000
0000
0000
0000
0000
0000
0000
0000
0000
0000
0000
4000
0000
0000
0000
0000
0000
0000
0000
0000
0000
0000
0000
0000
0000
0000
0000
0000
0000
0000
0000
0000
0000
0000
0000
0000
0000
0000
0000
0000
3000
0000
0000
0000
0000
0000
0000
0000
0000
0000
0000
0000
0000
0000
0000
0000
0000
0000
0000
0000
0000
0004
0000
0000
0000
0000
0000
0000
0000
0000
0000
0000
0000
0000
0000
0000
0000
,
0000
0000
0000
0000
0000
0000
0000
0000
0000
0003
0000
0000
0000
0000
0000
0000
0000
0000
0000
0000
0000
0000
0000
0000
0000
0000
0000
0000
0000
0000
0000
0000
0000
0000
0000
0000
0000
0000
0000
0000
0000
0000
4000
0000
0000
0000
0000
0000
0000
0000
0000
0000
0000
0000
0000
0000
0000
0000
3000
0000
0000
0000
0000
0000
0000
0000
0000
0000
0000
0000
0000
0000
0000
0000
0000
0000
0000
0000
0000
0000
0000
0000
0000
0000
0000
0000
0000
0000
0000
0000
0000
0000
0000
0000
0000
0000
0000
0000
0000
0000
0000
0000
0000
0000
0000
0000
0000
0000
0000
0000
0000
0000
0000
0000
0000
0000
0000
0000
0000
0000
0000
0000
0000
0000
0000
0000
0000
0000
0000
0000
0000
0000
0000
0000
0000
0000
0000
0000
0000
0000
0000
0000
0000
0000
0040
0000
0000
0000
0000
0000
0000
0000
0000
0000
0000
0000
0000
0000
0000
0000
0000
0000
0000
0000
0000
0000
0000
0000
0130
0000
0000
0000
0000
0000
0000
0000
0000
0000
0000
0000
0001
0000
0000
0000
0000
0000
0000
0000
0000
0000
0000
0000
,
1000
0000
0100
0010
0001
0000
0100
0000
0010
0000
1000
0001
0100
0000
0010
1000
,
0001
0000
0010
0000
0100
0000
2000
0000
3001
0010
0100
1000
0004
0000
0103
0010
,
1000
0000
0001
0100
0010
0000
1000
0000
0000
0000
0402
0300
0003
0000
1000
0000
,
0100
0010
0001
1000
0010
0100
0001
1000
0100
1000
0001
0100
0020
0000
1030
0001
,
0100
0000
0020
1030
0001
0000
0100
0000
0020
0000
1030
0001
0200
0000
0301
1000
,
0001
0000
0200
0000
0310
0000
1000
0000
0002
0013
0100
1000
0002
0000
0103
0010
,
1000
0000
0100
0010
0001
0000
0100
0000
0010
0000
1000
0001
0100
0000
0010
1000
,
0001
0000
0000
0000
0010
0000
0000
0000
0100
0000
0000
0000
1000
0000
0000
0000
0001
0000
0010
0000
0100
1000
0010
0100
0002
0000
0000
0000
1003
0000
0001
0000
,
0100
0000
0020
1030
0001
0000
0100
0000
0020
0000
1030
0001
0200
0000
0301
1000
,
0001
0000
0200
0000
0310
0000
1000
0000
0002
0013
0100
1000
0002
0000
0103
0010
,
1000
0000
0100
0010
0001
0000
0100
0000
0010
0000
1000
0001
0200
0000
0310
1000
,
0002
0000
0000
0000
0013
0000
0000
0000
0200
0000
0000
0000
1300
0000
0000
0000
0002
0000
0103
0000
0010
1000
0001
0100
0020
0000
0000
0000
1030
0000
0001
0000
,
0100
0000
0020
1030
0001
0000
0200
0000
0320
0000
2030
3001
0100
0000
0001
1000
,
0001
0000
0100
0000
0020
0000
2030
0000
3002
0013
0200
1300
0002
0000
0103
0010
,
1000
0000
0200
0310
0001
0000
0100
0000
0020
0000
1030
0001
0200
0000
0310
1000
,
0001
0000
0000
0000
0010
0000
0000
0000
0100
0000
0000
0000
1000
0000
0000
0000
0002
0000
0013
0000
0100
1000
0001
0100
0020
0000
0000
0000
1030
0000
0001
0000
,
0100
0000
0020
1030
0001
0000
0100
0000
0020
0000
1030
0001
0200
0000
0301
1000
,
0002
0000
0103
0000
0040
0000
1030
0000
0002
0013
0100
1000
0002
0000
0103
0010
,
1000
0000
0100
0010
0001
0000
0100
0000
0010
0000
2000
3001
0200
0000
0310
1000
,
0002
0000
0000
0000
0013
0000
0000
0000
0200
0000
0000
0000
1300
0000
0000
0000
0002
0000
0103
0000
0010
1000
0001
0100
0010
0000
1000
0000
0001
0000
0100
0000
,
0010
1000
0100
0010
0001
0100
0010
0100
0001
1000
0010
0100
0001
0010
0100
1000
,
0010
0100
0001
1000
0100
0010
0001
0100
0010
0100
0001
1000
0100
0010
0001
0100
,
0010
1000
0001
0010
0001
0100
0010
1000
0100
1000
0001
0100
0010
1000
0010
0100
,
0001
1000
0100
0010
0001
0100
0010
1000
0001
0010
0001
0100
0010
1000
0100
0010
,
0001
0100
0010
1000
0001
0100
0010
1000
0100
0010
0001
0100
0010
1000
0001
0010
,
0001
1000
0100
0010
0001
0100
0010
0100
0001
0010
0100
1000
0010
0100
0001
1000
,
0100
1000
0010
0100
0001
0100
0010
1000
0100
0010
0001
0100
0010
1000
0001
0100
,
0001
1000
0010
0100
0001
1000
0100
0010
0001
0100
0010
1000
0001
0010
0100
1000
,
0010
0100
0001
0100
0010
1000
0100
0010
0001
0100
0010
1000
0001
0010
0001
1000
,
0100
0010
0001
0100
0010
0100
0001
1000
0001
0100
0010
1000
0100
0010
0001
1000
,
0100
1000
0001
0010
0001
0100
0010
1000
0100
0010
0001
0100
0010
1000
0001
0010
,
0100
1000
0100
0010
0001
1000
0010
0100
0001
0010
0100
1000
0010
0100
0001
1000
,
0100
0010
0001
0100
0010
0100
0001
1000
0100
0010
0001
0100
0010
1000
0001
0010
,
0001
0100
0010
1000
0100
1000
0001
0100
0010
1000
0010
0100
0001
1000
0100
0010
,
0001
0100
0010
1000
0001
0010
0001
0100
0010
1000
0100
0010
0001
0100
0010
1000
,
0001
0100
0010
1000
0100
0010
0001
0100
0010
0000
1000
0000
0002
0000
0003
0000
,
0000
0000
0000
0000
0000
0000
0000
0000
0000
0000
0000
0000
0000
0000
0000
0000
0000
0000
0000
0000
0000
0000
0000
0000
0000
0000
2000
0000
0000
0000
0000
0000
0000
0000
0000
0000
0000
0000
0000
0000
0000
0000
0000
0000
0000
0000
3000
0000
0000
0000
0002
0000
0000
0000
0000
0000
0000
0000
0000
0000
0000
0000
0000
0000
0000
0000
0000
0000
0000
0003
0000
0000
0200
0000
0000
0000
0000
0000
0000
0000
0000
0000
0000
0000
0000
0000
0000
0000
0000
0000
0000
0000
0000
0000
0000
0000
,
0320
0000
4030
3000
0004
0103
0000
4010
,
3000
0001
0400
0310
4000
3001
0000
0140
,
0030
1000
0004
0103
0040
1030
0000
2002
,
3003
0220
0330
0202
0303
2200
3300
0220
,
0330
0022
0033
2000
3004
0203
0300
2040
,
3030
0002
0403
0320
4030
3002
0003
0240
,
0330
2000
3004
0203
0340
2030
3000
2002
,
3003
0220
0330
0202
0303
4200
3300
0420
,
0330
0042
0033
2004
3003
0240
0330
0204
,
0303
4020
3030
0420
0330
2002
3003
0202
,
0303
0020
2030
3002
0203
0320
0030
2004
,
3003
0010
0400
0301
4000
3200
0300
0022
,
0033
2002
3003
0040
4030
3004
0003
0420
,
0330
2000
3040
0230
0304
2003
3400
0310
,
0001
1000
0010
0100
0001
1000
0100
1000
,
0001
0100
0010
1000
0001
0010
0001
1000
,
0100
0010
0001
0100
002M
1030
0100
0020
,
0031
1000
0020
1030
0002
0103
0001
2000
,
3100
0010
0002
0103
0020
1030
0001
0010
,
0001
1000
0100
1000
0001
0100
0010
1000
,
0001
0010
0001
1000
0200
0310
0001
0200
,
0310
1000
0020
0130
0002
1003
0100
0020
,
0031
1000
0020
1030
0200
0310
0001
0100
,
0010
1000
0001
0010
0002
0103
0020
1030
,
0200
0310
0002
0103
M020
0130
0001
1000
,
0100
0000
0020
0000
0031
0000
0200
0000
0310
1000
0100
0010
0001
0100
0010
1000
,
0001
0010
0001
1000
0100
0010
0001
0100
0010
1000
0001
0100
0001
1000
0010
0100
,
0001
1000
0100
0010
0001
0100
0010
1000
0001
0010
0001
1000
0100
0010
0001
0100
,
0010
1000
0001
0010
0001
0100
0010
1000
0001
1000
0010
0100
0010
1000
0001
0010
,
0001
1000
0100
0010
0001
0100
0001
1000
0010
1000
0001
0100
0010
1000
0100
0010
,
0001
0100
0010
1000
0001
0010
0100
1000
0002
0000
0000
0000
0003
0000
0200
0000
,
0300
0010
0000
1000
0000
0002
0000
0000
0103
0000
0010
0000
1000
0000
0001
0000
,
0010
0000
0100
1000
0002
0000
0000
0000
1003
0010
0100
0001
0010
0100
1000
0010
,
0100
0001
1000
0100
0010
0001
0100
0010
0100
0001
1000
0100
0010
0001
0100
0010
,
1000
0001
0010
0001
0100
0010
1000
0100
1000
0001
0100
0010
1000
0010
0100
0001
,
1000
0100
0010
0001
0100
0010
1000
0001
0010
0001
0100
0010
1000
0100
0010
0001
,
0100
0010
1000
0001
0100
0010
1000
0100
0010
0001
0100
0010
1000
0001
0010
0001
,
1000
0100
0010
0001
0100
0010
0100
0001
0010
0100
1000
0010
0100
0001
1000
0100
,
1000
0010
0100
0001
0100
0010
1000
0100
0010
0001
0100
0010
1000
0001
0100
0001
,
1000
0010
0100
0001
0010
0100
1000
0001
1000
0010
0100
0001
0010
0100
1000
0010
,
0100
0001
1000
0100
0010
0001
0100
0010
0100
0001
1000
0100
0010
0001
0100
0010
,
1000
0001
0010
0001
0100
0010
1000
0100
1000
0001
0100
0010
1000
0010
0100
0001
,
1000
0100
0010
0001
0100
0010
1000
0001
0010
0001
0100
0010
1000
0100
0010
0001
,
0100
0010
1000
0001
0100
0010
1000
0100
0010
0001
0100
0010
1000
0001
0010
0001
,
1000
0100
0010
0001
0100
0010
0100
0001
0010
0100
1000
0010
0100
0001
1000
0100
,
1000
0010
0100
0001
0100
0010
1000
0100
0010
0001
0100
0010
1000
0001
0100
0001
,
1000
0010
0100
0001
0010
0100
1000
0001
0100
0001
1000
0010
1000
0100
0010
0001
,
0100
0010
0100
0001
1000
0010
0100
0001
0010
0100
1000
0010
0100
0000
0001
0010
,
0000
0100
1000
0000
0001
0000
0100
0000
M001
0010
0100
1000
0010
0100
0001
1000
,
0100
0010
0001
0100
0010
0100
0001
1000
0100
0010
0001
0100
0010
1000
0001
0010
,
0001
0100
0010
1000
0100
1000
0001
0100
0010
1000
0010
0100
0001
1000
0100
0010
,
0001
0100
0010
1000
0001
0010
0001
0100
0010
1000
0100
0010
0001
0100
0010
1000
,
0001
0100
0010
1000
0100
0010
0001
0100
0010
1000
0001
0010
0001
1000
0100
0010
,
0001
0100
0010
0100
0001
0010
0100
1000
0010
0100
0001
1000
0100
1000
0010
0100
,
0001
0100
0010
1000
0100
0010
0001
0100
0010
1000
0001
0100
0001
1000
0010
0100
,
0001
0010
0100
1000
0001
1000
0010
0100
0001
0010
0100
1000
0010
0100
0001
1000
,
0100
0010
0001
0100
0010
0100
0001
1000
0100
0010
0001
0100
0010
1000
0001
0010
,
0001
0100
0010
1000
0100
1000
0001
0100
0010
1000
0010
0100
0001
1000
0100
0010
,
0001
0100
0010
1000
0001
0010
0001
0100
0010
1000
0100
0010
0001
0100
0010
1000
,
0001
0100
0010
1000
0100
0010
0001
0100
0010
1000
0001
0010
0001
1000
0100
0010
,
0001
1000
0010
0100
0001
0010
0100
1000
0010
0100
0001
1000
0100
1000
0010
0100
,
0001
0100
0010
1000
0100
0010
0001
0100
0010
1000
0001
0100
0001
1000
0010
0100
,
0001
0010
0100
1000
0001
0100
0010
1000
0002
0000
0000
0000
0003
0000
0200
0000
,
0300
0010
0000
1000
0000
0002
0000
0000
0103
0000
0010
0000
1000
0000
0001
0000
,
0010
0000
0100
1000
0002
0000
0000
0000
1003
0010
0100
0001
0010
0100
1000
0010
,
0100
0001
1000
0100
0010
0001
0100
0010
0100
0001
1000
0100
0010
0001
0100
0010
,
1000
0001
0010
0001
0100
0010
1000
0100
1000
0001
0100
0010
1000
0010
0100
0001
,
1000
0100
0010
0001
0100
0010
1000
0001
0010
0001
0100
0010
1000
0100
0010
0001
,
0100
0010
1000
0001
0100
0010
1000
0100
0010
0001
0100
0010
1000
0001
0010
0001
,
1000
0100
0010
0001
0100
0010
0100
0001
0010
0100
1000
0010
0100
0001
1000
0100
,
1000
0010
0100
0001
0100
0010
1000
0100
0010
0001
0100
0010
1000
0001
0100
0001
,
1000
0010
0100
0001
0010
0100
1000
0001
1000
0010
0100
0001
0010
0100
1000
0010
,
0100
0001
1000
0100
0010
0001
0100
0010
0100
0001
1000
0100
0010
0001
0100
0010
,
1000
0001
0010
0001
0100
0010
1000
0100
1000
0001
0100
0010
1000
0010
0100
0001
,
1000
0100
0010
0001
0100
0010
1000
0001
0010
0001
0100
0010
1000
0100
0010
0001
,
0100
0010
1000
0001
0100
0010
1000
0100
0010
0001
0100
0010
1000
0001
0010
0001
,
1000
0100
0010
0001
0100
0010
0100
0001
0010
0100
1000
0010
0100
0001
1000
0100
,
1000
0010
0100
0001
0100
0010
1000
0100
0010
0001
0100
0010
1000
0001
0100
0001
,
1000
0010
0100
0001
0010
0100
1000
0001
0100
0001
1000
0010
1000
0100
0010
0001
,
0100
0010
0100
0001
1000
0010
0100
0001
0010
0100
1000
0010
0100
0000
0001
0010
,
0000
0100
1000
0000
0001
0000
0100
0000
M001
0010
0100
1000
0010
0100
0001
1000
,
0100
0010
0001
0100
0010
0100
0001
1000
0100
0010
0001
0100
0010
1000
0001
0010
,
0001
0100
0010
1000
0100
1000
0001
0100
0010
1000
0010
0100
0001
1000
0100
0010
,
0001
0100
0010
1000
0001
0010
0001
0100
0010
1000
0100
0010
0001
0100
0010
1000
,
0001
0100
0010
1000
0100
0010
0001
0100
0010
1000
0001
0010
0001
1000
0100
0010
,
0001
0100
0010
0100
0001
0010
0100
1000
0010
0100
0001
1000
0100
1000
0010
0100
,
0001
0100
0010
1000
0100
0010
0001
0100
0010
1000
0001
0100
0001
1000
0010
0100
,
0001
0010
0100
1000
0001
1000
0010
0100
0001
0010
0100
1000
0010
0100
0001
1000
,
0100
0010
0001
0100
0010
0100
0001
1000
0100
0010
0001
0100
0010
1000
0001
0010
,
0001
0100
0010
1000
0100
1000
0001
0100
0010
1000
0010
0100
0001
1000
0100
0010
,
0001
0100
0010
1000
0001
0010
0001
0100
0010
1000
0100
0010
0001
0100
0010
1000
,
0001
0100
0010
1000
0100
0010
0001
0100
0010
1000
0001
0010
0001
1000
0100
0010
,
0001
1000
0010
0100
0001
0010
0100
1000
0010
0100
0001
1000
0100
1000
0010
0100
,
0001
0100
0010
1000
0100
0010
0001
0100
0010
1000
0001
0100
0001
1000
0010
0100
,
0001
0010
0100
1000
0001
0100
0001
1000
0020
0000
0000
0000
0030
0000
0200
0000
,
0300
0010
0000
1000
0000
0002
0000
0000
0103
0000
0010
0000
1000
0000
0001
0000
,
0010
0000
0100
1000
0002
0000
0000
0000
1003
0010
0100
0001
0010
0100
1000
0010
,
0100
0001
1000
0100
0010
0001
0100
0010
0100
0001
1000
0100
0010
0001
0100
0010
,
1000
0001
0010
0001
0100
0010
1000
0100
1000
0001
0100
0010
1000
0010
0100
0001
,
1000
0100
0010
0001
0100
0010
1000
0001
0010
0001
0100
0010
1000
0100
0010
0001
,
0100
0010
1000
0001
0100
0010
1000
0100
0010
0001
0100
0010
1000
0001
0010
0001
,
1000
0100
0010
0001
0100
0010
0100
0001
0010
0100
1000
0010
0100
0001
1000
0100
,
1000
0010
0100
0001
0100
0010
1000
0100
0010
0001
0100
0010
1000
0001
0100
0001
,
1000
0010
0100
0001
0010
0100
1000
0001
1000
0010
0100
0001
0010
0100
1000
0010
,
0100
0001
1000
0100
0010
0001
0100
0010
0100
0001
1000
0100
0010
0001
0100
0010
,
1000
0001
0010
0001
0100
0010
1000
0100
1000
0001
0100
0010
1000
0010
0100
0001
,
1000
0100
0010
0001
0100
0010
1000
0001
0010
0001
0100
0010
1000
0100
0010
0001
,
0100
0010
1000
0001
0100
0010
1000
0100
0010
0001
0100
0010
1000
0001
0010
0001
,
1000
0100
0010
0001
0100
0010
0100
0001
0010
0100
1000
0010
0100
0001
1000
0100
,
1000
0010
0100
0001
0100
0010
1000
0100
0010
0001
0100
0010
1000
0001
0100
0001
,
1000
0010
0100
0001
0010
0100
1000
0001
0100
0001
1000
0010
1000
0100
0010
0001
,
0100
0010
0100
0001
1000
0010
0100
0001
0010
0100
1000
0010
0100
0000
0001
0010
,
0000
0001
1000
0000
0010
0000
0100
0000
M001
0010
0100
1000
0010
0100
0001
1000
,
0100
0010
0001
0100
0010
0100
0001
1000
0100
0010
0001
0100
0010
1000
0001
0010
,
0001
0100
0010
1000
0100
1000
0001
0100
0010
1000
0010
0100
0001
1000
0100
0010
,
0001
0100
0010
1000
0001
0010
0001
0100
0010
1000
0100
0010
0001
0100
0010
1000
,
0001
0100
0010
1000
0100
0010
0001
0100
0010
1000
0001
0010
0001
1000
0100
0010
,
0001
0100
0010
0100
0001
0010
0100
1000
0010
0100
0001
1000
0100
1000
0010
0100
,
0001
0100
0010
1000
0100
0010
0001
0100
0010
1000
0001
0100
0001
1000
0010
0100
,
0001
0010
0100
1000
0001
1000
0010
0100
0001
0010
0100
1000
0010
0100
0001
1000
,
0100
0010
0001
0100
0010
0100
0001
1000
0100
0010
0001
0100
0010
1000
0001
0010
,
0001
0100
0010
1000
0100
1000
0001
0100
0010
1000
0010
0100
0001
1000
0100
0010
,
0001
0100
0010
1000
0001
0010
0001
0100
0010
1000
0100
0010
0001
0100
0010
1000
,
0001
0100
0010
1000
0100
0010
0001
0100
0010
1000
0001
0010
0001
1000
0100
0010
,
0001
1000
0010
0100
0001
0010
0100
1000
0010
0100
0001
1000
0100
1000
0010
0100
,
0001
0100
0010
1000
0100
0010
0001
0100
0010
1000
0001
0100
0001
1000
0010
0100
,
0001
0010
0100
1000
0001
0100
0001
1000
0010
1000
0100
0010
0001
0100
0010
0100
,
0001
1000
0010
0100
0001
0010
0100
1000
0001
0000
0100
0010
1000
0000
0100
0010
,
0001
0000
1000
0010
0100
0000
0001
1000
0010
1000
0100
0010
0001
0100
0010
0100
,
0001
1000
0010
0100
0001
0010
0100
1000
0010
0100
0001
1000
0100
0010
0001
0100
,
0010
0100
0001
1000
0100
0010
0001
0100
0010
1000
0001
0010
0001
0100
0010
1000
,
0100
1000
0001
0100
0010
1000
0010
0100
0001
1000
0100
0010
0001
0100
0010
1000
,
0001
0010
0001
0100
0010
1000
0100
0010
0001
0100
0010
1000
0001
0100
0010
1000
,
0100
0010
0001
0100
0010
1000
0001
0010
0001
1000
0100
0010
0001
0100
0010
0100
,
0001
0010
0100
1000
0010
0100
0001
1000
0100
1000
0010
0100
0001
0100
0010
1000
,
0100
0010
0001
0100
0010
1000
0001
0100
0001
1000
0010
0100
0001
1000
0100
0010
,
0001
0100
0010
1000
0001
0010
0100
1000
0010
0100
0001
0100
0010
1000
0100
0010
,
0001
0100
0010
1000
0001
0010
0001
1000
0100
0010
0001
0100
0010
0100
0001
1000
,
0001
0100
0010
1000
0100
0010
0001
1000
0100
1000
0001
0010
0001
0100
0010
1000
,
0100
0010
0001
0100
0010
1000
0001
0010
0100
1000
0100
0010
0001
1000
0010
0100
,
0001
0010
0100
1000
0010
0100
0001
1000
0100
0010
0001
0100
0010
0100
0001
1000
,
0100
0010
0001
0100
0010
1000
0001
0010
0001
0100
0010
1000
0100
1000
0001
0100
,
0010
1000
0010
0100
0001
1000
0100
0010
0001
0000
0100
0010
1000
0000
0001
0100
,
0010
0000
1000
0100
1000
0000
0001
0100
0001
0000
1000
0100
0010
0000
0001
0100
,
0010
0000
1000
0010
0100
0000
0001
1000
0020
0000
003M
0000
0000
0000
M000
0000
,
0000
000M
0000
M000
0000
000M
0000
M000
,
0000
000M
0000
M000
0000
M000
0000
M000
,
0000
M000
0000
M000
0000
M000
0000
M000
,
0000
M000
0000
M000
0000
M000
0000
M000
,
0000
0000
0000
0000
,
0000
0000
0000
0000
,
0000
0000
0000
0000
,
0000
0000
0000
0000
;
