#TITLE:Virus;
#SUBTITLE:;
#ARTIST:Heavenly;
#TITLETRANSLIT:;
#SUBTITLETRANSLIT:;
#ARTISTTRANSLIT:;
#CREDIT:B. Abear;
#BANNER:;
#BACKGROUND:;
#LYRICSPATH:;
#CDTITLE:;
#MUSIC:03-heavenly-virus-nth.ogg;
#OFFSET:-0.620;
#SAMPLESTART:99.580;
#SAMPLELENGTH:12.000;
#SELECTABLE:YES;
#DISPLAYBPM:200.000;
#BPMS:0.000=200.000,61.000=400.000,64.000=200.000,280.000=400.000,284.000=200.000,1000.000=195.000,1001.000=190.000,1002.000=185.000,1003.000=180.000,1003.750=170.000,1004.750=165.000,1005.625=160.000,1006.750=155.000,1008.000=150.000,1009.000=145.000,1010.750=140.000,1036.000=150.000,1036.750=155.000,1037.500=165.000,1038.250=175.000,1039.000=180.000,1040.000=190.000,1044.000=200.000,1192.000=40.000;
#STOPS:64.000=0.150
,181.000=1.500
,284.000=0.300
,467.000=0.300
,500.000=0.900
,513.000=0.900
,574.500=0.600
,603.500=0.300
,606.500=0.900
,1081.000=0.300
,1114.000=0.900
,1127.000=0.900
;
#BGCHANGES:;
// cache tags:
#FIRSTBEAT:20.000;
#LASTBEAT:1192.000;
#SONGFILENAME:Songs/SSSC Pack 2/Virus - [Cosmic Pope]/Virus.sm;
#HASMUSIC:1;
#HASBANNER:0;
#MUSICLENGTH:374.282;
// end cache tags

//---------------dance-single - B. Abear----------------
#NOTES:
     dance-single:
     B. Abear:
     Challenge:
     14:
     0.982,1.000,0.484,0.973,0.377,2013.000,181.000,364.000,198.000,3.000:

0000
0000
0000
0000
,
0000
0000
0000
0000
,
0000
0000
0000
0000
,
0000
0000
0000
0000
,
0000
0000
0000
0000
,
0001
0MM0
0001
0MM0
0001
0MM0
0001
0000
,
1000
0100
1000
0100
0010
0000
MM11
0000
0001
0000
1000
0000
1M1M
0000
1000
0000
,
0001
0100
0001
0100
0010
0000
1M1M
0000
1000
0000
0001
0000
MM11
0000
0010
0000
,
11MM
1000
0002
0103
0100
0020
1030
1000
,
0002
0013
0010
0200
1300
1000
0002
0203
,
0310
0010
1001
1000
1000
0001
1100
1000
,
0001
0100
0010
0000
0100
0000
0001
0000
0100
0000
1000
0000
0100
0000
0001
0000
,
1001
1000
0002
0013
0010
0200
1300
1000
,
0020
0000
0130
0000
0100
0000
0002
0000
1003
0000
1000
0000
1001
0000
0001
0010
,
0100
0000
1000
0000
0001
0000
0101
0000
0000
0000
0100
0001
1000
0000
0001
0000
,
0010
0011
0000
0000
0000
0000
0000
0000
,
MMMM
0000
1001
0001
2000
3010
0010
0200
,
0301
0001
2000
3100
0100
0020
0031
0001
,
2000
3020
0130
0100
0002
1003
1000
1000
,
0002
0000
0023
0000
0031
0100
0010
0000
0100
0000
0001
0000
0100
0000
1000
0000
,
0100
0001
1000
1000
0002
0013
0010
0200
,
1300
1000
0020
0130
0100
0002
1003
1000
,
0002
0000
0023
0030
M11M
0000
0100
0000
1000
0000
M1M1
0000
0100
0000
0010
0000
,
1M1M
1000
M1M1
0001
0010
M11M
0100
1000
,
MM11
0001
1MM1
1000
0200
0310
0010
0002
,
0103
0100
0020
1030
1000
0002
0013
0010
,
0200
2300
3001
0001
2000
3100
0100
0100
,
0020
0031
1000
0100
0001
0100
1000
0001
,
1000
0010
0100
0100
0002
1003
1000
0200
,
0310
0010
0002
1003
1000
0020
1030
1000
,
0200
0000
0320
0030
MM11
0000
0001
0000
1000
0000
1M1M
0000
0010
0000
0100
0000
,
M1M1
0000
0001
0000
0100
0001
0100
0001
1000
0100
1000
0100
0010
0001
0010
0001
,
1000
0010
1000
0010
0100
0000
0001
0000
2000
0000
3100
0000
0010
0000
0002
0000
,
1003
0010
0200
0301
1000
0002
0013
0010
,
0200
2300
3001
0001
0200
0310
1000
0002
,
0013
0000
0100
0000
1000
0100
0010
0000
0001
0000
1000
0000
0010
0000
0100
0000
,
0001
1000
0001
0001
0020
0130
0100
2000
,
3100
0100
0020
0031
0001
2000
3001
0001
,
0200
0000
0000
0320
0000
0000
1030
0000
0100
0000
1000
0000
0001
0000
0100
0000
0001
0000
1000
0000
0010
0000
1000
0000
,
0001
0000
0010
0000
0001
0000
1000
0000
0000
1000
0000
0000
0002
0000
0000
0103
0000
0000
0100
0000
0000
0020
0000
0000
,
1030
1000
0002
0013
0010
0200
1300
1000
,
0002
0203
0310
0010
2000
3001
0001
0001
,
2000
3100
0100
0001
0100
1000
0001
0100
,
0010
1000
0001
0001
0200
0310
0010
2000
,
3001
0001
0020
0130
0100
2000
3001
0001
,
0200
0000
0310
0000
1MM1
0000
0001
1000
0010
0000
0010
0000
0010
0000
0010
0000
,
1000
0001
0011
0010
0100
1100
1000
0001
,
1000
0000
0010
0000
0110
0000
0100
0001
0100
0000
0001
0000
0010
0000
0100
0000
,
1100
1000
1001
0001
0100
0110
0010
1000
,
0001
0000
0010
0000
0110
0000
0100
1000
0001
0000
0001
0000
1000
0000
1000
0000
,
0001
0100
0110
0010
1000
1001
0001
0010
,
0001
0000
1000
0000
1100
0000
0100
0010
0001
0000
1000
0000
0001
0000
0010
0000
,
MM11
0001
1000
1M1M
0010
0100
M1M1
0001
,
1000
11MM
0100
0010
MM11
1000
11MM
0001
,
1000
0001
1001
1000
0001
0101
0100
0010
,
1000
0000
0010
0000
0110
0000
0100
0001
0100
0000
0001
0000
0010
0000
0100
0000
,
1100
1000
1001
0001
0010
0110
0100
1000
,
0001
0000
0010
0000
0011
0000
0001
1000
0001
0000
0001
0000
1000
0000
1000
0000
,
0001
0100
0110
0010
1000
1001
0001
0010
,
0001
0000
1000
0000
1100
0000
0100
0010
0001
0000
1000
0000
0001
0000
0010
0000
,
MM11
0001
1000
1M1M
0010
0100
M1M1
0001
,
1000
11MM
0100
0010
MM11
1000
11MM
0100
,
0010
0000
0001
0010
0001
0000
1000
0010
1000
0000
0001
0100
0001
0000
1000
0100
,
1000
0000
0001
0100
0001
0000
1000
0010
0200
0000
0302
0000
0203
0300
0102
0000
,
0000
1003
1100
0100
1000
0001
0101
0002
,
0000
0000
1003
0000
0001
0000
0010
0001
1000
0000
1000
0000
0001
0000
2001
0000
,
0000
0000
3001
0100
0001
0000
1000
0100
1000
0000
0001
0010
0001
0000
1000
0010
,
1000
0000
0001
0100
0001
0000
1000
0100
0020
0000
0032
0000
0023
0030
0210
0000
,
0000
0000
1300
0001
0100
0000
0010
0000
1000
0000
0001
0000
0010
0000
0012
0000
,
0000
1003
0010
0100
0001
1000
1100
0110
,
0000
0000
0000
0000
,
MMMM
0000
0002
0010
1003
0002
0100
1003
,
0002
0010
1003
0002
0100
1003
0001
001M
,
01M0
1M00
M020
0100
1030
0020
1000
0130
,
0001
1200
0000
0000
0000
0000
2000
0000
,
0300
0000
3002
0100
1003
0002
0013
1000
,
0002
0100
1003
0002
0010
1003
0001
001M
,
01M0
1M00
M101
0001
1000
1100
0100
0010
,
0011
0001
1000
1001
0001
1000
1001
0100
,
1001
0100
0001
0010
0100
1000
0001
0100
,
0010
0100
0002
2003
3001
0010
0100
1000
,
0001
0100
0020
0230
0301
2000
3200
0310
,
0002
2003
3001
0200
0320
1030
0001
010M
,
0M10
10M0
M002
0023
0130
1000
0001
1000
,
0010
0100
0002
0023
0031
1000
0010
0100
,
0001
1000
1100
0100
0010
0011
0001
1000
,
1001
0001
0100
0110
0010
1000
1001
0010
,
1001
0000
0001
0000
1000
0001
1000
0001
1000
0001
0100
0001
0100
0001
0100
0001
,
0100
0010
0100
0010
0100
0010
1000
0010
1000
0010
1000
0010
0100
0001
0100
0001
,
1000
0100
1000
0100
0010
0000
0001
0000
1000
0000
0001
0000
0010
0000
0001
0000
,
1000
0001
0010
0001
1000
0001
0010
0100
,
1000
0002
0000
0000
0000
0000
0000
0000
,
0000
0000
0103
0100
0010
0010
1001
M00M
,
0101
0100
0010
1000
0001
1000
0010
1000
,
0001
1000
0001
0100
0001
1000
0100
1000
,
0001
0000
0010
0000
0200
0000
0000
0000
0000
0000
0000
0000
1300
0001
0100
0001
,
1000
0100
1000
0001
0100
0000
0100
0000
0010
0000
0010
0000
1001
0000
M00M
0000
,
1100
0100
0010
0001
1000
0001
0100
0010
,
0100
0001
1000
0100
1000
0001
0010
0100
,
1000
0001
0100
0010
1000
0001
0100
0010
,
1000
0001
0010
0100
1000
0001
0100
0010
,
1000
0001
0020
0000
0000
0000
0000
0000
,
0130
0000
1000
0000
0001
0000
0200
0020
,
0000
0330
1001
0100
0010
0010
1001
0000
,
2002
0000
0000
0000
0000
0000
0000
0000
3003
0000
1000
0001
0100
0000
0100
0000
,
0010
0010
1001
0100
0010
0010
1001
0000
,
2002
0000
0000
0000
,
0000
0000
0000
0000
0000
0000
0000
0000
0000
0000
0000
0000
0000
0000
0000
0000
0000
0000
0000
0000
0000
0000
0000
3000
2000
0000
0000
0000
0000
0000
0000
0003
,
0002
3000
2003
0000
0000
0000
0000
3000
,
0001
0100
0020
0000
0000
2030
0000
0000
,
3002
0023
0000
0000
,
0230
0000
0302
0000
0000
0003
0101
0000
,
0110
2100
0000
0022
,
3033
0200
0302
2003
,
3200
0000
0000
0310
0001
1000
0001
0100
0010
1000
0001
0100
,
0001
1000
0100
0010
0100
1000
0001
0100
0010
1000
0001
0100
,
0001
0000
0000
0000
0010
0000
0000
0000
0100
0000
0000
0000
1000
0000
0000
0001
0000
0000
1000
0000
0000
0001
0000
0000
1000
0000
0000
0001
0000
0000
1000
0000
0000
0001
0000
0000
M1M0
0000
0000
0000
0000
0000
0000
0000
0000
0000
0000
0000
,
0020
0000
0000
0230
0000
0000
0302
0000
,
2003
0100
0000
0001
,
0000
0100
0000
3002
,
0103
0020
0000
0230
0000
0000
0301
2000
,
0000
0000
0000
3200
0000
0000
0310
0200
,
0000
0000
0040
0030
4000
3000
0040
0030
,
0004
0000
0003
0000
0040
0000
0030
0000
4300
0000
3001
0100
0010
0000
0100
0000
,
0001
1000
0100
0010
0001
1000
0001
0100
0010
0100
0001
1000
0100
0010
0001
0000
,
1MM1
0000
1000
0100
0010
0100
1000
0100
,
0010
0100
1000
0100
0010
0100
1000
0100
,
0010
0000
0100
0000
1000
0000
1000
0000
1000
0000
1000
0000
0001
0100
0001
0000
,
1000
1000
1MM0
0000
1001
0001
2000
3010
,
0010
0200
0301
0001
2000
3100
0100
0020
,
0031
0001
2000
3020
0130
0100
0002
1003
,
1000
0000
1000
0000
0002
0000
0023
0000
0031
0100
0010
0000
0100
0000
0001
0000
,
0100
1000
0100
0001
1000
1000
0002
0013
,
0010
0200
1300
1000
0020
0130
0100
0002
,
1003
0000
1000
0000
0002
0000
0023
0030
M11M
0000
0100
0000
1000
0000
M1M1
0000
,
0100
0010
1M1M
1000
M1M1
0001
0010
M11M
,
0100
1000
MM11
0001
1MM1
1000
0200
0310
,
0010
0002
0103
0100
0020
1030
1000
0002
,
0013
0010
0200
2300
3001
0001
2000
3100
,
0100
0100
0020
0031
1000
0100
0001
0100
,
1000
0001
1000
0010
0100
0100
0004
0000
,
0000
0000
0000
1003
0100
1000
0004
0000
0000
0000
0000
0000
,
0003
0000
0000
0000
0000
0000
1000
0100
0010
0000
0001
0000
1000
0000
1001
0000
,
0000
0000
0001
0100
0010
0000
1000
0000
0001
0000
1MM1
0000
0000
0000
0000
0000
,
1000
0000
0100
0000
0010
0000
0001
0000
1000
0000
0200
0300
0200
0300
0010
0000
,
0002
0003
0002
0003
0100
0000
0020
0030
0020
0030
0100
0000
1000
0000
0100
0000
,
0001
0000
0100
0000
0010
0000
1000
0000
0001
0000
0200
0300
0200
0300
0010
0000
,
1000
0001
0010
0000
0011
0000
1001
0000
0000
0000
2MM0
0000
0MM0
0000
0MM0
0000
,
3001
0000
0010
0000
0100
0000
0010
0000
0001
0000
2000
3000
2000
3000
0010
0000
,
0200
0300
0200
0300
0001
0000
0020
0030
0020
0030
0100
0000
0001
0000
0100
1000
,
0001
1000
0001
0000
0100
0001
1000
0001
1000
0000
0100
1000
0001
1000
0MM1
0000
,
0000
0000
1000
0100
0010
0001
1000
0010
1000
0001
M1M0
0000
0000
0000
0000
0000
,
0001
1000
0001
1000
0020
0000
0230
0000
0300
0000
0202
0000
0000
0000
0003
0000
,
0301
1000
1000
0100
0010
0010
0001
0010
,
0100
0000
1000
0000
0001
0000
0400
0000
0000
0000
0000
0000
0310
1000
0010
1000
,
0001
0100
0001
1000
0001
1000
0100
0010
0100
1000
0001
1000
0100
0010
0001
1000
,
0002
0203
2300
3200
0000
0000
0302
0000
,
2003
0000
3100
0020
0000
0031
2000
0000
,
3001
0200
0000
0310
1000
1000
1001
0001
,
1000
0100
0010
0001
1000
0100
0010
0001
1000
0100
0010
0001
1000
0100
2000
0000
,
0000
0001
0001
0001
0001
0100
0100
3100
,
0020
0000
0001
0000
0000
0000
0031
0100
,
0100
0000
0000
0000
0010
0000
0000
0000
1000
0000
0000
0000
0002
0000
0000
0000
0000
0000
0000
0000
0000
0000
0000
0003
MMMM
0000
0000
0000
1000
0000
0000
0000
,
0002
0000
0000
0000
0000
0103
0010
1100
,
0001
0100
0001
0200
0000
0010
0010
0310
,
1000
0000
0000
0001
0000
0000
1000
0000
0010
0000
0100
0000
0001
0000
1000
0000
0100
0000
0010
0000
0100
0000
1000
0000
,
0001
0010
0001
1000
0100
0010
0001
0100
0010
1000
0001
1000
,
0001
0100
0010
0100
0001
1000
0001
0010
0100
0010
0001
1000
,
0010
0100
0010
1000
0001
0010
0001
1000
0010
0100
0001
1000
,
0200
0000
0000
0310
0001
1000
0001
0200
,
0000
0000
0000
0300
0101
0M0M
1100
MM00
,
0200
0000
0000
0310
0001
1000
0001
0020
,
0000
0000
0230
0000
13M0
10M0
0M01
0M01
,
0201
0000
0000
0310
1000
0001
0010
0012
,
0000
0003
1001
0000
1010
0000
0110
0000
,
0102
0000
0000
0000
0000
0000
2003
3000
,
1100
0100
0010
0011
0001
1000
1001
0100
,
2001
0000
0001
3001
0010
0100
1000
0200
,
0000
0000
0310
0000
0011
00MM
1001
M00M
,
1020
0000
0130
0100
0001
1000
0100
0020
,
0000
0000
0032
0000
1M03
1M00
00M1
00M1
,
0021
0000
0000
0130
1000
0001
0100
0020
,
0000
0030
0110
0000
0101
0000
1001
0000
,
1200
0000
0010
1300
,
1001
0001
0100
0110
0010
1000
1001
0010
,
2002
0000
0000
0000
0000
0000
0000
0003
0002
0000
0000
0000
0000
0000
0000
0000
0000
0000
0000
3003
0001
0000
2000
0000
0002
0000
0000
0000
0000
0000
0000
3000
,
2000
0000
0000
0000
0000
0000
0000
3003
0001
0000
2000
0000
0002
0000
0000
3000
1000
0000
0000
0000
2000
0000
0000
0003
0001
0000
0000
0000
3001
0000
0000
0000
,
2002
0000
0000
0000
0000
3000
1003
0200
,
0000
1300
0001
0100
0010
1000
0010
0020
,
0000
0000
0000
0000
0000
0000
0030
0000
0000
00M0
0000
0000
0100
0000
0001
0000
1000
0000
0100
0000
0010
0000
0001
0000
,
2000
0000
0000
0000
0000
0000
3001
0100
0010
0000
0010
0000
0100
0000
0100
0000
,
0002
0000
0000
1003
0010
1000
0200
0000
0000
0310
0001
1000
,
0100
0010
0100
1000
0001
0100
0020
0000
0030
0000
0000
0000
,
0101
0001
1000
1100
0100
0010
0011
0001
,
0100
0110
0010
1000
1001
0100
1001
0010
,
2001
0000
0000
0000
0000
0000
3001
0100
0020
0000
0000
0000
0000
0000
1030
0001
,
0010
0100
0010
0002
0000
0003
MMM0
2000
,
0000
0000
0000
3010
0000
0000
0100
0000
0001
0000
1000
0000
0001
0000
0000
0010
0000
0000
0100
0000
0000
1000
0000
0000
,
0001
0100
0010
0010
1M00
1M00
00M1
00M1
,
1000
0001
0001
0100
0010
0010
1000
0001
,
1000
0000
0000
0000
0100
0000
0000
0000
0010
0000
0000
0000
0001
0000
0000
0000
1000
0000
0000
0000
0001
0000
0000
0000
0100
0000
0000
0000
0000
0000
0000
0000
0000
0000
0000
0000
0002
0000
0000
0003
0000
0000
2000
0000
0000
3000
0000
0000
,
1001
0001
0010
0110
0100
1000
1001
0001
,
0100
0110
0010
1000
1001
0010
1001
1000
,
0001
0100
0001
0100
0001
0100
0010
0100
0010
0100
0010
0100
0010
1000
0010
1000
,
0010
1000
0001
1000
0001
1000
0001
1000
0100
0010
0100
0010
0001
1000
0001
1000
,
0010
0100
0001
1000
0001
0010
0100
1000
,
0001
0100
0010
1000
0001
1000
0100
0010
,
0002
0000
0000
0000
0000
0000
0000
0003
,
1000
0001
0100
0001
1000
0001
0100
1M20
,
0000
0000
0130
0001
1000
0100
0010
0001
,
0010
0100
1000
0001
0100
0001
0010
0200
,
0000
0000
0000
0000
0000
0000
0000
0000
0000
0000
0000
0000
0000
0000
0000
0000
0000
0000
0000
0300
0100
0000
0000
0000
0010
0000
0000
0000
0002
0000
0000
0000
,
0000
1003
0101
0010
1100
0001
0110
2010
,
0000
0000
3001
0100
0001
1000
0001
0100
,
0010
1000
0001
0010
0100
1000
0001
0010
,
0200
0000
0000
0000
0000
0000
0000
0300
,
1000
1000
0001
0100
0010
1000
0001
0100
,
0020
0000
0000
0000
0000
0000
0000
0030
0000
0000
0000
0000
0200
0000
0000
0000
,
0302
0000
1003
0200
0000
0000
0310
0001
,
0012
0000
0000
2003
,
3010
0000
010M
0000
010M
0000
0001
0000
0010
0000
0001
0000
1000
0100
0010
0001
,
1000
0001
1000
0001
1000
0100
1000
0010
,
0100
0001
0100
0001
0100
1000
0100
0010
,
1000
0100
1000
0100
1000
0010
1000
0001
,
0010
0100
0010
0100
0010
1000
0010
0001
,
1002
0000
0000
0203
0000
0000
0310
0000
,
2010
0000
0000
3002
0000
0000
0013
0000
,
0220
0000
0000
0000
0000
0000
0000
0300
,
0130
0000
10M0
0000
10M0
0000
0001
0000
1000
0000
0001
0000
M2M0
0300
M2M0
0300
,
0002
0010
0013
0200
1000
1300
0002
0100
,
0103
0020
0100
0130
0002
0103
0002
0013
,
0200
1000
1300
0200
0010
0310
0002
0100
,
0103
0020
1000
1030
0200
0310
0200
1300
,
0010
0100
0001
1000
0001
1000
0010
0100
0001
1000
0001
1000
0010
0100
0001
1000
,
0010
0100
0001
1000
0001
1000
0010
0100
0001
1000
0001
1000
0010
0100
0001
1000
,
0001
0000
0000
010M
0000
0000
1M00
0000
0001
0000
0000
001M
0000
0000
10M0
0000
,
0001
0000
0000
001M
0000
0000
10M0
0000
0001
0000
0000
010M
0000
0000
10M0
0000
,
0002
0000
0000
0000
,
20M3
0M00
000M
00M0
0M00
000M
3200
0000
,
0310
0001
1000
0002
0000
0000
0103
0010
1000
0020
0000
0000
0130
0001
0010
0001
,
2000
3200
0320
0230
0000
0000
0000
0000
,
1300
0001
0100
0002
0000
0000
0103
0010
1000
0200
0000
0000
0310
0001
1000
0100
,
1000
0001
0100
0002
0000
0000
1003
0100
0010
0001
1000
0001
,
1001
0000
0000
0000
1000
0000
0000
0000
0010
0000
0000
0000
0100
0000
0000
0000
0001
0000
0000
0000
1000
0000
0000
0000
0001
0000
0000
0010
0000
0000
0100
0000
0000
1000
0000
0000
0001
0000
0000
0010
0000
0000
0100
0000
0000
1000
0000
0000
,
0001
0000
0100
0000
1000
0000
0200
0000
0000
0000
0000
0000
0310
0000
1000
0001
,
0010
0010
0100
0100
2200
3300
0202
0000
,
0000
0000
0000
0000
0000
0000
0000
0000
0000
0000
0000
0300
0103
0000
0010
0000
1000
0000
0000
0000
1000
0000
0000
0000
0001
0000
0000
0000
0001
0000
0000
0000
,
0011
0010
0100
1000
1001
0100
2002
0000
,
0000
0000
0000
0000
,
0000
0000
0000
0000
,
00M0
0M00
00M0
0M00
00M0
0M00
00M0
0M00
,
00M0
0M00
00M0
0M00
00M0
0M00
00M0
0M00
,
00M0
0000
3000
2000
0000
0000
0000
0000
0000
0003
3002
0000
0000
0000
0000
0000
,
0203
0000
0000
0302
,
0023
0000
0000
0230
0000
0000
2300
0000
,
3002
0000
0000
0000
0000
0000
0000
0000
0000
0000
0000
0000
0203
0000
0301
1000
,
0200
0000
0320
0030
0022
0033
2002
3003
,
1020
0000
0430
0000
,
0302
2003
3200
0320
,
0032
0000
0000
0000
,
0000
0000
0000
0000
,
0000
0000
0000
0000
0000
0000
0000
0000
2000
0000
0000
0000
0000
0000
0000
0003
0002
0000
0000
0000
3000
0000
0000
0000
2003
0000
0000
0000
0000
0000
0000
0000
,
0000
0000
0000
3000
0001
0100
0020
0000
,
0000
2030
0000
0000
3002
0000
0023
0000
,
0000
0000
0000
0000
,
0030
0110
1100
2001
,
0000
0022
3033
0200
,
0302
0000
0000
2003
0000
0000
3200
0000
0000
0310
0001
1000
,
0001
0100
0010
1000
0001
0100
0001
1000
0100
0010
0100
1000
,
0001
0000
0000
0000
0100
0000
0000
0000
0010
0000
0000
0000
1000
0000
0000
0000
0001
0000
0000
0000
0100
0000
0000
0000
0001
0000
0000
0000
0010
0000
0000
0000
0100
0000
0000
0000
1000
0000
0000
0001
0000
0000
1000
0000
0000
0001
0000
0000
,
1000
0001
1000
0001
M1M0
0000
0000
0000
0020
0000
0000
0000
0000
0000
0230
0000
,
0000
0302
2003
0100
,
0000
0001
0000
0100
,
0000
0000
3002
0000
0103
0020
0000
0230
,
0000
0000
0301
2000
0000
0000
0000
3200
,
0000
0000
0310
0200
0000
0000
0040
0030
,
4000
3000
0040
0030
0004
0003
0040
0030
,
4300
0000
3001
0000
0100
0000
0100
0000
0001
1000
0100
0010
0001
1000
0001
0100
,
0010
0100
0001
1000
0100
0010
0001
0000
1MM1
0000
0000
0000
0001
0000
0010
0000
,
0100
0010
0001
0010
0100
0010
0001
0010
,
0100
0010
0001
0010
0100
0010
0001
0001
,
0001
0000
0001
0000
1000
0010
1000
0000
0001
0000
0001
0000
1MM1
0000
0000
0000
,
1000
1000
0200
0310
0010
0002
1003
0020
,
0130
0100
0002
1003
0001
0200
2300
3200
,
0301
0001
0020
0130
0100
2000
3001
0200
,
0310
0000
0200
0000
0301
0000
0002
0000
0010
0000
0013
0001
2000
0000
3002
0000
,
1003
1000
0200
0310
0010
0002
1003
0020
,
0130
0000
0100
0000
0002
0000
1003
0000
0001
0000
0200
0000
2300
0000
3200
0300
,
0101
0001
1000
1100
0100
0010
0011
0001
,
1000
1010
0010
0100
0101
0001
1001
1000
,
0001
0001
0020
0130
0100
2000
3001
0200
,
0310
0010
2000
3001
1000
0020
0032
0023
,
1030
1000
0200
0310
0010
0002
1003
0020
,
0130
0000
0020
0000
1030
0000
2000
0000
0100
0000
3100
1000
0002
0000
0000
0000
,
4403
0044
0000
0000
,
0000
0000
0000
0000
,
0000
0000
0000
0000
,
0000
0000
3333
0000
0MM0
M00M
M00M
0000
,
1111
0000
0000
0000
;
