#TITLE:Right Here Right Now (Nightcore Trumpdisco Remix);
#SUBTITLE:Feels The Arrow;
#ARTIST:Fatboy Slim;
#TITLETRANSLIT:;
#SUBTITLETRANSLIT:;
#ARTISTTRANSLIT:;
#CREDIT:Ov3rHell3XoduZ;
#BANNER:../bn.png;
#BACKGROUND:../bg.png;
#LYRICSPATH:;
#CDTITLE:;
#MUSIC:Right Here Right Now (Trumpdisco Remix).ogg;
#OFFSET:0.516;
#SAMPLESTART:44.511;
#SAMPLELENGTH:11.920;
#SELECTABLE:YES;
#BPMS:0.000=168.850,66.000=169.240,226.000=168.500,227.000=168.850,241.000=166.000,242.000=168.850,258.000=169.240,289.000=167.000,290.000=169.240,321.000=167.000,322.000=168.850,417.000=167.000,418.000=169.240,512.000=167.000,514.000=168.500;
#STOPS:;
#BGCHANGES:;
// cache tags:
#FIRSTBEAT:2.000;
#LASTBEAT:578.000;
#SONGFILENAME:Songs/EXoduz' Feels The Arrow/Right Here Right Now (Trumpdisco Remix) - [Ov3rHell3XoduZ]/sm.sm;
#HASMUSIC:1;
#HASBANNER:1;
#MUSICLENGTH:204.565;
// end cache tags

//---------------dance-single - Ov3rHell3XoduZ----------------
#NOTES:
     dance-single:
     Ov3rHell3XoduZ:
     Challenge:
     14:
     1.000,1.000,0.161,1.000,1.000,1428.000,33.000,456.000,0.000,0.000:

0000
0000
2002
0000
,
0000
3003
2000
0000
,
3200
0000
0320
0000
,
0230
0000
2300
0000
,
3020
0000
0230
0000
,
0302
0000
2003
0000
,
3200
0000
0320
0000
,
0032
0000
0203
0000
,
0320
0000
2030
0000
,
3200
0000
2300
0000
,
3020
0000
0230
0000
,
0302
0000
2003
0000
,
3200
0000
0320
0000
,
0230
0000
2300
0000
,
3020
0000
0230
0000
,
0302
0000
0023
0000
,
0230
0000
0000
0000
2300
3010
0100
0001
,
0020
0130
1000
0001
0200
0301
1000
0100
,
0020
0130
1000
0010
2000
3010
0100
0001
,
0020
0130
1000
0010
0200
0301
1000
0100
,
2000
3100
0010
0001
2000
3010
1000
0010
,
0200
0301
0010
0001
0020
0130
1000
0010
,
0200
0301
1000
0100
2000
3010
0100
0001
,
0020
0130
1000
0001
0200
0301
0100
0010
,
2000
3100
0020
0031
2000
3001
0100
0001
,
0010
0100
2000
3001
0200
0310
2000
3100
,
0020
0031
2000
3010
0200
0301
0010
0001
,
1000
0100
0010
0001
2000
3100
2000
3010
,
0200
0301
0020
0130
2000
3001
0100
0001
,
1000
0010
0100
0001
0020
0130
2000
3010
,
0200
0301
2000
3100
0020
0031
1000
0100
,
1000
0010
0100
0001
0020
0130
2000
3010
,
0200
0301
2000
3100
0020
0000
0000
0031
,
0012
0000
0000
1003
1020
0000
0000
0130
,
0120
0000
0000
1030
1020
0000
0000
0130
,
0102
0000
0000
0013
0120
0000
0000
0130
,
1200
0000
0000
1300
1020
0130
0001
1000
,
0200
0310
0001
1000
0020
0130
0001
1000
,
0200
1300
0010
0100
0002
0013
0001
1000
,
0200
0000
0000
0000
0310
0000
0000
0000
0001
0000
0000
0000
1000
0100
1000
0100
0010
0000
0000
0000
0001
0000
0000
0000
1000
0000
0000
0000
0010
0000
0000
0000
,
0100
0000
0001
0000
1000
0000
0100
0000
0000
0010
0000
0000
0001
0000
0000
1000
0000
0000
0010
0000
0000
0100
0000
0000
0002
0000
0000
1000
0000
0000
0103
0000
0000
1000
0000
0000
0020
0000
0000
0100
0000
0000
0031
0000
0000
0010
0000
0000
,
0200
1000
0310
0100
0002
1000
0103
1000
0200
0010
0301
1000
0020
0100
0031
0010
,
0002
1000
0103
0010
0002
1000
0013
0100
0002
1000
0103
1000
0020
0100
0031
0010
,
0002
1000
0103
0010
0002
1000
0013
0100
0002
1000
0013
1000
0020
0100
0031
0010
,
0200
1000
0310
0100
0002
1000
0103
1000
0020
0100
0031
1000
0200
1000
0310
0100
,
0002
0010
0103
1000
0002
0100
0013
1000
0200
0010
0301
1000
0020
0100
0031
0100
,
0002
1000
0103
1000
0200
0010
0301
1000
0020
0100
0031
0010
0002
0010
0103
1000
,
0020
0100
0031
1000
0200
1000
0301
0010
0002
1000
0013
0100
0002
0010
0103
1000
,
0020
0000
0000
1000
0000
0000
0130
0000
0000
0010
0000
0000
0002
0000
0000
1000
0000
0000
0103
0000
0010
0000
0001
0000
2000
0000
0000
0100
0000
0000
3010
0000
0000
0100
0000
0000
2000
0000
0000
0010
0000
0000
3100
0000
0000
0001
0000
0000
,
0020
0100
1030
0001
0200
0001
1300
0100
0020
0001
1030
0100
2000
0010
3100
0001
,
2000
0100
3010
0001
2000
0010
3100
0001
0020
0100
1030
0001
0200
0001
1300
0100
,
0020
0001
1030
0010
0200
0001
0310
0100
2000
0010
3100
0010
0200
0001
1300
0100
,
2000
0010
3100
0001
0020
0100
1030
0100
2000
0010
3100
0001
0020
0001
1030
0100
,
0020
0001
1030
0010
0200
0001
0310
0001
2000
0010
3100
0001
0020
0100
1030
0100
,
2000
0010
3100
0001
2000
0001
3010
0100
2000
0010
3100
0001
0020
0001
1030
0100
,
0020
0001
1030
0010
0200
0010
1300
0100
0020
0001
1030
0001
0200
0010
1300
0100
,
2000
0010
3100
0001
0020
0100
1030
0001
0200
0000
0000
0001
0320
0000
0100
0000
,
0130
0000
1000
0000
0010
0000
0100
0000
0001
0000
0000
0100
0001
0000
1000
0000
,
0100
0000
1000
0000
0010
0000
0100
0000
0001
0000
0000
0010
0100
0000
1000
0000
,
0100
0000
1000
0000
0010
0000
0100
0000
0001
0000
0000
0001
1000
0000
0100
0000
,
0010
0000
0001
0000
1000
0000
0100
0000
0010
0000
0000
0001
1000
0000
0010
0000
,
0100
0000
0001
0000
1000
0000
0100
0000
0010
0000
0000
0010
0001
0000
1000
0000
,
0010
0000
0100
0000
0001
0000
1000
0000
0100
0000
0000
0010
0001
0000
1000
0000
,
0010
0100
0001
1000
0002
0103
0002
0013
,
0002
0000
1003
0000
0002
0000
0103
0000
0020
1000
0130
0010
0002
1000
0013
0100
,
0002
1000
0013
1000
0200
0010
0301
1000
0020
0100
0031
0010
0002
1000
0013
0100
,
0002
1000
0103
1000
0020
0100
0031
0010
0002
1000
0013
1000
0020
0100
0031
1000
,
0200
1000
0310
0100
0002
0010
0103
1000
0020
0100
0031
1000
0200
1000
0310
0100
,
0002
1000
0103
1000
0020
0100
0031
0010
0200
1000
0301
0100
0002
1000
0103
0010
,
0002
1000
0013
0100
0002
0010
0103
1000
0200
0010
0301
1000
0200
0010
0301
1000
,
0020
0100
0031
1000
0200
1000
0310
0100
0002
1000
0103
1000
0020
0100
0031
1000
,
0200
0010
0301
1000
0020
0100
0031
0010
0002
1000
0103
1000
0020
0100
0031
0010
,
0200
1000
0301
0000
1000
0000
0010
0000
0020
0100
0031
1000
0200
1000
0310
0100
,
0002
0010
0103
1000
0002
1000
0103
1000
0020
0100
0031
0010
0200
1000
0310
0100
,
0020
1000
0130
0010
0002
1000
0103
1000
0002
0010
0103
1000
0020
0100
0031
1000
,
0200
1000
0310
0100
0002
1000
0103
1000
0020
0100
0031
0100
0002
0010
0103
1000
,
0002
0100
0013
1000
0200
0010
0301
1000
0200
1000
0310
0100
0020
1000
0130
0010
,
0002
1000
0013
0100
0002
0010
0103
1000
0200
0010
0301
1000
0200
1000
0310
0100
,
0002
0010
0103
1000
0002
1000
0103
1000
0020
0100
0031
1000
0200
1000
0310
0100
,
0002
0010
0103
1000
0200
0010
0301
1000
0020
0100
0031
1000
0020
0100
0031
0100
,
0020
1000
0130
0010
0002
1000
0013
0100
0002
0000
0000
0000
0000
0000
0003
0000
,
0202
0000
0000
0000
0000
0000
0000
0303
,
2002
0000
0000
0000
0000
0000
0000
3003
,
2020
0000
0000
0000
0000
0000
0000
3030
,
2200
0000
0000
3300
0220
0000
0000
0330
,
0022
0000
0000
0000
0000
0000
0000
0033
,
0202
0000
0000
0000
0000
0000
0000
0303
,
2002
0000
0000
0000
0000
0000
0000
3003
,
2020
0000
0000
3030
2200
0000
0000
3300
,
0220
0000
0000
0330
0022
0000
0000
0033
,
0202
0000
0000
0303
0220
0000
0000
0330
,
2020
0000
0000
3030
2200
0000
0000
3300
,
2020
0000
0000
3030
2002
0000
0000
3003
,
2200
0000
0000
3300
2002
0000
0000
3003
,
0202
0000
0000
0303
2020
0000
0000
3030
,
0220
0000
0000
0330
0200
0301
2000
3100
,
0020
0000
0031
0000
2000
0000
0000
0000
3020
0100
0031
0010
0002
1000
0103
0010
,
0002
1000
0013
0100
0002
1000
0103
1000
0020
0100
0031
0010
0002
0010
0103
1000
,
0020
0100
0031
1000
0002
0100
0013
1000
0200
1000
0310
0100
0002
1000
0103
1000
,
0200
0010
0301
1000
0020
1000
0130
0010
0200
0010
0301
0100
0002
0010
0103
1000
,
0020
0100
0031
1000
0002
0100
0013
1000
0200
1000
0310
0100
0002
0010
0103
1000
,
0200
1000
0310
0100
0002
1000
0013
0100
0020
0100
0031
0010
0002
0010
0103
1000
,
0002
1000
0103
1000
0020
0100
0031
0010
0002
1000
0103
0010
0200
1000
0310
1000
,
0002
0100
0013
0100
0020
1000
0130
0010
0004
0000
0000
0000
0403
0000
0000
0000
,
0340
0000
0000
0000
4030
0000
0000
0000
3200
0010
0301
1000
0020
0100
0031
0010
,
0002
1000
0103
1000
0020
0100
0031
1000
0200
1000
0310
1000
0002
1000
0013
0100
,
0002
1000
0103
1000
0020
1000
0130
0010
0002
0010
0103
1000
0200
0010
0301
1000
,
0020
0100
0031
1000
0200
1000
0301
1000
0002
0100
0013
1000
0200
1000
0310
1000
,
0200
0010
0301
1000
0002
0100
0013
0100
0020
1000
0130
0010
0002
1000
0013
1000
,
0200
0010
0301
0100
0002
0010
0103
1000
0020
0100
0031
1000
0200
1000
0310
1000
,
0020
0100
0031
0010
0200
1000
0301
0100
0002
0100
0013
1000
0200
0010
0301
1000
,
0020
0100
0031
0010
0002
0010
0103
1000
0002
0010
0103
1000
0002
0010
0103
1000
,
0002
0100
0013
1000
0002
0100
0013
1000
0200
0010
0301
1000
0020
0100
0031
1000
,
0200
1000
0310
0100
0002
0010
0103
1000
0002
1000
0103
1000
0020
0100
0031
0010
,
0002
1000
0013
0100
0002
1000
0103
0010
0002
1000
0103
1000
0020
0100
0031
1000
,
0200
0010
0301
1000
0002
0100
0013
1000
0200
0010
0301
1000
0200
1000
0310
0100
,
0002
0010
0103
1000
0200
0010
0301
1000
0200
1000
0310
0100
0020
1000
0130
0010
,
0002
1000
0013
0100
0020
1000
0130
0010
0002
0100
0013
1000
0200
1000
0310
0100
,
0002
1000
0013
0100
0002
0010
0103
0010
0002
1000
0103
1000
0020
0100
0031
0010
,
0200
1000
0301
0100
0002
1000
0103
0010
0002
1000
0013
0100
0002
1000
0013
0100
,
0002
0010
0103
1000
0200
0010
0301
1000
0200
0010
0301
1000
0200
0010
0301
1000
,
0020
0100
0031
1000
0020
0100
0031
0010
0200
1000
0301
1000
0020
0100
0031
0010
,
0002
1000
0013
0100
0002
1000
0103
1000
0200
0010
0301
1000
0020
0100
0031
1000
,
0200
0010
0301
1000
0002
0100
0013
1000
0200
1000
0310
1000
0020
0100
0031
0010
,
0002
1000
0013
0100
0002
1000
0103
0010
0002
1000
0103
1000
0020
0100
0031
0010
,
0200
1000
0301
0100
0002
1000
0103
0010
0002
0100
0013
1000
0200
0010
0301
1000
,
0020
0100
0031
0010
0200
1000
0301
0100
0020
1000
0130
1000
0020
0100
0031
0010
,
0200
1000
0301
0100
0002
1000
0103
0010
0002
0100
0013
0100
0002
1000
0013
1000
,
0002
1000
0103
1000
0020
0100
0031
0010
0200
0000
1300
0000
0020
0000
0130
0000
,
0002
1003
0200
1300
0020
0130
0002
0013
,
0002
1003
0200
0310
0002
1003
0020
0130
,
0002
1003
0200
1300
0002
0103
0002
0103
,
0002
0013
0200
1300
0020
1030
0020
0130
,
0002
1003
0200
0310
0002
1003
0020
0130
,
0002
0013
0002
1003
0200
0310
0002
1003
,
0020
0130
0002
0013
0002
1003
0200
0310
,
0002
1003
0020
1030
0020
0130
0002
0013
,
0200
1300
0020
0130
0002
1003
0200
1300
,
0020
0130
0002
0013
0200
1300
0020
0130
,
0002
1003
0200
1300
0002
0013
0200
1300
,
0200
1300
0020
0130
0002
0000
2003
0000
,
3020
0230
0302
2003
,
3200
2300
3020
0230
,
0302
0023
0230
2300
,
3002
0000
0000
0000
0000
0000
0000
0000
0000
0000
0000
0000
0000
0000
0000
0003
0002
0000
0000
0000
0000
0000
0000
0000
0000
0000
0000
0000
0000
0000
0000
0000
0003
0000
0000
0000
0000
0000
0000
0000
0000
0000
0000
0000
0000
0000
0000
0000
0000
0000
0000
0000
0000
0000
0000
0000
0000
0000
0000
0000
0000
0000
0000
0000
;
