#TITLE:Harder Better Faster Stronger (Hardstyle Remix);
#SUBTITLE:Feels The Arrow;
#ARTIST:Daft Punk;
#TITLETRANSLIT:;
#SUBTITLETRANSLIT:;
#ARTISTTRANSLIT:;
#CREDIT:Ov3rHell3XoduZ;
#BANNER:../bn.png;
#BACKGROUND:../bg.png;
#LYRICSPATH:;
#CDTITLE:;
#MUSIC:Harder Better Faster Stronger.ogg;
#OFFSET:-0.409;
#SAMPLESTART:43.606;
#SAMPLELENGTH:11.980;
#SELECTABLE:YES;
#BPMS:0.000=149.870,227.000=140.000,228.000=149.870,402.000=599.480,410.000=149.870,441.000=135.000,442.000=149.870;
#STOPS:;
#BGCHANGES:;
// cache tags:
#FIRSTBEAT:16.000;
#LASTBEAT:458.000;
#SONGFILENAME:Songs/EXoduz' Feels The Arrow/Harder Better Faster Stronger - [Ov3rHell3XoduZ]/Harder Better Faster Stronger.sm;
#HASMUSIC:1;
#HASBANNER:1;
#MUSICLENGTH:183.594;
// end cache tags

//---------------dance-single - Ov3rHell3XoduZ----------------
#NOTES:
     dance-single:
     Ov3rHell3XoduZ:
     Challenge:
     14:
     1.000,1.000,0.534,0.904,1.000,1396.000,98.000,166.000,26.000,6.000:

0000
0000
0000
0000
,
0000
0000
0000
0000
,
0000
0000
0000
0000
,
0000
0000
0000
0000
,
2000
3100
0020
0031
2000
3001
0200
0301
,
2000
3100
2000
3010
0200
0301
2000
3001
,
0020
0031
2000
3100
0020
0031
2000
3010
,
2000
3100
2000
3010
0200
0301
0020
0130
,
2000
3100
2000
3010
0200
0301
0020
0031
,
2000
3100
0020
0031
2000
3001
0200
0301
,
2000
3010
0200
0310
2000
3100
0020
0031
,
2000
3001
0020
0031
2000
0000
3200
0300
,
0110
0010
0011
0001
0101
0100
0110
0010
,
1010
1000
0100
1000
0010
0100
0001
0010
,
0011
0001
0101
0100
0110
0010
1010
1000
,
1100
0100
0010
0001
0100
0001
1000
0100
,
1100
1000
1010
0010
0110
0100
0101
0001
,
0011
0010
0100
1000
0001
0100
0001
0010
,
0110
0100
1100
1000
1010
0010
0110
0100
,
0101
0001
0100
0001
0010
0100
1000
0001
,
1001
1000
1100
1000
1010
0010
0110
0010
,
1010
1000
1100
0100
0110
0010
0011
0001
,
0101
0100
0110
0010
1010
1000
1001
0001
,
1001
1000
1100
1000
1001
0001
0101
0100
,
0110
0010
1010
1000
1100
0100
1100
1000
,
1001
0001
0101
0100
0110
0010
0110
0100
,
0101
0001
0011
0010
0110
0100
1100
1000
,
1001
000M
0M00
00M0
,
2202
3303
0000
0000
0000
0000
0000
0000
2202
3303
0000
0000
M000
0000
0000
0000
,
2022
3033
0000
0000
M000
0000
0000
0000
2022
3033
0000
0000
0M00
0000
0000
0000
,
2220
3330
0000
0000
000M
0000
0000
0000
2220
3330
0000
0000
000M
0000
0000
0000
,
2200
3300
0220
0330
0022
0033
0202
0303
,
0220
0330
2020
3030
0202
0303
0022
0033
,
0220
0330
2200
3300
2002
3003
2020
3030
,
2002
0000
0000
3003
0000
0000
2200
0000
0000
3300
0000
0000
0220
0000
0000
0330
0000
0000
0001
0100
0010
1000
0000
0000
,
0022
0033
0220
0330
2200
3300
2002
3003
,
2020
0000
0000
3030
0000
0000
2200
0000
0000
3300
0000
0000
0220
0000
0000
0330
0000
0000
0001
1000
0001
0010
0000
0000
,
0220
0330
2200
3300
2020
3030
0220
0330
,
0202
0000
0000
0000
0000
0000
0303
0000
0000
0000
0000
0000
0022
0000
0000
0000
0000
0000
0033
0000
0000
0000
0000
0000
0010
0000
0100
0000
1000
0000
0001
0000
0000
0010
0000
0000
0002
0000
0000
0000
0000
0000
0003
0000
0000
0000
0000
0000
,
0202
0303
0220
0330
2020
3030
2200
3300
,
2002
0000
0000
3003
0000
0000
0202
0000
0000
0303
0000
0000
2002
0000
0000
3003
0000
0000
1000
0100
0010
0001
0000
0000
,
0101
0100
0110
0010
1010
1000
1100
0100
,
0110
0010
0110
0100
1100
1000
1001
0001
,
1000
0100
0010
0000
0001
0100
0010
0000
1000
0100
1000
0000
0001
0100
0010
0000
,
1000
0100
1000
0000
0001
0010
0100
0000
1000
0001
0100
0000
0010
1000
0001
0000
,
0010
0100
1000
0001
0100
0001
1000
0100
0010
0001
1000
0010
1000
0001
0010
0001
,
1000
0100
0010
0001
1000
0001
0100
0010
1000
0001
0010
0001
1000
0010
0100
0010
,
1000
0100
0010
0001
1000
0001
0100
0001
1000
0100
0010
0001
1000
0001
0010
0001
,
1000
0100
1000
0001
0100
0001
0010
0100
1000
0010
0100
0010
1000
0100
0010
0001
,
1000
0001
0010
0001
1000
0100
0010
0100
1000
0001
0100
0001
1000
0010
0100
0010
,
1000
0001
0010
0100
1000
0001
0100
0001
1000
0100
0010
0001
1000
0010
1000
0001
,
0010
0001
1000
0100
0010
0001
1000
0001
0100
0001
0010
0100
1000
0010
0100
0010
,
1000
0100
0010
0001
1000
0001
0100
0001
1000
0100
1000
0001
0010
0100
1000
0001
,
1000
0000
0000
0000
0000
0000
0000
0000
0000
0100
0000
0000
0000
0000
0000
0000
0000
0000
1000
0000
0000
0000
0000
0000
0000
0000
0000
0001
0000
0000
0000
0000
0000
0000
0000
0000
0010
0000
0000
0000
0000
0000
0000
0000
0000
0100
0000
0000
0000
0000
0000
0000
0000
0000
1000
0000
0000
0000
0000
0000
0000
0000
0000
0001
0000
0000
0000
0000
0000
0000
0000
0000
0100
0000
0000
0000
0000
0000
0000
0000
0000
0001
0000
0000
0000
0000
0000
0000
0000
0000
1000
0000
0000
0000
0000
0000
0000
0000
0000
0010
0000
0000
0000
0000
0000
0000
0000
0000
0100
0000
0000
0000
0000
0000
0000
0000
0000
0001
0000
0000
0000
0000
0000
0000
0000
0000
0010
0000
0000
0000
0000
0000
0000
0000
0000
0100
0000
0000
0000
0000
0000
0000
0000
0000
1000
0000
0000
0000
0000
0000
0000
0000
0000
0001
0000
0000
0000
0000
0000
0000
0000
0000
0000
1000
0000
0000
0000
0000
0000
0000
0000
0000
0000
0010
0000
0000
0000
0000
0000
0000
0000
0000
0000
0100
0000
0000
0000
0000
0000
0000
0000
0000
,
0001
0000
0000
0000
0000
0000
0000
0000
0000
0010
0000
0000
0000
0000
0000
0000
0000
0000
0100
0000
0000
0000
0000
0000
0000
0000
0000
1000
0000
0000
0000
0000
0000
0000
0000
0000
0001
0000
0000
0000
0000
0000
0000
0000
0000
1000
0000
0000
0000
0000
0000
0000
0000
0000
0010
0000
0000
0000
0000
0000
0000
0000
0000
0100
0000
0000
0000
0000
0000
0000
0000
0000
0010
0000
0000
0000
0000
0000
0000
0000
0000
1000
0000
0000
0000
0000
0000
0000
0000
0000
0100
0000
0000
0000
0000
0000
0000
0000
0000
0010
0000
0000
0000
0000
0000
0000
0000
0000
0001
0000
0000
0000
0000
0000
0000
0000
0000
1000
0000
0000
0000
0000
0000
0000
0000
0000
0001
0000
0000
0000
0000
0000
0000
0000
0000
0010
0000
0000
0000
0000
0000
0000
0000
0000
0001
0000
0000
0000
0000
0000
0000
0000
0000
1000
0000
0000
0000
0000
0000
0000
0000
0000
0000
0100
0000
0000
0000
0000
0000
0000
0000
0000
0000
0010
0000
0000
0000
0000
0000
0000
0000
0000
0000
0001
0000
0000
0000
0000
0000
0000
0000
0000
,
1000
0000
0000
0000
0000
0000
0000
0000
0000
0100
0000
0000
0000
0000
0000
0000
0000
0000
1000
0000
0000
0000
0000
0000
0000
0000
0000
0001
0000
0000
0000
0000
0000
0000
0000
0000
0010
0000
0000
0000
0000
0000
0000
0000
0000
0100
0000
0000
0000
0000
0000
0000
0000
0000
1000
0000
0000
0000
0000
0000
0000
0000
0000
0001
0000
0000
0000
0000
0000
0000
0000
0000
0100
0000
0000
0000
0000
0000
0000
0000
0000
0001
0000
0000
0000
0000
0000
0000
0000
0000
1000
0000
0000
0000
0000
0000
0000
0000
0000
0100
0000
0000
0000
0000
0000
0000
0000
0000
0010
0000
0000
0000
0000
0000
0000
0000
0000
0001
0000
0000
0000
0000
0000
0000
0000
0000
1000
0000
0000
0000
0000
0000
0000
0000
0000
0001
0000
0000
0000
0000
0000
0000
0000
0000
0100
0000
0000
0000
0000
0000
0000
0000
0000
0010
0000
0000
0000
0000
0000
0000
0000
0000
0000
1000
0000
0000
0000
0000
0000
0000
0000
0000
0000
0100
0000
0000
0000
0000
0000
0000
0000
0000
0000
0010
0000
0000
0000
0000
0000
0000
0000
0000
,
0001
0000
0000
0000
0000
0000
0000
0000
0100
0000
0000
0000
0000
0000
0000
0000
0001
0000
0000
0000
0000
0000
0000
0000
1000
0000
0000
0000
0000
0000
0000
0000
0100
0000
0000
0000
0000
0000
0000
0000
1000
0000
0000
0000
0000
0000
0000
0000
0001
0000
0000
0000
0000
0000
0000
0000
0010
0000
0000
0000
0000
0000
0000
0000
0100
0000
0000
0000
0000
0000
0000
0000
1000
0000
0000
0000
0000
0000
0000
0000
0010
0000
0000
0000
0000
0000
0000
0000
0100
0000
0000
0000
0000
0000
0000
0000
0010
0000
0000
0000
0000
0000
0000
0000
1000
0000
0000
0000
0000
0000
0000
0000
0100
0000
0000
0000
0000
0000
0000
0000
0010
0000
0000
0000
0000
0000
0000
0000
0001
0000
0000
0000
0000
0000
0000
0000
0100
0000
0000
0000
0000
0000
0000
0000
0001
0000
0000
0000
0000
0000
1000
0000
0000
0000
0000
0000
0001
0000
0000
0000
0000
0000
1000
0000
0000
0000
0000
0000
0001
0000
0000
0000
0000
0000
1000
0000
0000
0000
0000
0000
0001
0000
0000
0000
0000
0000
1000
0000
0000
0000
0000
0000
,
0002
0000
0000
0203
0320
0000
0000
0000
,
2030
0000
0000
3200
0320
0000
0000
0000
,
0032
0000
0000
2003
3200
0000
0000
0000
,
0320
0030
0000
0000
0020
0030
0000
0000
0020
0030
0000
0000
0020
0030
0000
0000
,
0001
0100
0001
1000
0100
1000
0010
0100
0001
0010
0100
1000
0001
0100
0001
1000
,
0100
0010
0001
1000
0010
1000
0001
0100
0010
1000
0001
0010
0100
1000
0001
0100
,
0001
1000
0100
0010
0001
1000
0010
0100
0010
1000
0001
0100
0010
1000
0001
0010
,
0100
1000
0001
0100
0001
1000
0100
0010
0001
1000
0010
1000
0001
0100
0010
1000
,
0001
0100
0001
0010
0100
1000
0010
0100
0010
1000
0001
0100
0001
1000
0100
0010
,
0001
1000
0010
1000
0001
0100
0001
0010
0100
1000
0001
0100
0001
1000
0100
0010
,
0001
1000
0010
1000
0001
0100
0010
1000
0001
0010
0001
1000
0100
0010
0001
1000
,
0100
1000
0001
0100
0001
1000
0010
0100
0010
1000
0001
0010
0100
1000
0001
0100
,
0001
1000
0100
0010
0001
1000
0010
1000
0001
0100
0010
1000
0001
0010
0001
1000
,
0100
0010
0001
1000
0001
0100
0010
1000
0100
1000
0001
0100
0010
1000
0001
0010
,
0001
1000
0100
0010
0100
1000
0001
0100
0001
0010
0001
0100
0010
1000
0100
1000
,
0010
0100
0001
0010
0001
1000
0100
0010
0001
1000
0001
0100
0001
1000
0010
0100
,
0010
1000
0100
0010
0001
1000
0001
0010
0100
1000
0001
0100
0001
1000
0100
0010
,
0100
1000
0001
0100
0010
0100
0001
0010
0100
1000
0001
0100
0001
1000
0010
0100
,
0010
1000
0001
0010
0100
1000
0001
0100
0001
1000
0100
0010
0001
1000
0001
0010
,
0100
M000
000M
0M00
000M
M000
00M0
0M00
00M0
M000
0M00
00M0
000M
M000
000M
00M0
,
0100
1000
0001
0100
0001
1000
0010
0100
0010
1000
0001
0010
0001
1000
0100
1000
0100
0010
0001
1000
0001
0100
0001
0010
,
0001
0010
0001
1000
0100
1000
0001
0100
0001
0010
0100
1000
0010
1000
0100
1000
0100
0010
0001
1000
0001
0100
0001
0010
,
0100
1000
0001
0100
0001
1000
0010
1000
0010
0100
0010
1000
0100
0010
0001
1000
0001
0100
0001
0010
0100
1000
0001
0010
,
0100
1000
0001
0100
0001
0100
0010
1000
0100
0010
0001
1000
0001
1000
0100
1000
0001
0100
0001
0010
0100
1000
0001
0010
,
0001
0010
0100
1000
0010
0100
0010
1000
0100
0010
0001
1000
0001
0100
0001
1000
0100
0010
0001
1000
0100
0010
0001
1000
,
0100
1000
0001
0100
0001
0010
0001
0010
0100
1000
0010
1000
0010
0100
0001
1000
0100
0010
0001
1000
0001
0100
0001
0010
,
0100
1000
0001
0010
0100
1000
0001
0100
0001
1000
0100
1000
0100
0010
0001
1000
0010
0100
0010
1000
0100
0010
0001
1000
,
0001
0100
0001
0100
0010
1000
0001
0010
0001
0010
0100
1000
0010
0100
0010
1000
0100
0010
0001
1000
0100
1000
0100
0010
,
0001
1000
0001
0100
0001
0010
0001
0010
0100
1000
0010
0100
0001
1000
0100
1000
0001
0100
0001
0010
0001
0010
0100
1000
,
0001
0100
0001
1000
0100
0010
0001
1000
0100
0010
0001
1000
0001
0100
0001
0010
0001
0010
0100
1000
0010
0100
0010
1000
,
0100
0010
0001
1000
0100
1000
0001
0100
0001
0010
0001
0010
0100
1000
0010
0100
0001
0010
0001
0010
0100
1000
0001
0100
,
0001
1000
0100
1000
0100
0010
0001
1000
0001
0010
0001
1000
0010
0100
0010
1000
0100
0010
0001
1000
0001
0100
0001
0010
,
0001
0010
0100
1000
0001
0100
0001
1000
0100
0010
0100
1000
0010
0100
0001
0010
0001
1000
0100
0010
0100
1000
0010
0100
,
0001
1000
0100
1000
0001
0100
0001
0010
0100
1000
0001
0100
0001
1000
0100
0010
0001
1000
0001
0100
0001
1000
0100
1000
,
0100
0010
0001
1000
0001
1000
0100
1000
0001
0100
0001
0100
0010
1000
0001
0010
0001
1000
0100
0010
0001
1000
0001
0100
,
0001
1000
0100
1000
0001
0010
0001
0010
0100
1000
0010
0100
0010
1000
0100
0010
0001
1000
0001
0100
0001
0010
0001
0010
,
0100
1000
0010
0100
0001
1000
0100
1000
0001
0010
0001
0010
0100
1000
0001
0100
0001
1000
0100
0010
0001
1000
0001
0010
,
0001
1000
0100
1000
0010
0100
0001
0010
0001
0010
0100
1000
0001
0100
0001
1000
0100
0010
0001
1000
0010
1000
0001
0100
,
0010
1000
0001
0010
0001
1000
0100
1000
0100
0010
0001
1000
0010
0100
0001
1000
0010
0100
0001
0010
0001
1000
0010
0100
,
0001
1000
0100
1000
0001
0100
0001
0010
0100
1000
0001
0100
0001
1000
0100
0010
0001
1000
0010
0100
0001
0010
0001
1000
,
0100
0000
0000
0000
,
0000
0000
0000
0000
,
0000
0000
0000
0000
,
0000
0000
0000
0000
,
0000
0000
0000
0000
,
0000
0000
0000
0000
0000
0000
0000
0000
1000
0001
0100
0001
1000
0010
1000
0100
,
0010
0001
1000
0001
0100
0001
0010
0100
1000
0010
0100
0010
1000
0100
0010
0001
,
1000
0001
0100
0001
0010
0001
0010
0100
1000
0010
0100
0010
1000
0100
0010
0001
,
1000
0100
1000
0001
0010
0100
1000
0001
0100
0001
1000
0010
0100
0001
0010
0001
,
1000
0100
0010
0001
1000
0001
0100
0001
1000
0100
1000
0010
0100
0001
0010
0100
,
1000
0001
0100
0001
1000
0100
0010
0001
1000
0010
1000
0001
0100
0010
1000
0001
,
0010
0001
1000
0100
0010
0001
1000
0001
0100
0001
1000
0100
1000
0010
0100
0001
,
0010
0001
1000
0100
0010
0100
1000
0001
0010
0100
1000
0001
0100
0001
1000
0100
,
0010
0000
0000
0100
0000
0000
1000
0000
0000
0001
0000
0000
0100
0000
0010
0000
1000
0000
0001
0000
0010
0000
0100
0000
2000
0000
0000
0000
0000
0000
3200
0000
0000
0000
0000
0000
2300
0000
0000
0000
0000
0000
3002
0000
0000
0000
0000
0000
,
0203
0302
0023
0230
2300
3002
2003
3020
,
0230
0320
2030
3200
0320
0032
2003
3002
,
0203
0302
0023
0230
2300
3020
0230
0320
,
2030
3200
0320
0032
MMM3
0000
0000
0000
;
