#TITLE:Warcraft;
#SUBTITLE:(Disco);
#ARTIST:Unknown artist;
#TITLETRANSLIT:;
#SUBTITLETRANSLIT:;
#ARTISTTRANSLIT:;
#CREDIT:;
#BANNER:;
#BACKGROUND:;
#LYRICSPATH:;
#CDTITLE:;
#MUSIC:Warcraft - Disco.mp3;
#OFFSET:0.000;
#SAMPLESTART:34.420;
#SAMPLELENGTH:8.600;
#SELECTABLE:YES;
#BPMS:0.000=111.580;
#STOPS:;
#BGCHANGES:;
// cache tags:
#FIRSTBEAT:0.000;
#LASTBEAT:243.750;
#SONGFILENAME:Songs/other/Warcraft - Disco/Warcraft - Disco.sm;
#HASMUSIC:1;
#HASBANNER:0;
#MUSICLENGTH:134.381;
// end cache tags

//---------------dance-single - ----------------
#NOTES:
     dance-single:
     :
     Medium:
     7:
     0.440,0.453,0.216,0.074,0.115,375.000,29.000,10.000,0.000,0.000:
0010
0001
0010
0001
1000
0001
1000
0001
,
1000
0100
1000
0100
0010
0000
1001
0000
,
0110
0000
0100
0000
0010
0100
0010
0000
,
0100
0010
0100
0000
0010
0100
0010
0000
,
0100
0001
0100
0000
0001
1000
0001
0000
,
0100
0001
1000
0000
0010
1000
0001
1000
,
0010
0000
1001
0000
0010
0001
0010
0000
,
1010
0000
1100
0000
1000
0001
1000
0000
,
0110
0000
0101
0000
1000
0001
1000
0000
,
0011
0000
1001
0000
0100
1000
0100
0010
,
0001
0000
1000
0001
0010
0000
0001
0100
,
0010
0000
1000
0100
0010
0000
0001
0100
,
0000
0010
1000
0000
0001
0100
0000
0010
,
1000
0000
1001
0000
0010
0001
0000
0010
,
0100
1000
0001
0000
0100
0010
0000
0100
,
0001
0010
0001
0000
1000
0010
1000
0000
,
0101
0010
0100
1010
,
0110
1000
0001
0110
,
1001
0000
1000
0100
1000
0100
0010
0001
,
0010
0000
1000
0100
0010
0100
0010
0100
,
0001
0000
1000
0000
0010
0100
0001
1000
,
0010
0000
1001
0000
0100
0010
1000
0001
,
1000
0000
0110
0000
1000
0100
0010
0000
,
0100
0000
0000
0000
0000
0000
0000
0000
0000
0000
0000
0000
0000
0000
0000
0000
0000
0000
0000
0000
0000
0001
0000
0000
0000
0000
0000
0000
0000
0000
0000
0000
0000
0000
0000
0000
1000
0000
0000
0000
0000
0000
0000
0000
0000
0000
0000
0000
0000
0000
0000
0000
0000
0000
0000
0000
0000
0000
0000
0000
0000
0000
0000
0000
0000
0000
0000
0000
0000
0000
0000
0000
0001
0000
0000
0000
0000
0000
0000
0000
0000
0000
0000
0000
0000
0000
0000
0000
0000
0000
0000
0000
0000
0000
0000
0000
0100
0000
0000
0000
0000
0000
0000
0000
0000
0000
0000
0000
0000
0000
0000
0000
0001
0000
0000
0000
0000
0000
0000
0000
0000
0000
0000
0000
0000
0000
0000
0000
0000
0000
0000
0000
0000
0000
0000
0000
0020
0000
0000
0000
0000
0000
0000
0000
0030
0000
0000
0000
0000
0000
0000
0000
0000
0000
0000
0000
0000
0000
0000
0000
0000
0000
0000
0000
0000
0000
0000
0000
0000
0000
0000
0000
0000
0000
0000
0000
0000
0000
0000
0000
0000
0000
0000
0000
0000
0000
0000
0000
0000
0000
0000
0000
,
1000
0001
0100
0001
1000
0001
0010
0000
,
0100
0001
0100
0010
1000
0100
1000
0000
,
0001
0001
1000
1000
0001
0010
0100
1000
,
1100
1001
1001
0101
,
0010
0000
0100
0000
1000
0000
0000
0001
0000
0000
1000
0000
0000
0000
0001
0000
,
0100
0000
0010
0000
1000
0000
0000
0100
0000
0000
0010
0000
0000
0000
0001
0000
,
1000
0000
0010
0000
1000
0000
0000
0010
0000
0000
0100
0000
0000
0000
0001
0000
,
1000
0000
0000
0010
0000
0000
0100
0000
0000
0000
1001
0000
1001
0000
0000
0000
,
2000
0000
0000
3000
0010
0000
1000
0010
0000
1000
0010
0000
0000
0000
0000
0000
,
0200
0000
0000
0300
0001
0000
1000
0001
0000
0001
1000
0000
0000
0000
0000
0000
,
0002
0000
0000
0003
0100
0000
0010
1000
0000
0001
0100
0000
0000
0000
0000
0000
,
0010
1000
0001
1000
0001
1000
0001
1000
0000
0000
0110
0000
0110
0000
0000
0000
,
0010
0010
0100
1000
0100
0010
0010
0000
,
0001
0001
1000
0010
0100
0001
0001
0000
,
1000
0000
0100
0010
0100
0000
1000
0000
1000
0000
0100
0010
0100
0000
0000
0000
,
0011
1001
0000
0110
1100
0000
0000
0000
,
0000
0000
1000
0000
0000
0001
0000
0000
0100
0000
0000
0000
0000
0000
0000
0000
,
0000
0000
0010
0000
0000
1000
0000
0000
0001
0000
0000
0000
0000
0000
0000
0000
,
0000
0000
0100
0000
0000
0010
0000
0000
1000
0000
0000
0001
0000
0000
0010
0000
,
0000
0010
0000
0010
0000
0001
1000
0000
,
0000
0010
1000
0100
0010
0001
0100
0000
,
0000
1000
0100
0010
0001
0100
1000
0000
,
0000
0001
0010
1000
0010
0001
0010
1000
,
0200
0000
0000
0000
1000
0000
0000
0000
0010
0000
0000
0000
0001
0300
0000
0000
,
1000
0100
1000
0100
1000
0100
1000
0100
,
0001
0100
0001
0100
0001
0100
0010
0001
,
1000
0001
1000
0001
1000
0010
1000
0001
,
1000
0001
0100
0010
1000
0010
1000
0010
,
1000
0001
1000
0001
1000
0001
1000
0100
,
0010
0100
0010
0100
0010
0100
1000
0010
,
0100
0001
0200
0000
0320
0000
0230
0000
,
0320
0000
0000
0000
0130
0000
0000
0000
0010
0000
0100
0001
1000
0000
0000
0000
,
0001
1000
1000
0000
0001
0000
1000
0000
,
0001
0000
1000
0100
0010
0000
0000
0000
0001
0000
0000
0000
1000
0000
0000
0000
,
0001
0000
0100
0000
0010
0000
0000
0000
1000
0000
0001
0010
0100
0000
0000
0000
,
0010
0000
0100
0010
0100
0000
1000
0001
1000
0000
0000
0000
0001
0000
1000
0000
,
0001
0000
0000
0000
0100
0000
0001
1000
0001
1000
0001
0000
0020
0000
0030
0000
;

//---------------dance-single - Copied from I don't----------------
#NOTES:
     dance-single:
     Copied from I don't:
     Challenge:
     10:
     0.788,0.748,0.566,0.290,0.759,625.000,76.000,39.000,2.000,2.000:
0010
1000
0001
0100
0001
1000
0001
0100
0001
1000
0100
1000
0001
0000
1000
0000
,
0010
0001
1000
0100
0010
1000
0100
1000
0001
0000
1100
0000
0001
0000
2020
3030
,
0000
0000
0000
0100
0010
0100
0000
0001
0100
0001
0000
1000
0001
1000
0000
0001
,
0010
0100
0000
0001
0100
0001
0000
0100
1000
0100
0000
1000
0010
0100
0000
0001
,
1000
0000
0020
0030
1000
0000
0020
0030
1000
0000
0002
0003
1000
0000
0002
0003
,
0011
0000
0200
0300
0001
0000
2200
3300
0010
0000
0001
0100
1000
0000
0100
0000
,
1001
0010
0100
0000
0001
0000
1000
0001
0020
0030
0100
0000
1000
0000
0100
0000
,
1000
0001
1000
0000
0011
0000
0001
0010
0000
0000
0101
0000
1000
0001
0100
0000
,
0010
0100
0001
0000
1000
0000
0001
1000
0000
1000
0001
0000
0000
0M00
0000
0000
,
1001
0100
0001
0000
0110
0000
0001
0010
0000
0100
0010
0000
0002
0000
0000
0003
,
1000
0010
1000
0000
0011
0000
1000
0100
0000
0001
0100
0000
0020
0000
0002
0030
,
0013
0100
0001
0000
0001
0000
1000
0010
0000
0100
0010
0000
1000
0010
0000
1000
,
0001
0010
0001
0000
1000
0000
0001
0100
0000
0010
0001
0000
0010
1000
0100
0010
,
1000
0001
0100
0000
0010
0000
1000
0001
0000
1000
0001
0000
1000
0001
0000
1010
,
1000
0001
0010
0000
1100
0000
0000
0110
0000
0000
0011
0000
2000
3000
0002
0003
,
0010
0010
0100
0001
1000
0100
0001
0000
0010
0100
1000
0000
0022
0000
0033
0000
,
1000
0001
0010
0001
1000
0000
0001
0010
1000
0000
0010
0100
0001
1000
0010
0001
,
0100
0001
0010
0100
1000
0000
1000
1000
0100
0000
0001
1000
0001
0000
0100
0000
,
0001
0010
0100
0001
0100
0000
0100
0010
0100
0000
1000
0010
0001
1000
0001
0100
,
1000
0100
0001
0100
1000
0000
0110
0000
1001
0000
0010
0001
2000
0000
0000
3000
,
0100
0100
0010
0010
0000
0220
0000
0330
0100
0020
0030
0100
0010
0000
1000
0000
,
0001
0010
0100
1000
0001
0000
0010
0100
1000
0000
0001
0010
0100
0000
1000
0000
,
0010
0010
0001
0001
1000
1000
0001
0100
0001
1000
0001
0010
0100
1000
0010
0100
,
1001
0000
1001
0000
0110
0000
1001
0000
1000
0200
0300
1000
0100
0010
0100
1000
,
0001
0010
0001
1000
0000
0110
0110
0000
0000
0001
0100
0001
1000
0001
1000
0100
,
0010
0100
1001
0100
0010
0000
1001
0000
1100
0000
0010
1000
0001
0000
0000
0000
,
1000
0000
0000
0000
1000
0000
0000
0000
1010
0000
0000
0000
0001
0100
0001
0000
0200
0000
0000
0000
0300
0000
0010
0000
1000
0000
0000
0000
0001
0000
0000
0000
,
0010
0000
1000
0001
1000
0000
0010
0100
0001
0000
0001
0000
1001
0000
1000
0000
,
0010
0100
0001
0000
0001
0000
1000
0001
0000
1000
0010
0000
0001
0000
1000
0000
,
0010
0100
1000
0000
0001
0000
0100
1000
0000
0100
0010
0000
0010
0000
0001
0000
,
1000
0001
0100
0000
0010
0000
1000
0001
0000
0010
0100
0000
2001
0000
3001
0000
,
0M00
0000
1000
0100
0000
1000
0100
0000
1000
0000
0001
0100
0001
0000
1000
0000
,
0001
0010
1000
0000
0001
0000
0100
0001
0000
1000
0010
0000
0110
0000
1000
0001
,
0100
0010
0001
0000
0010
0000
1000
0010
0000
0001
0010
0000
1000
0001
1000
0000
,
0011
0000
0100
0001
0100
0000
0001
0000
0011
0000
1001
0000
1000
0100
0010
0001
,
1000
0000
0000
0000
0000
0000
0000
0000
0000
0000
0000
0000
0000
0000
0000
0000
0000
0000
0000
0000
0000
0001
0000
0000
0000
0000
0000
0000
0000
0000
0000
0000
0000
0000
0000
0000
1000
0000
0000
0000
0000
0000
0000
0000
0000
0000
0000
0000
0000
0000
0000
0000
0000
0000
0000
0000
0000
0000
0000
0000
0000
0000
0000
0000
0000
0000
0000
0000
0000
0000
0000
0000
0001
0000
0000
0000
0000
0000
0000
0000
0000
0000
0000
0000
0000
0000
0000
0000
0000
0000
0000
0000
0000
0000
0000
0000
1000
0000
0000
0000
0000
0000
0000
0000
0000
0000
0000
0000
0000
0000
0000
0000
0001
0000
0000
0000
0000
0000
0000
0000
0000
0000
0000
0000
0000
0000
0000
0000
0000
0000
0000
0000
0000
0000
0000
0000
2000
0000
0000
0000
0000
0000
0000
0000
3000
0000
0000
0000
0000
0000
0000
0000
0000
0000
0000
0000
0000
0000
0000
0000
0000
0000
0000
0000
0000
0000
0000
0000
0000
0000
0000
0000
0000
0000
0000
0000
0000
0000
0000
0000
0000
0000
0000
0000
0000
0000
0000
0000
0000
0000
0000
0000
,
1001
0000
0100
0000
0101
0000
0001
1000
0000
0100
0001
0000
0000
0010
0100
0001
,
1000
0010
0001
0000
0010
0000
0100
1000
0000
0100
1000
0000
0000
0220
0000
0330
,
1001
0000
0110
0000
0011
0000
1000
0100
1000
0002
0003
0010
0200
0000
0000
0300
,
1000
0000
1100
0000
1001
0000
0101
0000
0110
0000
1000
0001
0010
0001
0100
0001
,
1100
0000
0000
0000
0110
0000
0000
0000
0001
0000
0000
0000
1000
0100
0001
0100
,
1100
0000
0000
0000
0011
0000
0000
0000
0101
0000
0000
0000
0010
0001
0010
0100
,
0001
0000
0011
0000
1001
1000
0001
0001
,
0100
0010
1000
0001
0010
0001
1000
0010
1000
0100
0010
1000
0010
0001
0100
0001
,
1000
0001
0010
0100
1000
0001
0010
0001
0100
0010
1000
0001
0100
0010
0100
0001
,
1000
0100
0001
0100
1000
0010
0001
0100
0001
0100
0001
1000
0010
1000
0001
1000
,
0002
0003
0020
0030
0200
0300
0002
0003
2200
0000
0001
3300
0220
0000
0000
0330
,
1001
0100
0001
0010
0001
0001
1000
0110
,
1000
0001
0100
1010
0001
1100
0010
1000
,
0001
0100
0001
0010
1000
0001
1010
0100
,
1001
0101
1000
0011
1000
0010
0110
1100
,
0010
1000
0101
0001
0011
1000
0101
0110
,
1001
0001
1100
0001
0010
1000
0100
0101
,
1100
0110
0011
1000
1010
0001
0100
0010
,
1000
0000
0001
0000
0100
0000
0001
1000
0010
0000
1000
0000
0100
0000
0000
0000
,
0010
0000
0001
1000
0100
0000
1000
0000
0010
0000
0001
1000
0100
0000
0001
1000
,
0010
0000
0100
0000
0100
0000
0000
0000
0010
0000
0100
0010
0100
0000
0001
1000
,
0010
0000
1000
0001
0100
0000
0000
0000
0010
0000
1000
0010
0100
0000
0010
0001
,
0010
0000
0100
0000
0100
0000
0000
0000
0010
0000
1000
0001
0100
0000
0001
1000
,
0010
0000
0001
1000
0100
0000
1000
0001
0010
0000
1000
0010
0100
0000
0001
0100
,
0010
0000
1000
0001
1100
0000
1000
0001
0010
0001
1000
0000
2201
0000
0000
3300
;
