#TITLE:Funky Bingo Paradise;
#SUBTITLE:;
#ARTIST:Sawasaki Yoshihiro;
#TITLETRANSLIT:;
#SUBTITLETRANSLIT:;
#ARTISTTRANSLIT:;
#CREDIT:ChaosUnown;
#BANNER:funky-bn.png;
#BACKGROUND:funky.png;
#LYRICSPATH:;
#CDTITLE:chaosunownCD.png;
#MUSIC:funky.ogg;
#OFFSET:0.009;
#SAMPLESTART:41.500;
#SAMPLELENGTH:12.000;
#SELECTABLE:YES;
#BPMS:0.000=133.000;
#STOPS:;
#BGCHANGES:;
// cache tags:
#FIRSTBEAT:16.000;
#LASTBEAT:223.500;
#SONGFILENAME:Songs/Omnifarious/(ChaosUnown) Funky Bingo Paradise/funky.sm;
#HASMUSIC:1;
#HASBANNER:1;
#MUSICLENGTH:101.897;
// end cache tags

//---------------dance-single - P. Mason----------------
#NOTES:
     dance-single:
     P. Mason:
     Challenge:
     9:
     0.716,0.823,0.422,0.962,0.373,368.000,43.000,98.000,10.000,0.000:


0000
0000
0000
0000
,
0000
0000
0000
0000
,
0000
0000
0000
0000
,
0000
0000
0000
0000
,
M101
0001
0000
0001
0000
0001
2000
3100
,
0000
0010
0000
0010
0000
0010
0001
0000
,
1M01
1000
0000
1000
0000
1000
0020
0130
,
0002
2003
3000
0002
2003
3000
0002
2003
3002
2003
3000
0000
0002
2003
3000
0000
,
12M0
0000
0000
0310
0001
0000
0100
0000
0010
0000
1000
0000
1100
0000
0000
0000
,
0002
0000
0000
1003
0010
0000
0100
0000
0001
0000
0010
0000
0000
0010
0000
0000
,
0200
0000
0000
1300
0001
0000
1000
0000
0010
0000
0100
0000
0101
0000
0000
0000
,
2000
0000
0000
3100
0010
0000
0001
0000
0100
0000
0010
0000
2000
3002
0003
0000
,
0021
0000
0000
0130
1000
0000
0001
0000
1000
0000
0010
0000
0110
0000
0000
0000
,
2000
0000
0000
3001
0010
0000
0001
0000
1000
0000
0010
0000
0000
0010
0000
0000
,
0200
0000
0000
0301
1000
0000
0100
0000
0010
0000
0100
0000
1100
0000
0000
0000
,
0002
0000
0000
0103
0010
0000
0100
0000
0002
2003
3000
0000
0002
2003
3000
0000
,
11M0
0000
0100
0000
0000
0100
0000
0020
0000
0000
0031
0000
0100
0000
0020
0000
,
0000
0000
1030
0000
1001
0000
0001
0000
0010
0000
0100
0000
0010
0002
0000
0003
,
0000
0000
1000
0000
0000
1000
0000
0020
0000
0000
0130
0000
0101
0000
0001
0000
,
0000
0000
1000
0000
0100
0000
1000
0100
0000
1000
0002
0000
0203
0000
0310
0000
,
1000
0000
0001
0000
0000
0001
0000
0020
0000
0000
0130
0000
1000
0000
0002
0000
,
0000
0000
0103
0000
0110
0000
0010
0000
1000
0000
0001
0000
0010
0002
0000
0003
,
0000
0000
0100
0000
0000
0100
0000
0020
0000
0000
1030
0000
0001
0000
0010
0000
,
0110
0000
0000
0110
0000
0000
0110
0000
0200
2300
3000
0000
0200
2300
3000
0000
,
10M2
0000
0000
0103
0010
0000
1000
0000
0001
0000
0010
0000
0110
0000
0000
0000
,
2000
0000
0000
3001
0100
0000
0001
0000
1000
0000
0100
0000
0000
0100
0000
0000
,
0020
0000
0000
0031
0100
0000
0010
0000
1000
0000
0010
0000
0110
0000
0000
0000
,
0002
0000
0000
1003
0100
0000
0010
0000
0001
0000
1000
0000
0020
2030
3000
0000
,
0M02
0000
0000
0013
0002
0000
0000
0013
0002
0000
0000
0013
0001
0000
0000
0000
,
2000
0000
0000
3010
2000
0000
0000
3010
2000
0000
3001
0000
0000
0001
0000
0000
,
M020
0000
0000
0130
0020
0000
0000
0130
0020
0000
0000
0130
0010
0000
0000
0000
,
0002
0000
0000
1003
0002
0000
0000
1003
0002
0000
0103
0000
0020
2030
3000
0000
,
0M02
0003
1000
0000
1100
0000
0000
0000
0100
0000
0010
0000
0011
0000
0000
0000
,
0001
1000
0010
0100
1000
0100
0001
0010
,
0100
1000
1001
0000
0001
0100
0110
0000
,
0010
0000
1000
0000
0100
0000
0001
0000
0100
0000
0010
0000
0002
2003
3000
0000
,
0020
0030
0100
0000
0101
0000
0000
0000
0001
0000
1000
0000
1100
0000
0000
0000
,
0100
0010
0001
0100
1000
0100
0010
1000
,
0001
0010
0110
0000
0100
1000
1001
0000
,
0001
0000
0010
0000
1000
0000
0010
0000
0100
0000
1000
0000
0002
0203
0300
0000
,
001M
1000
0000
0000
0001
0000
0010
0100
0000
0000
0010
0000
0001
0000
1000
0000
,
0001
0100
0000
0000
0010
0000
1000
0001
0000
0000
0010
0000
0100
0000
0010
0000
,
0001
1000
0000
0001
1000
0000
0001
0100
0000
0010
0100
0000
0004
1003
0000
0400
,
0000
0000
0000
0000
0000
0000
0300
0000
0110
0000
0000
0110
0000
0000
0110
0000
,
M002
0003
0200
0000
0320
0000
2030
0000
3002
0000
0013
0000
0110
0000
0200
0000
,
0000
1300
0001
0100
1000
0100
0010
1000
,
0001
0020
0230
0320
0032
1003
1010
0020
,
0000
0000
0130
0000
0001
0000
0010
0000
1000
0000
0010
0000
0200
2300
3000
0000
,
0002
0003
2000
0000
3020
0000
0230
0000
0302
0000
0013
0000
0110
0000
0200
0000
,
0000
1300
0001
0100
0010
0001
0010
1000
,
0001
0020
0230
2300
3020
0130
0101
0002
,
0000
0000
1003
0000
0100
0000
0010
0000
0002
2003
3000
0000
0002
2003
3000
0000
,
0010
1000
0000
0000
0001
0000
0010
0100
0000
0000
0010
0000
0001
0000
0010
0000
,
0010
0100
0000
0010
0100
0000
0010
0001
4000
0000
0000
0000
0000
0000
3000
0000
,
1010
0000
0000
1010
0000
0000
1010
0000
1001
0000
0000
1001
0000
0000
1001
0000
,
0011
0000
0000
0011
0000
0000
0011
0000
0020
0230
0300
0000
0020
0230
0300
0000
;
