#TITLE:ATOMS;
#SUBTITLE:;
#ARTIST:Rotten Blotch;
#TITLETRANSLIT:;
#SUBTITLETRANSLIT:;
#ARTISTTRANSLIT:;
#CREDIT:;
#BANNER:ATOMS-bn.png;
#BACKGROUND:ATOMS-bg.jpg;
#LYRICSPATH:;
#CDTITLE:Type MARS.png;
#MUSIC:ATOMS.mp3;
#OFFSET:-0.440;
#SAMPLESTART:49.500;
#SAMPLELENGTH:22.600;
#SELECTABLE:YES;
#BPMS:0.000=85.000,32.000=170.000,176.000=85.000,188.000=170.000;
#STOPS:;
#BGCHANGES:;
// cache tags:
#FIRSTBEAT:0.000;
#LASTBEAT:228.000;
#SONGFILENAME:Songs/Definitive Keyboard Megapack/ATOMS(TypeMARS)/ATOMS.sm;
#HASMUSIC:1;
#HASBANNER:1;
#MUSICLENGTH:102.303;
// end cache tags

//---------------dance-single - ----------------
#NOTES:
     dance-single:
     :
     Hard:
     10:
     0.976,1.000,0.518,0.000,0.992,646.000,53.000,0.000,0.000,0.000:
0001
0100
0001
0100
0001
0100
0001
0100
0001
0100
0001
0100
0001
0100
0001
0100
,
1000
0000
0100
0000
1000
0000
0100
0000
1000
0000
0100
0000
1000
0000
0100
0000
0010
0000
0100
0000
0010
0000
0100
0000
0010
1000
0100
0010
0001
1000
0100
0010
,
0001
1000
0010
1000
0010
1000
0010
1000
0001
0100
0001
0100
0001
0100
0001
0100
,
0010
0100
0010
0100
0010
0100
0010
0100
0001
1000
0001
1000
0001
1000
0001
1000
,
0001
0000
0100
0000
0010
0000
0010
0000
1000
0000
0100
0000
0100
0000
0001
0000
0100
0000
0010
0000
0100
0000
0010
0000
0100
1000
0010
0001
1000
0110
0001
0100
,
0001
0000
0100
0000
0010
0000
0100
0000
0010
0000
1000
0000
0010
0000
1000
0000
0100
0000
0001
0000
0100
0000
0001
0000
0010
0100
1000
0100
0011
0000
1000
0000
,
0100
0010
0001
0001
0100
0010
0010
1000
0100
1000
0100
1000
0010
0100
0010
0100
,
0001
0000
1000
0000
1000
0000
0010
0000
0100
0000
0100
0000
0001
0000
0010
0000
1000
0000
0100
0000
0100
0000
0001
0010
0100
1000
0100
1000
0010
0001
0010
0001
,
0100
1000
0010
0010
0100
0001
0001
0100
,
0010
1000
0010
1000
0001
0100
0001
0100
,
0010
0010
1000
0100
0010
0010
0001
0100
,
0010
1000
1000
0001
0100
0100
0010
0110
,
0000
0000
1000
0000
0001
0010
0100
0010
0001
0000
0001
0000
0100
0000
0101
0000
,
0000
0000
0010
0100
1000
0010
0001
0000
0100
0000
0001
0000
1000
0000
1100
0000
,
0000
0000
0010
0000
1000
0100
0010
0001
0100
0000
0010
0000
1000
0000
1001
0000
,
0000
0000
0010
0000
0001
0000
0100
0010
0100
0001
1000
0001
0100
0010
0100
0010
,
1000
0000
0001
0000
0100
0000
0100
0000
0010
0000
1000
0000
1000
0000
0001
0100
,
0010
0000
1000
0000
0001
0000
0100
0000
0010
0000
0100
0000
0100
0000
1000
0001
,
0100
0000
0010
0000
0001
0000
0100
0000
0010
0000
1000
0000
0010
0000
0100
1000
,
0001
0100
0010
1000
1000
0001
0100
0110
,
0000
0000
0001
0000
1000
0010
0001
0100
1000
0000
0010
0000
0100
0000
0110
0000
,
0000
0000
1000
0100
0010
0001
0100
0000
0010
0000
1000
0000
0001
0000
1001
0000
,
0000
0000
0010
0000
0001
0010
0100
1000
0100
0000
0010
0000
0100
0000
0110
0000
,
0000
0000
1000
0000
0001
0000
0100
0010
1000
0100
0010
0001
0010
0100
1000
0100
,
0010
0010
1100
1000
0001
0001
0110
0100
,
0010
0010
1100
0100
0001
0001
1010
1000
,
0110
0010
1100
1000
0101
0001
0110
0100
,
0011
0000
0001
0000
1100
0000
1000
0000
0001
0100
0001
0100
0010
1000
0010
1000
,
0001
0000
0010
0000
0010
0000
1000
0001
0100
0001
1000
0000
0010
0000
0100
0000
,
0010
0000
1000
0000
0001
0000
0100
0010
1000
0010
0100
0000
0001
0000
0100
0010
,
1000
0000
0001
0000
0100
0000
0010
0001
0100
0010
0100
0000
1000
0000
0010
0000
,
0100
0000
0001
0000
1000
0000
0010
0001
1000
0010
0100
0000
0001
0000
0100
0010
,
1000
0000
0100
0000
0001
0000
1000
0010
0001
0100
0010
0000
1000
0000
0001
0000
,
0100
0000
0010
0000
0100
0000
1000
0001
0100
0010
0100
0000
0001
0000
0110
0000
,
0000
0000
0100
0000
0001
0000
1000
0010
0100
0001
0100
1000
0010
0000
0110
0000
,
0000
0000
0010
0000
0001
0000
0100
0010
1000
0001
0100
0010
1000
0100
0010
0001
,
0100
0000
0010
0000
1000
0000
0001
0100
0001
0000
0010
0000
1000
0000
0100
0010
,
0100
0000
1000
0000
0010
0000
0100
0001
0100
0000
0010
0000
1000
0000
0001
0100
,
0001
0000
0010
0000
0100
0000
0001
1000
0001
0000
0100
0000
0010
0000
1000
0100
,
1000
0000
0010
0000
0100
0000
0001
0100
0001
0000
0010
0000
1000
0000
0110
0000
,
0000
0000
0001
0000
0100
0000
0010
1000
0001
0000
0100
0000
0010
0000
0110
0000
,
0000
0000
1000
0000
0100
0000
0010
0001
0100
0010
1000
0000
0100
0000
0110
0000
,
0000
0000
0001
0000
0100
0000
0010
1000
0100
0001
0010
0100
0010
0000
0110
0000
,
0000
0000
0001
0000
0010
0000
0001
0010
0100
0010
0001
0100
1000
0100
0010
0001
,
0100
0000
0010
0000
1000
0000
1000
0000
0001
0000
0100
0000
0100
0000
0010
0000
1000
0000
0001
0000
1000
0000
0001
0000
0100
0000
0010
0000
0100
0000
0010
0001
,
1000
0000
0010
0000
0100
0000
0100
0000
0001
0000
1000
0000
0010
0000
0010
0000
0100
0000
0001
0000
1000
0000
1000
0000
0010
1000
0100
0010
0001
0000
0001
0100
,
1000
0000
0010
0000
0100
0000
0100
0000
0001
0000
0010
0000
0010
0000
1000
0000
0100
0000
0010
0000
0001
0000
0010
0000
0100
0010
1000
0100
0010
0000
0100
0010
,
0001
0010
0100
1000
0001
0100
0010
1000
0001
1000
0010
0100
1000
0001
0100
0010
,
1000
0100
0010
0001
0100
0000
0010
1000
0001
0100
0010
1000
0100
0010
0001
0010
,
0100
1000
1001
0100
0110
0001
0101
1000
,
1100
0010
0110
0001
0101
1000
1100
0010
,
0110
0001
1001
1000
1100
0010
0110
0001
,
1001
0000
0010
0000
0110
0000
1000
0000
1000
0100
0010
0001
1000
0010
0100
0001
,
1000
0010
0110
0001
0101
1000
1100
0010
,
0110
0001
1001
1000
0110
0001
0110
1000
,
0101
0010
0110
1000
1100
0001
0101
1000
,
1001
0000
0010
0000
0110
0000
0001
0100
0010
1000
0100
0010
0001
0010
0100
1000
,
0110
0000
0000
0000
;

//---------------dance-single - ----------------
#NOTES:
     dance-single:
     :
     Challenge:
     12:
     1.000,1.000,1.000,0.802,1.000,710.000,163.000,82.000,0.000,23.000:
1020
0032
1023
0032
1023
0032
1023
0032
1023
0032
1023
0032
1023
0032
1023
0032
,
1203
0000
0302
0000
1203
0000
0302
0000
1203
0000
0302
0000
1203
0000
0302
0000
2103
0000
3002
0000
2003
0000
3002
0000
2003
3100
0002
1003
0020
0130
0002
1003
,
0020
0100
1000
0100
1000
0100
1000
0100
1000
0001
1000
0001
0100
0001
0130
0011
,
1100
0001
1000
0001
1000
0001
1000
0001
0010
0100
0010
0100
0010
0100
0010
0110
,
2010
0000
3002
0000
1023
0000
1230
0000
0320
0000
0231
0000
0321
0000
2030
0000
3002
0000
2003
0000
3002
0000
2003
0000
3002
0100
2003
0010
3200
0001
0320
0001
,
0230
0000
0302
0000
2003
0000
3002
0000
2003
0000
3200
0000
2300
0000
3200
0000
0302
0000
0023
0000
0032
0000
0023
0000
2030
0001
3200
0001
1320
0000
0230
0000
,
0312
2003
3210
2310
3002
1023
2130
3020
0032
0203
0302
0203
2300
3002
2003
3002
,
0113
0000
0100
1000
0110
0000
1000
0010
0101
0000
0001
1000
0110
0000
1000
0010
0100
0010
0001
0010
0001
0000
0010
1000
0001
0100
0001
0100
1000
0010
1000
0010
,
0101
0000
0100
0000
1010
0000
1010
0100
0001
0100
0010
0000
0010
0000
0001
0010
,
1100
0000
0100
0000
1001
0000
0100
0001
0010
1000
0001
0000
0110
0000
0001
0100
,
1000
0010
1000
0010
1100
0010
0001
0100
1020
0000
1000
0000
0130
0000
0001
0010
,
1000
0110
0101
1010
0101
0011
1100
1001
,
0000
0000
0100
0000
0010
1000
0001
1000
0010
0000
0010
0100
0001
0000
1001
0000
,
0000
0000
1000
0001
0100
1000
0010
0100
0001
0000
0010
1000
0100
0000
0101
0000
,
0000
0000
1000
0000
0100
0001
1000
0010
0001
0100
1000
0010
0100
0000
0110
0000
,
0000
0000
1000
0100
0010
0000
0001
1000
0001
0010
0100
0010
0001
1000
0001
1000
,
0110
0000
0010
0000
1001
0000
0101
0000
1000
0000
0110
0000
0110
0000
0010
0001
,
1000
0000
0100
0000
1010
0000
0001
0000
1000
0000
0001
0000
0011
0000
0100
0010
,
0001
0000
1000
0000
0110
0000
0011
0000
1100
0000
0100
0000
1010
0000
0011
0100
,
0010
0101
1010
0101
1100
0110
0011
1001
,
0000
0000
0010
0000
0100
1000
0010
0001
0100
0000
1000
0100
0001
0000
1001
0000
,
0000
0000
0100
0001
1000
0010
0001
0000
1000
0010
0100
0001
0010
0000
0110
0000
,
0000
0000
1000
0000
0010
1000
0001
0100
0001
0010
1000
0100
0001
0000
1001
0000
,
0000
0000
0100
0000
0010
0000
0001
1000
0100
0001
1000
0010
1000
0001
0100
0001
,
1010
1000
0101
0100
1010
0010
1001
0001
,
1010
1000
0101
0001
0110
0010
1100
0100
,
1001
1000
0101
0100
0011
0010
1001
0001
,
1010
0000
0110
0000
0101
0000
0110
0000
0010
0001
0010
0001
1000
0100
1000
0100
,
0011
0000
1000
0000
1010
0000
0100
0010
0001
0010
0100
0000
1001
0000
0001
0000
,
1000
0000
0100
0000
1010
0000
0001
1000
0100
1000
0001
0000
0110
0000
0001
1000
,
0100
0000
0010
0000
0101
0000
1000
0010
0001
1000
0001
0000
0110
0000
1000
0000
,
0001
0000
0010
0000
1100
0000
1000
0010
0100
1000
0001
0000
0110
0000
0001
1000
,
0100
0000
0001
0000
1010
0000
0100
1000
0010
0001
1000
0000
0101
0000
0010
0000
,
0001
0000
1000
0000
0011
0000
0100
0010
0001
1000
0001
0000
0110
0000
1001
0000
,
0000
0000
0001
0000
1010
0000
0100
1000
0001
0010
0001
0100
1010
0000
1001
0000
,
0000
0000
1000
0000
0110
0000
0001
1000
0100
0010
0001
1000
0110
0001
1000
0010
,
0001
0000
1000
0000
0101
0000
0010
0001
0010
0000
1000
0010
0101
0000
0001
1000
,
0001
0000
0100
0010
1100
0000
0001
0010
0001
0000
1000
0010
1100
0000
0010
0001
,
0010
0000
1000
0100
1001
0000
0010
0100
0010
0000
0001
0100
1010
0000
0100
0001
,
0100
0000
1000
0100
1001
0000
0010
0001
0010
0000
1000
0010
0101
0000
1001
0000
,
0000
0000
0010
0000
0101
0000
1000
0100
0010
0100
0001
0000
1000
0000
1001
0000
,
0000
0000
0100
0000
0011
0000
1000
0010
0001
1000
0100
0010
0001
0000
1001
0000
,
0000
0000
0010
0000
1001
0000
1000
0100
0001
0010
1000
0001
1000
0000
1001
0000
,
0000
0000
0010
0000
1000
0000
0010
1000
0011
1100
0011
1100
0011
1100
0011
1100
,
0011
0000
1000
0000
0110
0000
1100
0000
0010
0000
0101
0000
0011
0000
1000
0000
0100
0000
0010
0000
0100
0000
0010
0000
0001
0000
1000
0000
0001
0000
1100
0010
,
0101
0000
1000
0000
0101
0000
0001
0000
1010
0000
0100
0000
1010
0000
1000
0000
0101
0000
0010
0000
0101
0000
0100
0000
1010
0100
0001
1000
0110
0000
0010
0001
,
0110
0000
1000
0000
0101
0000
1001
0000
0010
0000
1010
0000
1001
0000
0100
0000
0001
0000
1000
0000
0010
0000
1000
0000
0001
1000
0100
0001
1000
0000
0001
1000
,
0010
1000
0001
0100
0010
0001
1000
0100
0010
0100
1000
0001
0100
0010
0001
1000
,
0100
0001
1000
0010
0001
0000
1000
0100
0010
0001
1000
0100
0001
1000
0010
1000
,
0101
0100
0110
0001
1001
0010
0011
0100
,
0101
1000
1001
0010
0011
0100
0101
1000
,
1001
0010
0110
0100
0101
1000
1001
0010
,
0110
0000
1000
0000
1001
0000
0100
0000
0100
0001
1000
0010
0100
1000
0001
0010
,
0100
1000
0100
1000
0100
1000
0100
1000
0001
0100
0001
0100
0001
0100
0001
0100
,
0010
1000
0010
1000
0010
1000
0010
1000
0100
0010
0100
0010
0100
0010
0100
0010
,
0001
1000
0010
0100
0001
0010
0100
1000
0001
0100
0010
1000
0100
0010
0001
0100
,
0010
1000
0100
0010
0100
1000
0010
0001
1000
0100
0001
1000
0010
1000
0001
0100
,
1001
0000
0000
0000
;
