#TITLE:IT'S A SMALL WORLD;
#SUBTITLE:(Ducking Hardcore MIX);
#ARTIST:TOMOSUKE / U1-ASAMi;
#TITLETRANSLIT:;
#SUBTITLETRANSLIT:;
#ARTISTTRANSLIT:;
#CREDIT:;
#BANNER:IT'S A SMALL WORLD (Ducking Hardcore MIX).png;
#BACKGROUND:IT'S A SMALL WORLD (Ducking Hardcore MIX)-bg.png;
#LYRICSPATH:;
#CDTITLE:./CDTITLES/DANCING STAGE FEAT. DISNEY'S RAVE.PNG;
#MUSIC:IT'S A SMALL WORLD (Ducking Hardcore MIX).mp3;
#OFFSET:-0.245;
#SAMPLESTART:31.380;
#SAMPLELENGTH:12.000;
#SELECTABLE:YES;
#DISPLAYBPM:183.000;
#BPMS:0.000=183.000;
#STOPS:;
#BGCHANGES:;
// cache tags:
#FIRSTBEAT:16.000;
#LASTBEAT:288.000;
#SONGFILENAME:Songs/juju steps/IT'S A SMALL WORLD (Ducking Hardcore MIX)/IT'S A SMALL WORLD (Ducking Hardcore MIX).sm;
#HASMUSIC:1;
#HASBANNER:1;
#MUSICLENGTH:97.561;
// end cache tags

//---------------dance-single - ----------------
#NOTES:
     dance-single:
     :
     Easy:
     5:
     0.388,0.443,0.348,0.000,0.000,231.000,34.000,0.000,0.000,0.000:  // measure 1
0000
0000
0000
0000
,  // measure 2
0000
0000
0000
0000
,  // measure 3
0000
0000
0000
0000
,  // measure 4
0000
0000
0000
0000
,  // measure 5
0001
0010
0100
1000
,  // measure 6
0010
0100
0001
1000
,  // measure 7
0100
0100
0010
0001
,  // measure 8
0100
0100
0010
1000
,  // measure 9
1001
1001
0100
0001
,  // measure 10
0010
0010
0100
1000
,  // measure 11
1001
1001
0100
1000
,  // measure 12
0001
0100
0010
1000
,  // measure 13
1001
1001
0100
0001
,  // measure 14
0010
1000
0010
1000
,  // measure 15
0010
0001
0010
0001
,  // measure 16
0010
0000
0010
0000
0100
0100
0100
0000
,  // measure 17
0001
0001
1000
1000
,  // measure 18
0100
0100
0010
0010
,  // measure 19
0001
0001
0100
0100
,  // measure 20
1001
1001
0100
0000
,  // measure 21
1001
1001
1000
1000
,  // measure 22
0001
0001
0100
0100
,  // measure 23
1001
0000
1001
0000
,  // measure 24
0100
0100
0100
0000
,  // measure 25
1000
0010
0001
0100
,  // measure 26
1000
0010
0001
0100
,  // measure 27
0001
0010
0100
1000
,  // measure 28
0001
0010
0100
1000
,  // measure 29
0001
0100
1000
0100
,  // measure 30
0001
0010
1000
0010
,  // measure 31
0001
0010
0100
1000
,  // measure 32
0001
0000
0000
0000
,  // measure 33
1000
0010
0001
0100
,  // measure 34
1000
0010
0001
0100
,  // measure 35
0001
0010
0100
1000
,  // measure 36
0001
0010
0100
1000
,  // measure 37
0001
0100
1000
0100
,  // measure 38
0001
0010
1000
0010
,  // measure 39
0001
0010
0100
1000
,  // measure 40
0001
0000
0000
0000
,  // measure 41
1001
0000
1001
0000
,  // measure 42
1001
0000
0000
0000
0001
0010
0001
0000
,  // measure 43
1001
0000
1001
0000
,  // measure 44
1001
0000
0000
0000
1000
0100
1000
0000
,  // measure 45
1001
0000
1001
0000
,  // measure 46
1001
0000
0000
0000
0010
0100
0010
0000
,  // measure 47
0001
0000
0010
0000
,  // measure 48
0100
0000
0000
0000
,  // measure 49
1001
0000
0000
0000
,  // measure 50
0000
0000
0000
0000
,  // measure 51
1001
0000
0000
0000
,  // measure 52
0000
0000
0000
0000
,  // measure 53
1000
0000
0010
0000
,  // measure 54
0100
0000
0001
0000
,  // measure 55
1000
0000
0100
0000
,  // measure 56
0010
0010
0001
0100
,  // measure 57
0010
1000
0001
0100
,  // measure 58
0010
0010
1000
1000
,  // measure 59
0100
0010
0001
1000
,  // measure 60
0010
0010
0100
0100
,  // measure 61
1001
1001
0010
0100
,  // measure 62
1000
1000
0001
0001
,  // measure 63
0010
0001
1000
0100
,  // measure 64
0010
0010
0001
0001
,  // measure 65
0110
0110
1000
1000
,  // measure 66
0100
0100
0010
0001
,  // measure 67
0100
1001
0000
1001
,  // measure 68
0000
1001
1001
1001
,  // measure 69
1000
0100
0010
0001
,  // measure 70
1000
0100
0010
1001
,  // measure 71
0001
0010
0100
1000
,  // measure 72
0001
0010
0100
1001
,  // measure 73
0010
0000
0000
0000
;

//---------------dance-single - ----------------
#NOTES:
     dance-single:
     :
     Medium:
     8:
     0.467,0.627,0.379,0.000,0.000,282.000,37.000,0.000,0.000,0.000:  // measure 1
0000
0000
0000
0000
,  // measure 2
0000
0000
0000
0000
,  // measure 3
0000
0000
0000
0000
,  // measure 4
0000
0000
0000
0000
,  // measure 5
1000
0100
0010
0001
,  // measure 6
0010
0001
1000
0100
,  // measure 7
0001
0010
0001
0100
,  // measure 8
1000
0010
1000
0100
,  // measure 9
1001
1001
0010
0001
,  // measure 10
0100
0010
0100
0000
1000
0000
0100
0000
,  // measure 11
1001
0101
0010
1000
,  // measure 12
0100
0010
0001
0100
,  // measure 13
1001
1100
0010
0001
,  // measure 14
0100
0010
0010
1000
,  // measure 15
0100
0100
0010
0001
,  // measure 16
1000
0000
1000
0000
1000
0100
0010
0000
,  // measure 17
0010
0010
0001
0001
,  // measure 18
0100
0010
0100
0000
1000
0000
0100
0000
,  // measure 19
0010
0010
0001
1000
,  // measure 20
1100
1010
0100
0000
,  // measure 21
1001
0101
0010
1000
,  // measure 22
0100
0010
0001
0100
,  // measure 23
1001
0000
1001
0000
,  // measure 24
0100
0000
0010
0000
0001
0000
1000
0100
,  // measure 25
0010
0000
0001
0000
0100
0000
1000
0100
,  // measure 26
0010
0000
0001
0000
0100
0000
0001
0010
,  // measure 27
0100
0000
1000
0000
0100
0000
0001
0010
,  // measure 28
0100
0000
1000
0000
0100
0000
0001
0010
,  // measure 29
0001
0000
1000
0001
1000
0000
0010
0100
,  // measure 30
0010
0000
1000
0001
1000
0000
1000
0100
,  // measure 31
0001
0010
0100
1000
,  // measure 32
0001
0000
0000
0000
0000
0000
1000
0100
,  // measure 33
0010
0000
1001
0000
1100
0000
1000
0100
,  // measure 34
0010
0000
1001
0000
1100
0000
0001
0010
,  // measure 35
0100
0000
1001
0000
0011
0000
0001
0010
,  // measure 36
0100
0000
1001
0000
0011
0000
0001
0010
,  // measure 37
0001
0000
1000
0001
1000
0000
0010
0100
,  // measure 38
0010
0000
1000
0001
1000
0000
1000
0100
,  // measure 39
0001
0010
0100
1000
,  // measure 40
0001
0000
0000
0000
,  // measure 41
1010
0000
1010
0000
,  // measure 42
1010
0000
0000
0000
0001
0010
0001
0000
,  // measure 43
0011
0000
0011
0000
,  // measure 44
0011
0000
0000
0000
1000
0010
1000
0000
,  // measure 45
1001
0000
1001
0000
,  // measure 46
1001
0000
0000
0000
0010
0100
0010
0000
,  // measure 47
0001
0000
0010
0000
,  // measure 48
0100
0000
0000
0000
,  // measure 49
1001
0000
0000
0000
,  // measure 50
0000
0000
0000
0000
,  // measure 51
1001
0000
0000
0000
,  // measure 52
0000
0000
0000
0000
,  // measure 53
1000
0000
0100
0000
,  // measure 54
0001
0000
0010
0000
,  // measure 55
1000
0000
0001
0000
,  // measure 56
0010
0010
1000
0100
,  // measure 57
1000
0000
0010
0000
0100
0001
0100
0000
,  // measure 58
0010
0010
1000
1000
,  // measure 59
0100
0000
0010
0000
0001
0100
0001
0000
,  // measure 60
0010
0010
0100
0100
,  // measure 61
1001
1100
0010
0001
,  // measure 62
0100
0100
0010
1000
,  // measure 63
0100
0000
0100
0000
0010
0001
0100
0000
,  // measure 64
0010
0010
1000
1000
,  // measure 65
1001
1001
0100
0001
,  // measure 66
0010
0010
1001
1100
,  // measure 67
1000
0100
1000
0100
1000
0100
1000
0100
,  // measure 68
1000
0100
1000
0100
1000
0100
0010
0001
,  // measure 69
0010
0001
0010
0001
0010
0001
0010
0001
,  // measure 70
1000
0001
1000
0001
1000
0001
1000
0100
,  // measure 71
0010
0001
0100
0001
0100
0001
0100
0001
,  // measure 72
0010
0100
1000
0001
0010
0100
1000
0001
,  // measure 73
0100
0000
0000
0000
;

//---------------dance-single - ----------------
#NOTES:
     dance-single:
     :
     Hard:
     10:
     0.551,0.627,0.451,0.000,0.056,332.000,44.000,0.000,0.000,0.000:  // measure 1
0000
0000
0000
0000
,  // measure 2
0000
0000
0000
0000
,  // measure 3
0000
0000
0000
0000
,  // measure 4
0000
0000
0000
0000
,  // measure 5
1001
0100
0010
0001
,  // measure 6
0100
0010
1000
0100
,  // measure 7
0011
0100
0010
1000
,  // measure 8
0100
0010
0001
0100
,  // measure 9
1001
0000
1100
0000
0010
0001
0100
0000
,  // measure 10
0010
1000
0001
0100
0010
1000
0100
0000
,  // measure 11
1001
0000
0101
0000
0010
1000
0100
0000
,  // measure 12
0010
0001
1000
0010
0100
0001
0010
0000
,  // measure 13
1100
0000
0101
0000
0010
1000
0100
0000
,  // measure 14
0010
0001
0100
0010
1000
0001
0110
0000
,  // measure 15
1000
0001
0100
0010
1000
0100
0010
0000
,  // measure 16
0010
0000
0010
0000
0001
0010
0100
1000
,  // measure 17
1010
0000
0000
0000
1100
0000
0000
0000
0001
0000
0000
0100
0000
0000
0100
0000
,  // measure 18
0000
0000
0100
0000
0010
0000
0000
0000
1000
0000
0000
1000
0000
0000
1000
0000
,  // measure 19
0001
0000
0000
0000
0001
0000
0000
0000
0001
0000
0000
0010
0000
0000
0010
0000
,  // measure 20
0000
0100
1000
0000
1010
0000
0000
0000
,  // measure 21
1010
0000
0000
0000
0110
0000
0000
0000
0010
0000
0000
1000
0000
0000
1000
0000
,  // measure 22
0000
0000
0100
0000
0100
0000
0000
0000
0010
0000
0000
0010
0000
0000
0010
0000
,  // measure 23
1001
0000
1001
0000
,  // measure 24
0100
0000
0100
0000
0100
0000
0001
0010
,  // measure 25
0100
0000
1001
0000
1100
0000
0010
0001
,  // measure 26
0100
0000
1001
0000
0101
0000
1000
0100
,  // measure 27
0010
0000
1001
0000
0101
0000
0010
1000
,  // measure 28
0100
0000
1001
0000
0101
0000
0010
1000
,  // measure 29
0100
0000
0010
0001
0100
0000
0001
0100
,  // measure 30
1000
0000
1000
0100
0001
0000
0001
0010
,  // measure 31
1000
0001
0100
1000
,  // measure 32
0100
0000
0000
0000
0000
0000
1000
0001
,  // measure 33
0100
0010
1000
0100
0010
0000
0001
0100
,  // measure 34
0010
1000
0001
0010
1100
0000
0010
0001
,  // measure 35
0100
0010
1000
0100
0010
0000
0001
0100
,  // measure 36
0010
1000
0100
0010
0101
0000
0100
0010
,  // measure 37
1000
0000
0100
0010
0001
0000
1000
0100
,  // measure 38
0001
0000
0001
0100
1000
0000
1000
0010
,  // measure 39
0001
0010
1000
0001
,  // measure 40
0100
0000
0000
0000
,  // measure 41
1100
0000
1100
0000
,  // measure 42
1100
0000
0000
0000
0100
0010
0001
0000
,  // measure 43
0101
0000
0101
0000
,  // measure 44
0101
0000
0000
0000
0010
1000
0100
0000
,  // measure 45
0110
0000
0110
0000
,  // measure 46
0110
0000
0000
0000
0001
0100
0010
0000
,  // measure 47
1000
0000
0001
0000
,  // measure 48
0100
0000
0000
0000
,  // measure 49
1001
0000
0000
0000
,  // measure 50
0000
0000
0000
0000
,  // measure 51
1001
0000
0000
0000
,  // measure 52
0000
0000
0000
0000
,  // measure 53
1000
1000
0000
0000
0000
0000
0000
0000
0100
0100
0000
0000
0000
0000
0000
0000
,  // measure 54
0001
0001
0000
0000
0000
0000
0000
0000
0010
0010
0000
0000
0000
0000
0000
0000
,  // measure 55
1000
1000
0000
0000
0000
0000
0000
0000
0001
0001
0000
0000
0000
0000
0000
0000
,  // measure 56
0010
0001
1000
0100
,  // measure 57
1001
0000
0101
0000
0010
1000
0100
0010
,  // measure 58
0001
0000
1000
0001
0000
1000
0100
0010
,  // measure 59
0001
0000
1000
0000
0001
0010
0100
1000
,  // measure 60
0001
0000
0010
0100
0000
1000
0100
0000
,  // measure 61
1001
0000
1100
0000
0010
0001
0100
0010
,  // measure 62
1000
0000
0100
0010
0000
0001
0010
0100
,  // measure 63
1000
0000
0011
0000
1000
0100
0010
0001
,  // measure 64
1000
0000
0100
0010
0000
0001
0100
0000
,  // measure 65
1001
0000
1010
0000
1000
0100
1000
0100
,  // measure 66
1000
0100
1000
0100
1000
0100
0010
0001
,  // measure 67
0010
0001
0010
0001
0010
0001
0010
0001
,  // measure 68
0010
0100
1000
0010
0100
0001
1000
0010
,  // measure 69
0100
0001
1000
0100
0010
0001
0010
0100
,  // measure 70
1000
0010
0001
0010
1000
0010
0001
0010
,  // measure 71
1000
0010
0001
0100
1000
0100
0001
0100
,  // measure 72
1000
0100
0001
0100
1000
0100
0001
1000
,  // measure 73
0001
0000
0000
0000
;

//---------------dance-double - ----------------
#NOTES:
     dance-double:
     :
     Easy:
     6:
     0.400,0.480,0.369,0.000,0.000,237.000,36.000,0.000,0.000,0.000:  // measure 1
00000000
00000000
00000000
00000000
,  // measure 2
00000000
00000000
00000000
00000000
,  // measure 3
00000000
00000000
00000000
00000000
,  // measure 4
00000000
00000000
00000000
00000000
,  // measure 5
10000000
00100000
10000000
00100000
,  // measure 6
01000000
00010000
01000000
00010000
,  // measure 7
00100000
00001000
00100000
00001000
,  // measure 8
00010000
00000100
00000000
00000010
,  // measure 9
00001001
00001001
00000100
00000010
,  // measure 10
00001000
00000100
00010000
00001000
00000000
00000000
01000000
00000000
,  // measure 11
10010000
10010000
00100000
01000000
,  // measure 12
00100000
10000000
01000000
00000000
00100000
00000000
00010000
00000000
,  // measure 13
00011000
00011000
00001000
00000010
,  // measure 14
00000001
00001000
00000100
00000001
,  // measure 15
00000010
00000100
00001000
00000010
,  // measure 16
00000100
00000000
00000001
00000000
00000010
00000010
00000010
00000000
,  // measure 17
00000100
00000100
00001000
00001000
,  // measure 18
00010000
00010000
01000000
01000000
,  // measure 19
10000000
10000000
00100000
01000000
,  // measure 20
10010000
10010000
10010000
00000000
,  // measure 21
00011000
00011000
00010000
00000100
,  // measure 22
00000010
00000001
00001000
00000001
,  // measure 23
00001001
00000000
00001001
00000000
,  // measure 24
00000100
00000100
00000100
00000000
,  // measure 25
00000001
00000100
00001000
00010000
,  // measure 26
01000000
00010000
00001000
00000100
,  // measure 27
00000001
00000010
00000100
00001000
,  // measure 28
00100000
00001000
00000100
00000010
,  // measure 29
00000001
00000100
00000010
00001000
,  // measure 30
00000100
00010000
00001000
00100000
,  // measure 31
00010000
01000000
00100000
10000000
,  // measure 32
00010000
00000000
00000000
00000000
,  // measure 33
10000000
00100000
00010000
00001000
,  // measure 34
00000010
00001000
00010000
00100000
,  // measure 35
10000000
01000000
00100000
00010000
,  // measure 36
00000100
00010000
00100000
01000000
,  // measure 37
10000000
00100000
01000000
00010000
,  // measure 38
00100000
00001000
00010000
00000100
,  // measure 39
00001000
00000010
00000100
00000001
,  // measure 40
00001000
00000000
00000000
00000000
,  // measure 41
00001001
00000000
00001001
00000000
,  // measure 42
00001001
00000000
00000000
00000000
00000010
00001000
00000010
00000000
,  // measure 43
00011000
00000000
00011000
00000000
,  // measure 44
00011000
00000000
00000000
00000000
00001000
00010000
00001000
00000000
,  // measure 45
01010000
00000000
01010000
00000000
,  // measure 46
01010000
00000000
00000000
00000000
00100000
01000000
00100000
00000000
,  // measure 47
10000000
00000000
01000000
00000000
,  // measure 48
00100000
00000000
00000000
00000000
,  // measure 49
10010000
00000000
00000000
00000000
,  // measure 50
00000000
00000000
00000000
00000000
,  // measure 51
00001001
00000000
00000000
00000000
,  // measure 52
00000000
00000000
00000000
00000000
,  // measure 53
00000010
00000000
00001000
00000000
,  // measure 54
00000100
00000000
00000010
00000000
,  // measure 55
00000001
00000000
00000100
00000000
,  // measure 56
00000010
00000010
00001000
00000100
,  // measure 57
00000010
00000000
00000001
00000000
00000100
00000001
00000100
00000000
,  // measure 58
00001000
00010000
01000000
10000000
,  // measure 59
00100000
00000000
01000000
00000000
00010000
10000000
00010000
00000000
,  // measure 60
00100000
01000000
10000000
00010000
,  // measure 61
01000000
10000000
01100000
01100000
,  // measure 62
00010000
00001000
00000010
00000010
,  // measure 63
00001001
00001001
00000100
00000010
,  // measure 64
00000001
00000000
00001000
00000000
00000010
00000100
00000010
00000000
,  // measure 65
00001000
00000100
00010100
00010100
,  // measure 66
00001000
00100000
01000000
00010000
,  // measure 67
10000000
01000000
00100000
00010000
,  // measure 68
10000000
10010000
10010000
10010000
,  // measure 69
10000000
01000000
00100000
00011000
,  // measure 70
00000100
00000001
00000010
00000100
,  // measure 71
00011000
00100000
10000000
01000000
,  // measure 72
00100000
00010000
01000000
10010000
,  // measure 73
01000000
00000000
00000000
00000000
;

//---------------dance-double - ----------------
#NOTES:
     dance-double:
     :
     Medium:
     10:
     0.501,0.664,0.400,0.000,0.041,303.000,39.000,0.000,0.000,0.000:  // measure 1
00000000
00000000
00000000
00000000
,  // measure 2
00000000
00000000
00000000
00000000
,  // measure 3
00000000
00000000
00000000
00000000
,  // measure 4
00000000
00000000
00000000
00000000
,  // measure 5
10000000
00100000
01000000
00010000
,  // measure 6
00001000
00000010
00000100
00000001
,  // measure 7
00000010
00000100
00001000
00010000
,  // measure 8
00100000
01000000
10000000
00100000
,  // measure 9
10010000
10010000
01000000
00100000
,  // measure 10
00001000
00010000
00010000
00000100
,  // measure 11
00000010
00000001
00000001
00000100
,  // measure 12
00000010
00000000
00001000
00000000
00000100
00010000
00001000
00000000
,  // measure 13
00010100
00011000
00001000
01000000
,  // measure 14
00100000
10000000
01000000
00000000
00100000
00000000
00010000
00000000
,  // measure 15
01000000
00100000
01000000
00000000
00001000
00000000
00010000
00000000
,  // measure 16
00001000
00000000
00001000
00000000
00001000
00000010
00000001
00000100
,  // measure 17
00001001
00000000
00000000
00000000
00001001
00000000
00000000
00000000
00000000
00000001
00000000
00000000
00000100
00000000
00000000
00000100
,  // measure 18
00000000
00000000
00000001
00000000
00000100
00000000
00000000
00000000
00000000
00000010
00000000
00000000
00000010
00000000
00000000
00000010
,  // measure 19
00001001
00000000
00001100
00000000
,  // measure 20
00010100
00011000
01001000
00000000
,  // measure 21
00011000
00000000
00000000
00000000
00011000
00000000
00000000
00000000
00000000
00001000
00000000
00000000
01000000
00000000
00000000
01000000
,  // measure 22
00000000
00000000
00010000
00000000
00010000
00000000
00000000
00000000
00000000
00100000
00000000
00000000
00100000
00000000
00000000
00100000
,  // measure 23
10010000
00000000
10010000
00000000
,  // measure 24
10000000
00000000
10000000
00000000
10000000
00000000
01000000
10000000
,  // measure 25
00100000
00000000
00010000
00000000
00001000
00000000
00000010
00000001
,  // measure 26
00000100
00000000
00001000
00000000
00010000
00000000
01000000
10000000
,  // measure 27
00100000
00000000
00010000
00000000
00001000
00000000
00000010
00000001
,  // measure 28
00000100
00000000
00001000
00000000
00010000
00000000
01000000
10000000
,  // measure 29
00100000
00000000
00010000
00001000
00100000
00000000
01000000
10000000
,  // measure 30
00100000
00000000
00010000
00001000
00100000
00000000
01000000
10000000
,  // measure 31
00100000
00010000
00001000
00000010
,  // measure 32
00000001
00000000
00000000
00000000
00000000
00000000
00000010
00000001
,  // measure 33
00000100
00000000
00001000
00000000
00010000
00000000
01000000
10000000
,  // measure 34
00100000
00000000
00010000
00000000
00001000
00000000
00000010
00000001
,  // measure 35
00000100
00000000
00001000
00000000
00010000
00000000
01000000
10000000
,  // measure 36
00100000
00000000
00010000
00000000
00001000
00000000
00000010
00000001
,  // measure 37
00000100
00000000
00001000
00010000
00000100
00000000
00000010
00000001
,  // measure 38
00000100
00000000
00001000
00010000
00000100
00000000
00000010
00000001
,  // measure 39
00000100
00001000
00010000
01000000
,  // measure 40
10000000
00000000
00000000
00000000
,  // measure 41
00011000
00000000
00011000
00000000
,  // measure 42
00011000
00000000
00000000
00000000
00001000
00010000
00001000
00000000
,  // measure 43
01001000
00000000
01001000
00000000
,  // measure 44
01001000
00000000
00000000
00000000
00001000
00010000
00001000
00000000
,  // measure 45
00010100
00000000
00010100
00000000
,  // measure 46
00010100
00000000
00000000
00000000
00010000
00001000
00010000
00000000
,  // measure 47
00000001
00000000
00000010
00000000
,  // measure 48
00000100
00000000
00000000
00000000
,  // measure 49
00001001
00000000
00000000
00000000
,  // measure 50
00000000
00000000
00000000
00000000
,  // measure 51
10010000
00000000
00000000
00000000
,  // measure 52
00000000
00000000
00000000
00000000
,  // measure 53
10010000
00000000
10100000
00000000
,  // measure 54
01010000
00000000
00011000
00000000
,  // measure 55
00001100
00000000
00000011
00000000
,  // measure 56
00001000
00000010
00000100
00000001
,  // measure 57
00001001
00000000
00000101
00000000
00000010
00001000
00010000
01000000
,  // measure 58
00100000
00000000
10000000
00010000
00000000
00100000
00010000
00001000
,  // measure 59
00000100
00000000
00000010
00000000
00000001
00000010
00000100
00001000
,  // measure 60
00010000
00000000
00100000
01000000
00000000
10000000
00100000
00000000
,  // measure 61
10010000
00000000
10100000
00000000
01000000
00010000
00001000
00000100
,  // measure 62
00000010
00000000
00001000
00000001
00000000
00000100
00001000
00010000
,  // measure 63
00100000
00000000
01000000
00000000
10000000
01000000
00100000
00010000
,  // measure 64
00001000
00000000
00000100
00000010
00000000
00000001
00000100
00000000
,  // measure 65
00001001
00000000
00000101
00000000
00000001
00000010
00000001
00000010
,  // measure 66
00000001
00000010
00000001
00000010
00000001
00000010
00000100
00001000
,  // measure 67
00000010
00001000
00000010
00010000
00000100
00010000
00000100
00001000
,  // measure 68
00010000
01000000
00100000
10000000
00010000
01000000
00100000
10000000
,  // measure 69
00010000
01000000
00100000
10000000
01000000
00100000
00010000
00001000
,  // measure 70
00000100
00000010
00000001
00000100
00000010
00001000
00000100
00000010
,  // measure 71
00000001
00001000
00000001
00000100
00000010
00001000
00000001
00000100
,  // measure 72
00000010
00001000
00010000
01000000
00100000
10000000
01000000
00100000
,  // measure 73
10010000
00000000
00000000
00000000
;
