#TITLE:Heavy Mario;
#SUBTITLE:;
#ARTIST:Game Over;
#TITLETRANSLIT:;
#SUBTITLETRANSLIT:;
#ARTISTTRANSLIT:;
#CREDIT:;
#BANNER:heavymar.png;
#BACKGROUND:heavymar-bg.png;
#LYRICSPATH:;
#CDTITLE:!hiryuu.png;
#MUSIC:heavymar.mp3;
#OFFSET:-0.186;
#SAMPLESTART:79.380;
#SAMPLELENGTH:19.202;
#SELECTABLE:YES;
#BPMS:0.000=100.000,20.000=200.000,84.000=100.000,116.000=200.000,180.000=100.000,196.000=200.000;
#STOPS:;
#BGCHANGES:;
// cache tags:
#FIRSTBEAT:3.000;
#LASTBEAT:272.000;
#SONGFILENAME:Songs/dragon force/heavymar/heavymar.sm;
#HASMUSIC:1;
#HASBANNER:1;
#MUSICLENGTH:109.826;
// end cache tags

//---------------dance-single - MANIAC----------------
#NOTES:
     dance-single:
     MANIAC:
     Hard:
     8:
     0.614,0.588,0.273,0.073,0.273,434.000,30.000,8.000,0.000,0.000:
0000
0000
0000
1001
,
1000
0000
0000
0010
0000
0000
0100
0000
0000
0000
0001
0000
0010
0000
0100
1000
,
0010
0000
0100
0001
1000
0000
0001
0100
0000
0010
0000
0000
1000
0010
0100
0000
,
0001
0000
0000
0010
0000
0000
0100
0000
0000
0000
1000
0000
0010
0000
0100
0001
,
1000
0000
0001
0010
0001
0000
1000
0100
0000
0010
0000
0000
0001
0100
0010
0000
,
1000
0100
0010
0001
1000
0100
0000
0100
,
1000
0001
0000
0010
0100
1000
0001
1000
,
0000
0100
0010
0001
1000
0010
0100
0001
,
0000
0102
0000
1000
2000
0003
0001
0000
,
3010
0001
0010
0100
1000
0010
0000
0100
,
0001
0010
0000
0100
1000
0001
1000
0001
,
0000
0000
0000
0000
1100
0000
0000
0000
0000
0000
0101
0000
0000
0000
0000
1001
,
0000
0000
0000
0001
0100
0010
1000
0000
,
0001
0010
0100
1000
0001
0010
0000
0001
,
0100
0010
0000
1000
0100
0010
0001
1000
,
0000
0010
0100
0001
0010
0100
1000
0001
,
0000
2010
0000
0001
3002
0000
1000
0000
,
0103
1000
0010
0100
0001
1000
0000
0001
,
0010
0100
0000
1000
0010
0100
0001
1000
,
0000
0000
0000
0000
0101
0000
0000
0000
0000
0000
1010
0000
0000
0000
0000
1001
,
0000
0000
0000
0001
1000
0000
1001
0000
,
1000
0010
0000
0100
0000
0000
0001
0000
1000
0001
0000
0100
0001
0000
1000
0000
,
0001
0010
0000
0100
0000
1000
0001
0000
1000
0000
0000
0001
0100
0000
0010
0000
,
1000
0100
0000
0010
0000
0000
0001
0000
1000
0100
0000
0010
0001
0000
0100
0000
,
0010
1000
0000
0001
0000
0100
0010
0000
0110
0000
0000
0000
1001
0000
0000
0000
,
0001
0000
0000
1000
0000
0000
0010
0000
0000
0000
0100
0000
0001
0000
0100
0010
,
1000
0000
0010
0100
0001
0000
0010
0100
0000
1000
0000
0000
0001
0100
0010
0000
,
1000
0000
0000
0100
0000
0000
0010
0000
0000
0001
0000
0010
0000
0100
1000
0000
,
0001
0000
0010
0001
0010
0000
0001
1000
0000
0010
0000
0000
0100
0001
1000
0000
,
0001
0100
0010
0100
0001
0100
0010
0000
,
1000
0100
1000
0010
1000
0100
1000
0000
,
0100
0010
0001
0000
0100
0010
1000
0000
,
0001
0100
1000
0100
0001
0000
1001
0000
,
1000
0001
1000
0010
1000
0001
1000
0000
,
0001
0100
0001
1000
0001
0100
0001
0000
,
1000
0100
0010
0000
0100
0010
0001
0000
,
2010
0000
0000
0002
0000
3000
0103
0010
,
1000
0001
0000
1001
0000
1000
0010
0100
,
0001
0100
0000
0100
1000
0000
1100
0000
,
0100
0001
0010
0000
0100
1000
0100
0000
,
0010
0001
0010
0001
0010
0100
1000
0000
,
1000
0100
0010
0001
0000
0100
0010
0000
,
1000
0001
0100
0010
1000
0100
0010
0000
,
0001
1000
0001
0000
0100
0010
0100
0000
,
1100
0000
0000
0101
0000
0000
1001
0000
,
0001
0010
0000
0100
0000
0000
1000
0000
0010
0100
0000
0001
1000
0000
0010
0000
,
0100
0001
0000
1000
0000
0010
0100
0000
0001
0000
0000
1000
0010
0000
0100
0000
,
0001
0000
0010
0000
0000
0000
0100
0000
0000
0000
0000
0000
1000
0000
0000
0000
0010
0000
0000
0100
0000
0000
0001
0000
0010
0000
0000
0000
0100
0000
0000
0000
,
1000
0010
0000
0100
0000
0001
1000
0000
1001
0000
0000
0000
0110
0000
0000
0000
,
0001
0010
0100
1000
0010
0100
0001
0000
,
1000
0010
0100
0001
0010
0100
1000
0000
,
0001
0100
0010
0000
1000
0100
0010
0000
,
0001
0100
0010
1000
0001
0010
1010
0000
,
0010
0001
0100
0010
0000
1000
0010
0000
,
1000
0100
0001
0100
0010
0000
0011
0000
,
0001
0100
1000
0000
1000
0100
0001
0000
,
0102
0000
0000
2000
0000
0003
3100
0010
,
0001
1000
0010
0100
0000
0100
0001
0000
,
0001
0100
0010
1000
0010
0000
1010
0000
,
1000
0010
0100
0001
0010
0100
1000
0010
,
0100
0001
0100
0000
0001
0010
1000
0000
,
0010
0001
0100
1000
0100
0001
0010
0000
,
0100
1000
0010
0001
0010
1000
0100
0000
,
1000
0010
1010
0000
0001
0100
0101
0000
,
1001
0000
0000
0110
0000
0000
1001
0000
,
0000
0001
0000
0000
0000
0000
0000
0000
0010
0000
0000
0000
0000
0000
0100
0000
,
0000
0000
0000
1000
0000
0000
0000
0000
0010
0000
0000
0000
0001
0000
0000
0000
,
0010
0000
1000
0000
0100
0000
0001
0100
,
1000
0000
0000
0000
;

//---------------dance-single - TRICKY----------------
#NOTES:
     dance-single:
     TRICKY:
     Medium:
     5:
     0.334,0.462,0.191,0.064,0.005,229.000,21.000,7.000,0.000,0.000:
0000
0000
0000
0000
,
1000
0000
0010
0000
0100
0001
0100
0000
,
0001
0010
0100
1000
,
0001
0000
0100
0000
0010
1000
0010
0000
,
1000
0100
0010
0001
,
1000
0010
1000
0000
,
0010
0000
0100
0000
,
0001
0010
0001
0000
,
0101
0000
0110
0000
,
0010
0100
0001
0000
,
0100
0000
0010
0000
,
0000
0000
0100
0000
0000
0110
0000
0000
,
2002
0000
0000
0000
0000
3003
0000
0000
,
0001
0010
0001
0000
,
0100
0000
0010
0000
,
1000
0100
1000
0000
,
1010
0000
0110
0000
,
0001
0010
0100
0000
,
1000
0010
0100
0000
,
0000
0000
0010
0000
0000
0110
0000
0000
,
2002
0000
0000
0000
0000
3003
0000
0000
,
1000
0000
0100
0000
0010
0001
0010
0000
,
0100
1000
1001
0000
,
0100
0000
0001
0000
0010
0100
1000
0000
,
0010
0100
0001
0000
1000
0000
1001
0000
,
0001
0000
0010
0000
0001
0100
0001
0000
,
0010
0100
1000
0010
,
0100
0000
0001
0000
1000
0001
1000
0000
,
0001
0010
0100
1000
,
0001
0010
0001
0100
,
0010
1000
0010
0000
,
1000
0100
1000
0010
,
0100
0001
0010
0000
,
0100
1000
0100
0000
,
0010
0001
0010
0000
,
0001
1000
0010
0100
,
0101
0000
1001
0000
,
1000
0010
0100
0010
,
1000
0001
0010
0001
,
0100
0010
1000
0010
,
0100
0001
0010
0000
,
0100
1000
0010
0100
,
0001
0010
0100
1000
,
0001
1000
0010
0100
,
0101
0000
1010
0000
,
0001
0010
0001
0010
0001
0000
1000
0000
,
0100
1000
0100
1000
2200
0000
3300
0000
,
1000
0100
0010
0000
0001
0100
0010
0000
,
1000
0100
0010
1001
,
1000
0010
0100
0010
,
1000
0010
0100
0000
,
0001
0010
0001
0100
,
0010
0100
0001
0000
,
1000
0100
0010
0001
,
0100
0010
1000
0100
,
0010
0001
0100
0010
,
1001
0000
0110
0000
,
0001
0010
0100
0010
,
0001
1000
0010
0100
,
0001
0010
0001
0100
,
0010
1000
0100
1000
,
0010
0100
0001
0010
,
0100
1000
0001
0100
,
0010
0100
0001
0010
,
0110
0000
1001
0000
,
2001
0000
0000
0000
,
0000
0000
0001
0000
0000
0000
0000
0000
0000
0000
0000
0000
0000
0000
0000
0001
,
0000
0000
0000
0000
0000
3001
0000
0000
;

//---------------dance-single - BASIC----------------
#NOTES:
     dance-single:
     BASIC:
     Easy:
     3:
     0.200,0.247,0.027,0.018,0.000,149.000,3.000,2.000,0.000,0.000:
0000
0000
0000
0000
,
1000
0001
1000
0001
,
0100
0000
0010
0000
,
0100
0010
0100
0010
,
1000
0000
0001
0000
,
1000
0000
1000
0000
,
1000
0000
1000
0000
,
0001
0000
0001
0000
,
0000
0000
0000
0000
,
0001
0000
0010
0000
,
0100
0000
0010
0000
,
0001
0000
0000
0000
,
1001
0000
0000
0000
,
1000
0000
0001
0000
,
1000
0000
0001
0000
,
0100
0000
0001
0000
,
0000
0000
0000
0000
,
1000
0000
0010
0000
,
0100
0000
0001
0000
,
1000
0000
0000
0000
,
1001
0000
0000
0000
,
1000
0001
1000
0001
,
0100
0010
0100
0000
,
0001
0010
0100
1000
,
0010
0100
0001
1000
,
0001
0000
0001
0000
,
1000
1000
1000
1000
,
0010
0000
0010
0000
,
0100
0100
0100
0100
,
0001
0000
0001
0000
,
1000
0000
1000
0000
,
0001
0000
0010
0000
,
0100
0000
1000
0000
,
0010
0000
0010
0000
,
0100
0000
0100
0000
,
0001
0000
0100
0000
,
0010
0000
0000
0000
,
1000
0000
0100
0000
,
1000
0000
0100
0000
,
0010
0000
0001
0000
,
0010
0000
0001
0000
,
1000
0000
0001
0000
,
1000
0000
0001
0000
,
0100
0000
0010
0000
,
0100
0000
0000
0000
,
0001
0001
0001
0000
,
1000
1000
1000
0000
,
1000
0010
0100
0001
,
1000
0001
1000
0000
,
0001
0000
0001
0000
,
0001
0001
0001
0000
,
1000
0000
1000
0000
,
1000
1000
1000
0000
,
0010
0100
0010
0000
,
1000
0001
1000
0000
,
0001
0010
0100
1000
,
0001
0000
0000
0000
,
0100
0000
0100
0000
,
0100
0100
0100
0000
,
0010
0000
0010
0000
,
0010
0010
0010
0000
,
1000
0100
1000
0000
,
0001
0010
0001
0000
,
1000
0010
0100
0001
,
1000
0000
0000
0000
,
2002
0000
0000
0000
,
0000
0000
0000
0000
,
0000
0000
0000
3003
;

//---------------dance-single - SIMPLE----------------
#NOTES:
     dance-single:
     SIMPLE:
     Beginner:
     1:
     0.126,0.175,0.000,0.000,0.000,97.000,0.000,0.000,0.000,0.000:
0000
0000
0000
0000
,
1000
0000
0000
0000
,
0001
0000
0000
0000
,
0100
0000
0000
0000
,
0010
0000
0000
0000
,
1000
0000
0000
0000
,
1000
0000
0000
0000
,
0001
0000
0000
0000
,
0001
0000
0000
0000
,
0100
0000
0000
0000
,
0010
0000
0000
0000
,
1000
0000
0001
0000
,
1000
0000
0000
0000
,
0001
0000
0000
0000
,
1000
0000
0000
0000
,
0010
0000
0000
0000
,
0100
0000
0000
0000
,
0001
0000
0000
0000
,
0010
0000
0000
0000
,
0100
0000
1000
0000
,
0001
0000
0000
0000
,
1000
0000
1000
0000
,
0001
0000
0001
0000
,
0100
0000
0100
0000
,
0010
0000
0010
0000
,
1000
0000
0000
0000
,
1000
0000
0000
0000
,
0001
0000
0000
0000
,
0001
0000
0000
0000
,
0100
0000
0000
0000
,
0100
0000
0000
0000
,
0010
0000
0000
0000
,
0010
0000
0000
0000
,
1000
0000
0000
0000
,
0100
0000
0000
0000
,
0010
0000
0001
0000
,
1000
0000
0000
0000
,
0001
0000
0001
0000
,
1000
0000
1000
0000
,
0001
0000
0001
0000
,
0001
0000
0001
0000
,
0100
0000
0100
0000
,
0010
0000
0010
0000
,
0100
0000
0010
0000
,
0100
0000
0000
0000
,
0001
0000
0001
0000
,
1000
0000
1000
0000
,
0010
0000
0100
0000
,
0001
1000
0001
0000
,
1000
0000
1000
0000
,
1000
0000
1000
0000
,
0001
0000
0001
0000
,
0001
0000
0001
0000
,
0100
0000
0100
0000
,
0100
0000
0100
0000
,
0010
0000
0010
0000
,
0010
0000
0000
0000
,
1000
0000
0100
0000
,
0010
0000
0001
0000
,
1000
0000
0100
0000
,
0010
0000
0001
0000
,
1000
0000
0010
0000
,
0100
0000
0001
0000
,
1000
0000
0010
0000
,
0100
0000
0000
0000
;
