#TITLE:Blue;
#SUBTITLE:;
#ARTIST:Au5 and Fractal;
#TITLETRANSLIT:;
#SUBTITLETRANSLIT:;
#ARTISTTRANSLIT:;
#CREDIT:;
#BANNER:../BN.png;
#BACKGROUND:../BG.png;
#LYRICSPATH:;
#CDTITLE:../CDTitleBRAEDEN.png;
#MUSIC:Blue.ogg;
#OFFSET:-0.100;
#SAMPLESTART:52.736;
#SAMPLELENGTH:12.000;
#SELECTABLE:YES;
#BPMS:0.000=175.000,552.000=87.500,568.000=175.000;
#STOPS:;
#BGCHANGES:;
// cache tags:
#FIRSTBEAT:8.000;
#LASTBEAT:837.000;
#SONGFILENAME:Songs/Index Gradation/Blue - [Braeden]/Blue.sm;
#HASMUSIC:1;
#HASBANNER:1;
#MUSICLENGTH:292.687;
// end cache tags

//---------------dance-single - ----------------
#NOTES:
     dance-single:
     :
     Challenge:
     19:
     1.000,1.000,0.260,0.297,1.000,2436.000,76.000,87.000,15.000,2.000:

0000
0000
0000
0000
,
0000
0000
0000
0000
,
M000
00M0
0M00
0M00
,
00M0
000M
0M00
0M00
,
0040
0000
0000
0000
,
0130
0001
0100
0010
1000
0001
0010
0100
1000
0001
0100
0010
1000
0100
0010
0001
,
1000
0010
0100
0001
0100
0010
1000
0100
0010
0001
0100
0010
1000
0001
0020
0000
,
0000
0000
0000
0000
,
1031
0000
0000
0000
0100
0000
0100
0000
1001
0000
0001
0100
0010
1000
0100
0010
,
0001
1000
0100
0010
0001
0100
0010
1000
0002
0003
0000
0000
0010
0000
0000
0000
,
0200
0000
0340
1030
1010
0000
M001
0001
,
0101
0000
0010
1000
0101
0000
2000
0000
,
3001
0000
0001
0000
0100
0010
0100
0010
1000
0000
0001
0000
4000
0000
3400
0000
,
0310
0001
0010
0001
1000
0100
1000
0001
0200
0000
0301
0000
1000
0000
1000
0000
,
1001
0000
0010
0100
0110
0001
0001
0000
,
1000
0100
1000
0000
0000
0000
0000
0000
1100
0000
0000
0000
1001
0000
0000
0000
,
1000
0000
0100
0000
0010
0000
0010
0000
1001
0000
1000
0000
0001
0100
0010
1000
,
0100
0010
0100
1000
0001
0000
0100
0000
1010
0000
1000
0000
0001
0000
0001
0000
,
0400
0000
0310
0010
1000
0001
1000
0001
,
0100
0010
0100
0001
1000
0100
0010
0000
0100
0000
0000
0000
2000
0000
0010
0000
,
3010
0100
0001
0100
1010
0010
0000
0100
,
0001
0001
1001
1000
0010
0100
0001
1000
,
0200
0000
0320
0000
0000
0000
0031
0000
1001
0000
0001
0100
0010
1000
0200
0000
,
0000
0300
0000
0000
1000
0001
1000
0001
0010
0000
0100
0000
0010
0000
0100
0000
0101
0000
0000
0000
0010
0000
0000
0000
1000
0000
0100
0000
0010
0000
0000
0000
,
0001
0100
0010
0010
1001
0200
0000
0310
,
1000
0000
0000
0000
4001
0000
0000
0000
3040
0000
0000
0000
0230
0300
0200
0300
,
0001
0000
0010
0000
0100
0000
1000
0000
1001
0000
0010
0100
0001
0000
0100
0000
,
0020
0000
1030
0100
0010
0000
0001
0000
0020
0000
0030
0000
0220
0000
0330
0000
,
1000
1000
0100
0010
0011
0100
0000
0010
,
1000
0001
0100
0000
0001
0000
0100
0000
0010
0000
1000
0000
0100
0000
0010
0000
,
0001
0000
1000
0100
1000
0001
0100
0010
1000
0000
0100
0010
0100
1000
0001
0100
,
0010
0000
1000
0100
0010
0001
0010
0100
1000
0000
0000
0000
1001
0000
0000
0000
,
0010
0010
0100
0000
0000
0001
0000
0000
,
0010
0000
0000
0100
0000
1000
0100
0010
,
0011
0000
0011
0000
0001
0100
0010
1000
0001
0010
0100
1000
0001
0100
0010
0100
,
0001
0010
0001
1000
0100
0010
0001
0010
0100
1000
0004
0403
0310
1000
0100
0010
,
0001
0001
1000
0100
0100
0010
0001
0001
,
0100
0010
0010
1000
0100
0100
0010
0010
,
0011
0000
0011
0000
0100
1000
0001
0100
0010
1000
0100
0010
0100
1000
0001
0100
,
0010
1000
0001
0010
0001
1000
0010
0100
0001
0010
0100
1000
0100
0100
0000
0000
,
0001
0000
0000
0000
1000
0010
0100
0001
0010
0001
1000
0010
0100
0001
0010
0001
,
1000
0100
0010
0100
1000
0001
0010
0100
1000
0001
0100
0010
1000
0001
0010
0100
,
1000
0001
0100
0010
1000
0001
0010
0100
1000
0001
0010
0001
1000
0010
0100
0001
,
0010
0001
1000
0100
1000
0001
1000
0010
0100
0001
0010
0001
1000
0100
0010
0100
,
1000
0001
0100
0010
1000
0100
1000
0010
0100
0001
0010
0001
0100
0010
1000
0001
,
0100
0010
0100
0001
0100
0010
1000
0100
1000
0001
0100
0010
1000
0100
0010
0001
,
1000
0100
1000
0001
0010
0100
1000
0001
0100
0010
1000
0100
0010
0100
1000
0001
,
0010
0000
0100
0000
1000
0000
0001
0000
0100
0000
0010
0000
1000
0000
0100
0000
0010
0000
0001
0000
0010
0100
0010
0100
0010
0000
0100
0000
1000
0000
0010
0000
,
0100
0000
0001
0000
1000
0100
0010
0001
1000
0100
0010
0100
1000
0001
0010
0100
,
1000
0100
0010
0001
1000
0100
0010
0100
1000
0001
0100
0010
1000
0100
0010
0100
,
1000
0010
0100
0001
0100
0010
0100
0001
0100
0010
1000
0010
0100
0001
0010
0001
,
0100
0010
1000
0100
0010
0001
0010
0100
1000
0000
1000
0000
1000
0000
0010
0100
,
0010
1000
0100
0010
0001
1000
0100
0010
0100
1000
0001
0010
0100
0010
0001
1000
,
0010
0100
0001
1000
0100
0010
0001
1000
0100
0010
0100
1000
0100
0010
0100
1000
,
0001
0100
0010
1000
0001
0010
0100
1000
0001
0100
0010
0100
0001
0010
0001
1000
,
0100
0010
0001
0010
0100
1000
0001
0100
0010
0100
0001
0100
0001
0001
1000
1000
,
0200
0000
0000
0000
0320
0000
0000
0000
0031
0100
0010
1000
0001
0010
0100
1000
,
0002
0000
0103
0000
0020
0000
0000
0000
1030
0100
0010
0001
0010
0100
1000
0001
,
0200
0000
0310
0000
2000
0000
0000
0000
3001
0010
0100
1000
0001
0100
0010
1000
,
0100
0000
0010
0000
0002
0000
0000
0000
0103
0000
0010
0000
1000
0000
0001
0100
,
0001
0000
0100
0000
0110
0000
0010
0000
1010
0000
1000
0000
1001
0000
0001
0100
,
0010
0000
1000
0010
0100
0000
0001
0010
0001
0000
1000
0010
1000
0000
0001
0100
,
0010
1000
0100
0010
0001
0010
0400
0000
1300
0010
0100
0001
1000
0100
0010
0100
,
1000
0000
0004
0103
,
0020
0000
0000
0000
0000
0000
0000
0000
0000
0000
0000
0000
0130
1000
0100
0010
0001
1000
0010
0100
0001
0010
0001
1000
,
0100
0010
0100
1000
0001
0010
0100
1000
0001
0100
0010
1000
0001
0010
0001
0100
0010
1000
0100
0010
0001
0100
0010
1000
,
0040
0000
0000
0000
0000
0000
0000
0000
0000
0000
0000
0000
0000
0000
0000
0000
0000
0000
0130
0000
0001
0000
1000
0000
0020
0000
0000
0000
0000
0000
0130
0000
0000
1000
0000
0000
0001
0000
0000
0000
0000
0000
0001
0000
0000
0000
0000
0000
,
2002
0000
0000
0000
3003
0000
M00M
0010
0110
0000
0000
0000
0010
0000
0001
0000
,
2002
0000
3003
0000
2002
0000
3003
0000
1000
0000
0100
0010
0100
1000
0001
0100
,
0010
0000
1000
0000
0100
0000
0010
0000
0000
0010
0000
0000
0001
1000
0001
1000
0001
1000
0001
0100
0010
1000
0001
0010
,
0100
1000
0001
0100
0010
1000
0100
0010
0100
1000
0001
0100
0010
1000
0001
0010
0100
1000
0001
0100
0010
1000
0100
0010
,
0001
0000
0000
0000
0000
0000
0100
0000
0000
0000
0000
0000
0010
0000
1000
0000
0100
0000
0010
0000
0000
0001
0000
0000
0100
0000
0010
0000
1000
0000
0001
0000
0010
0000
0100
0000
1000
0000
0001
0000
0100
0000
0010
0000
1000
0000
0100
0000
,
0040
0000
0000
0000
0031
0000
0001
0000
1000
0000
0010
0100
0002
0023
0032
0023
,
0230
2300
3002
0203
0340
0000
0000
0000
1030
0000
0004
0000
0000
0000
0003
0000
,
0100
0010
0100
0010
1000
0100
1000
0100
0010
0001
0010
0100
1000
0010
0100
0001
,
0010
0000
0000
0100
0000
0000
1000
0000
0000
0001
0000
0000
0100
0000
0000
0010
0000
0000
1000
0000
0000
0100
0000
0000
0010
0000
0100
0000
1000
0000
0001
0000
0100
0000
0010
0000
1000
0000
0100
0000
0010
0000
0100
0000
1000
0000
0001
0000
,
0100
0010
1000
0001
0010
0100
1000
0001
0100
0010
1000
0100
0010
0100
1000
0001
0010
0000
0400
0000
0000
0000
0000
0000
,
0300
0000
0000
0000
0000
0000
1000
0000
0001
0000
0100
0000
0010
0000
0000
1000
0000
0000
0100
0000
0000
0010
0000
0000
0004
0000
0000
0000
0000
0000
0000
0000
0000
0000
0000
0000
0403
0000
0000
0000
0000
0000
0000
0000
0000
0000
0000
0000
,
0301
0010
0100
1000
0001
0100
0010
0100
0001
0010
0001
1000
0100
0010
0100
1000
,
0001
0100
0010
1000
0001
0010
0100
1000
0001
0000
0010
0100
2000
0000
3020
0000
,
0130
0001
1000
0100
0010
0001
0010
0100
1000
0001
0100
0010
1000
0001
0010
0100
1000
0001
0010
0001
1000
0100
0010
0001
,
1000
0010
0100
0001
0010
0001
1000
0100
0010
0100
1000
0001
0010
0100
1000
0001
0100
0010
4000
0000
0000
0000
0000
0000
,
3001
0000
0010
0000
0100
0000
1000
0000
0001
0000
0100
0000
0020
0000
0000
0000
0000
0000
0000
0000
0000
0000
0000
0000
1030
0000
0000
0000
0000
0000
0100
0000
0000
0010
0000
0000
0100
0000
0000
0000
0000
0000
1000
0000
0000
0000
0000
0000
,
0002
0000
0000
0000
0000
0000
0003
0100
0040
0000
0000
0000
0000
0000
0000
0000
,
4030
3000
4000
3000
0010
0010
0100
0100
,
0001
0000
0100
0000
0010
0000
0100
0000
0000
0010
0000
0000
1000
0000
0000
0000
0000
0000
0010
0000
0000
0000
0000
0000
,
1000
1000
0100
0010
0010
0001
0100
0100
,
0010
0000
1000
0000
0001
0000
0100
0010
0100
0000
0000
0000
0000
0000
0000
0000
,
4000
0000
0000
0000
0000
0000
0000
0000
0000
0000
0000
0000
3001
0000
0000
0000
0000
0000
0010
0000
0000
0000
0000
0000
0100
0000
0000
0000
0000
0000
1000
0000
0000
0001
0000
0000
1000
0000
0010
0000
0100
0000
0001
0000
0000
0100
0000
0000
,
0010
1000
0100
0010
0002
0000
0003
0000
1001
0000
2000
0000
3000
0000
1001
0000
,
0001
0010
0100
1000
0001
0010
0001
1000
0100
0010
0100
1000
0001
0100
0010
1000
,
0100
0010
0100
1000
0001
0100
0010
1000
0004
0000
0000
0000
0000
0000
0003
0000
,
2000
0000
0000
0000
0000
0000
3200
0000
0000
0000
0000
0000
0320
0000
0000
0000
0000
0000
0031
0010
0100
1000
0001
0100
,
0010
0000
1000
0000
0100
0000
0010
0000
0001
0000
0100
0000
0010
0000
0000
1000
0000
0000
0001
0000
0000
0100
0000
0000
0010
0000
1000
0000
0001
0000
0010
0000
0100
0000
1000
0000
0001
0000
0100
0000
0010
0000
1000
0000
0001
0000
0010
0000
,
0100
0010
0001
0010
0100
1000
0001
0100
0010
1000
0100
0010
0100
1000
0001
0010
,
0100
0000
0000
0000
0000
0000
0000
0000
0000
0000
0000
0000
1000
0000
0000
0000
0000
0000
0000
0000
0000
0000
0000
0000
0001
0000
0000
0000
0000
0000
0000
0000
0000
0000
0000
0000
0100
0000
0000
0000
0000
0000
0000
0000
0000
0000
0000
0000
0010
0000
0000
0000
0000
0000
0000
0000
0000
0000
0000
0000
1000
0000
0000
0000
0000
0000
0000
0000
0000
0000
0000
0000
0100
0000
0000
0000
0000
0000
0010
0000
0000
0000
0000
0000
0001
0000
0000
0000
0000
0000
1000
0000
0000
0000
0000
0000
0010
0000
0000
0000
0000
0000
0000
0000
0100
0000
0000
0000
0000
0000
0000
0000
0001
0000
0000
0000
0000
0000
0000
0000
1000
0000
0000
0000
0000
0000
0000
0000
0100
0000
0000
0000
0000
0000
0000
0000
0010
0000
0000
0000
0000
0000
0000
0000
0100
0000
0000
0000
0000
0000
0000
0000
1000
0000
0000
0000
0000
0000
0000
0000
0001
0000
0000
0000
0000
0000
0000
0000
0100
0000
0000
0000
0000
0000
0000
0000
0010
0000
0000
0000
0000
0000
0000
0000
1000
0000
0000
0000
0000
0000
0000
0000
,
0100
0010
0001
0010
0100
1000
0001
0100
0010
0100
0001
0010
0001
1000
0100
0010
,
0100
1000
0001
0010
0100
1000
0001
0100
0010
0100
0001
0010
0001
1000
0100
0010
,
0100
1000
0001
0100
0010
1000
0001
0010
0100
1000
0001
0010
0001
1000
0010
0100
,
0001
0100
0010
1000
0001
0010
0100
1000
0001
0100
0010
1000
0001
0010
0100
0010
,
0001
0100
0010
0100
0001
0010
0100
1000
0001
0100
0010
1000
0100
0010
0100
1000
,
0001
0010
0100
1000
0001
0100
0010
1000
0100
0010
0001
0010
0100
1000
0001
0100
,
0010
0100
0001
0010
0001
1000
0100
0010
0001
1000
0010
0100
0001
0100
0010
1000
,
0001
0000
0000
0000
0000
0000
0000
0000
0100
0000
0000
0000
0000
0000
0000
0000
0010
0000
0000
0000
0000
0000
0000
0000
1000
0000
0000
0000
0000
0000
0000
0000
0001
0000
0000
0000
0000
0000
0000
0000
0010
0000
0000
0000
0000
0000
0000
0000
0100
0000
0000
0000
0000
0000
0000
0000
1000
0000
0000
0000
0000
0000
0000
0000
0001
0000
0000
0000
0000
0000
0000
0000
0100
0000
0000
0000
0000
0000
0000
0000
0010
0000
0000
0000
0000
0000
0000
0000
1000
0000
0000
0000
0000
0000
0000
0000
0100
0000
0000
0000
0000
0000
0000
0000
0010
0000
0000
0000
0000
0000
0000
0000
0001
0000
0000
0000
0000
0000
0000
0000
1000
0000
0000
0000
0000
0000
0010
0000
0000
0000
0000
0000
0100
0000
0000
0000
0000
0000
0001
0000
0000
0000
0000
0000
0100
0000
0000
0000
0000
0000
0000
0000
0000
0000
0000
0000
0001
0000
0000
0000
0000
0000
0000
0000
0000
0000
0000
0000
1000
0000
0000
0000
0000
0000
0000
0000
0000
0000
0000
0000
0001
0000
0000
0000
0000
0000
0000
0000
0000
0000
0000
0000
,
1000
0000
0010
0000
0100
0001
0010
0100
1000
0001
0100
0010
1000
0100
0010
0001
,
1000
0010
0100
0001
0010
0001
1000
0100
0010
0001
0010
0100
1000
0001
0100
0010
,
0100
0001
0010
0001
1000
0100
0010
0001
1000
0010
0100
0001
0010
0100
1000
0001
,
0100
0010
1000
0100
0010
0001
1000
0010
0100
0001
0100
0010
0100
0001
1000
1000
,
0001
0100
0010
1000
0001
0010
0100
1000
0001
0010
0001
1000
0010
0100
0001
0100
,
0010
1000
0001
0010
0100
1000
0001
0100
0010
1000
0100
0010
0100
1000
0001
0100
,
0010
1000
0100
0010
0001
0010
0100
1000
0001
0100
0010
1000
0100
0010
0001
1000
,
0010
0100
0001
0100
0010
0100
0001
1000
0010
0100
0001
0100
0001
0001
0010
0010
,
0100
0100
1000
1000
0020
0000
0000
0000
0000
0000
0000
0000
0030
0000
0000
0000
,
0000
0000
0000
0000
,
1001
0000
0000
0000
0001
0000
0000
0100
0010
0000
0000
0000
0001
1000
0010
0100
,
0001
0000
1000
0100
1000
0001
0100
0000
0010
0000
0010
0000
1000
0000
0000
0000
,
1MM1
0001
4000
3010
,
0400
0301
0100
0010
,
1M1M
0000
0010
0000
1000
0010
0000
0100
0010
0000
0100
0000
0002
0000
0013
0000
,
0100
0010
0100
0010
0100
0010
0100
0000
0010
0000
0001
0000
0100
0000
0010
0000
,
2001
0000
3010
0000
0100
0100
0100
0000
,
1001
0000
0020
0130
,
1002
0000
0000
0000
1003
0000
0100
0000
0020
0000
0031
0000
0100
0010
0100
0001
,
1000
0010
0100
0001
1000
0000
0100
0000
1100
0000
1000
0000
1000
0000
1000
0000
,
0040
0030
0100
0001
0101
0010
1000
0100
,
0010
0001
0010
0001
0100
0000
0010
0000
1000
0000
0000
0000
1001
0000
0000
0000
,
1000
1000
0100
0010
0001
0001
0100
0010
,
1000
1000
0400
0310
0001
0001
0001
0001
,
1000
0000
0100
0000
0010
0000
0001
0000
1000
0000
0100
0000
0010
0000
0100
0000
1000
0000
0001
0000
0000
0000
0000
0000
0010
0000
0000
0000
0000
0000
0100
0000
0000
1000
0000
0000
0001
0000
0000
0100
0000
0000
0010
0000
0000
0000
0000
0000
,
0000
0000
0000
2000
0000
0000
3001
0010
0100
1000
0001
0010
0100
0000
0000
0010
0000
0000
0001
0000
0000
0100
0000
0000
,
0010
0000
1000
0000
0200
0000
0310
0000
0001
0000
0200
0000
0310
1000
0001
0100
,
0010
1000
0200
0000
0340
0000
0030
0000
,
1001
0000
0001
0000
0100
0000
0010
0000
1000
0000
0100
0010
0001
0000
0100
0000
,
0010
0000
1000
0100
0020
0000
0031
0000
2000
0000
0000
0000
3010
0000
0000
0000
,
0100
0100
0001
0100
0110
0010
1000
0000
,
0001
0000
0100
0001
1000
0000
0010
0000
0100
0000
0001
0000
0100
0000
0010
0000
,
1000
0000
0100
0000
0010
0000
0100
0000
0010
0000
0001
0100
0001
1000
0010
0100
,
0001
0000
0000
0000
1000
0000
0100
0000
0010
0000
0001
0000
0100
0010
0100
0010
1000
0000
0000
0000
0000
0000
0000
0000
0000
0000
0000
0000
0000
0000
0000
0000
,
0220
0000
0000
0330
,
1000
0100
0010
0001
1000
0010
0100
0001
4000
0000
0000
0000
0000
0000
0000
0000
,
0000
3040
0430
0000
,
0304
0000
0043
0030
,
1001
0001
0100
0100
0010
1000
0100
0100
,
0010
0001
0100
0100
0010
1000
1000
1000
,
0001
0010
0010
0100
1000
1000
0010
0100
,
0100
0000
0001
0000
0010
0000
0010
0000
1000
0001
0100
0010
1000
0001
0010
0100
,
1000
0001
0400
0300
0010
4000
3000
0100
,
0040
0030
0001
0400
0300
0010
2000
3200
,
0300
0010
0001
0000
0100
0010
0000
1000
,
0100
0000
0000
0000
0000
0000
0000
0000
0010
0000
0000
0000
0000
0000
0000
0000
0001
0000
0000
0000
0000
0000
0000
0000
0010
0000
0000
0000
0000
0000
0000
0000
0100
0000
0000
0000
0000
0000
0000
0000
1000
0000
0000
0000
0000
0000
0000
0000
0001
0000
0000
0000
0000
0000
0000
0000
0100
0000
0000
0000
0000
0000
0000
0000
0010
0000
0000
0000
0000
0000
0000
0000
1000
0000
0000
0000
0000
0000
0000
0000
0100
0000
0000
0000
0000
0000
0000
0000
0020
0000
0000
0000
0000
0000
0000
0000
0031
0000
0000
0000
0000
0000
0000
0000
0000
0000
0000
0000
0000
0000
0000
0000
0000
0000
0000
0000
0000
0000
0000
0000
1000
0000
0000
0000
0000
0000
0001
0000
0000
0000
0000
0000
0010
0000
0000
0000
0000
0000
0100
0000
0000
0000
0000
0000
0010
0000
0000
0000
0000
0000
0000
0000
0000
0000
0000
0000
0001
0000
0000
0000
0000
0000
0000
0000
0000
0000
0000
0000
0100
0000
0000
0000
0000
0000
0000
0000
0000
0000
0000
0000
0010
0000
0000
0000
0000
0000
0000
0000
0000
0000
0000
0000
,
1000
0001
0010
0001
1000
0100
0010
0100
1000
0001
0100
0010
1000
0100
0010
0100
,
1000
0001
0100
0010
1000
0001
0010
0100
1000
0001
0100
0010
1000
0100
0010
0001
,
1000
0010
0100
0001
0010
0001
1000
0100
0010
0100
1000
0001
0010
0100
1000
0001
,
0100
0010
0100
0001
0010
0001
1000
0100
0010
0001
0010
0100
1000
0001
0100
0010
,
1000
0100
0010
0001
1000
0010
0100
0001
0010
0001
1000
0100
0010
0100
1000
0001
,
0010
0100
1000
0001
0100
0010
0100
0001
0100
0010
1000
0100
0010
0100
1000
0001
,
0010
0100
1000
0001
0100
0010
1000
0100
0010
0100
1000
0001
0010
0100
1000
0001
,
1000
0000
0100
0000
0010
0000
0001
0000
0010
0000
0100
0000
1000
0000
0001
0000
0100
0000
0010
0000
1000
0000
0100
0000
0010
0000
0000
0000
0000
0000
0001
0000
0000
1000
0000
0000
0010
0000
0000
0010
0000
0000
0100
0000
0000
0001
0000
0000
,
1000
0000
0000
0000
0000
0000
0001
0000
0000
0100
0000
0000
0010
1000
0100
0010
0001
0010
0100
1000
0001
0100
0010
1000
,
0200
0000
0300
0000
0000
0000
0010
0001
0010
0100
1000
0001
0100
0010
1000
0100
0010
0001
1000
0010
0100
0010
1000
0100
,
0020
0030
0000
0000
0000
0000
0001
0010
0100
1000
0001
0100
0010
1000
0100
0010
0001
0010
0100
1000
0001
0010
0001
1000
,
0020
0000
0030
0000
0000
0000
0000
0000
0000
0000
0000
0000
0200
0000
0000
0000
0000
0000
0000
0000
0000
0000
0000
0000
0000
0000
0000
0000
0000
0000
0302
0000
0000
0000
0000
0000
0000
0000
0000
0000
0000
0000
0103
0000
0000
0001
0000
0000
,
0100
0000
0010
0000
0110
0000
0001
0000
1010
0000
0100
0000
0011
0000
1000
0001
,
0100
0000
0010
1000
0001
0000
0100
0010
1000
0000
0001
0010
0100
0000
1000
0001
,
0100
0000
0010
0000
1000
0000
0001
0000
0010
0000
0100
0000
1000
0010
0100
0010
0100
0000
0001
0000
0010
0000
0100
0000
1000
0000
0001
0000
0100
0000
0010
0000
,
2000
0000
3101
0000
,
0001
0010
0100
1000
0001
0100
0010
1000
0100
0010
0100
1000
0001
1000
0010
0100
0001
0010
0001
1000
0100
0010
0100
1000
,
0001
0000
0100
0000
0010
0000
1000
0000
0001
0000
0010
0000
0100
0000
1000
0000
0001
0000
0100
0000
0010
0000
1000
0000
0002
0000
0000
0000
0000
0000
0000
0000
0000
0000
0000
0000
0103
0000
0000
0010
0000
0000
1000
0000
0000
0001
0000
0000
,
0200
0000
0000
0000
0000
0000
0000
0000
0310
1000
0001
0010
0100
1000
0001
0100
,
0010
0000
1000
0000
0100
0000
0010
0000
0001
0000
0010
0000
0100
0000
1000
0000
0001
0000
0100
0000
0000
0001
0000
0000
1000
0000
0100
0000
0010
0000
0001
0000
0010
0000
0100
0000
1000
0000
0001
0000
0100
0000
0010
0000
1000
0000
0001
0000
,
0040
0000
0000
0000
0000
0000
0000
0000
0030
0000
0000
0000
0040
0000
0000
0000
0000
0000
0000
0000
0030
0000
0000
0000
0100
0000
0000
0000
0000
0000
0010
0000
0000
0001
0000
0000
0010
0000
0000
0100
0000
0000
1000
0000
0000
0001
0000
0000
,
0100
0000
0001
0000
1000
0000
0001
0000
0000
0010
0000
0000
0004
0000
0000
0000
0000
0000
2003
0000
0000
0000
0000
0000
,
3001
0010
0001
0010
0100
1000
0100
1000
0001
0100
0001
0100
0010
1000
0010
1000
,
0001
0100
0010
1000
0001
0010
0100
1000
0001
0010
0001
1000
0100
0010
0001
0010
0100
1000
0001
0100
0010
1000
0001
0010
,
0100
1000
0001
0010
0100
1000
0001
0100
0010
1000
0100
0010
0001
1000
0010
0100
0001
0010
0001
1000
0100
0010
0100
1000
,
0001
0000
0100
0000
0010
0000
1000
0000
0001
0000
0010
0000
0100
0000
1000
0000
0001
0000
0100
0000
0010
0000
1000
0000
0001
0000
0000
0100
0000
0000
0010
0000
0000
1000
0000
0000
0001
0000
0000
0010
0000
0000
0001
0000
0000
1000
0000
0000
,
0100
0010
0001
0100
0004
0000
0000
0000
0013
0000
0004
0000
0000
0000
0000
0000
,
1003
0100
0010
0100
1000
0001
0100
0010
1000
0000
1000
0000
0001
0000
0001
0000
,
2000
0000
0000
0000
3020
0000
0000
0000
0230
0000
0000
0300
0400
0000
0000
0000
,
0300
0000
0000
0000
0000
0000
0100
0000
0010
0000
1000
0000
0010
0000
0000
1000
0000
0000
0001
0000
0000
0100
0000
0000
0020
0000
0000
0000
0000
0000
0000
0000
0000
0000
0000
0000
0000
0000
0000
0000
0000
0000
0000
0000
0000
0000
0000
0000
,
0130
0001
0010
0100
1000
0001
0100
0010
1000
0100
0010
0100
1000
0001
0100
0010
,
1000
0100
0010
0100
1000
0001
0010
0100
1000
0000
0010
0100
0020
0000
0230
0000
,
1300
0001
0010
0100
1000
0001
0100
0010
1000
0100
0010
0100
1000
0001
0100
0010
1000
0001
0010
0100
1000
0001
0010
0001
,
1000
0010
0100
0001
0010
0001
1000
0100
0010
0100
1000
0001
0100
0000
0000
0010
1000
0001
1000
0100
0010
0100
1000
0001
,
0200
0000
0000
0000
0340
0000
0000
0000
1030
0000
0001
0100
0010
0000
1000
0000
,
0004
0000
0000
0000
0000
0000
0003
0100
0010
0000
1000
0100
0010
0001
0010
0100
,
4000
0000
3000
0000
4000
0000
3000
0000
0020
0030
0020
0030
0020
0030
0020
0030
,
0100
0000
0010
0000
0010
0000
0010
0000
0000
0100
0000
0000
2000
0000
0000
3000
0000
0000
1000
0000
0000
0000
0000
0000
,
0001
0010
0100
1000
0001
0100
0010
0100
0001
0010
0001
1000
0100
0010
0100
1000
,
0001
0100
0010
1000
0001
0010
0100
1000
0001
0100
0010
0100
0001
0010
0001
1000
0100
0010
0001
0010
0100
1000
0001
0100
,
0040
0000
0000
0000
4030
0000
0000
0000
3001
0010
0100
1000
0001
0100
0001
0100
,
0010
1000
0010
0100
0004
0000
0000
0000
0103
0000
0040
0000
0000
0000
1030
0000
,
0100
1000
0001
0100
0001
1000
0100
1000
0001
0100
0001
1000
0100
1000
0001
1000
,
0100
1000
0001
1000
0100
1000
0001
0100
0100
0000
0010
1000
0001
0010
0100
1000
,
0004
0000
0000
0000
0000
0000
0403
0000
0000
0000
0000
0000
0340
0000
0000
0000
0000
0000
1030
0100
0010
0001
0010
0100
,
1000
0000
0000
0000
0001
1000
0001
1000
0001
0000
0100
0000
0010
0000
1000
0000
0004
0000
0000
0000
0000
0000
0000
0000
0000
0000
0000
0000
0000
0000
0000
0000
,
1003
0010
1000
0010
0100
0001
0100
0001
1000
0010
1000
0010
0100
0001
0100
0001
,
2000
0000
0000
0000
0000
0000
0000
0000
0000
0000
0000
0000
0000
0000
0000
0000
0000
0000
0000
0000
0000
0000
0000
0000
0000
0000
0000
0000
0000
0000
0000
0000
0000
0000
0000
0000
0000
0000
0000
0000
0000
0000
0000
0000
0000
0000
0000
0000
0000
0000
0000
0000
0000
0000
0000
0000
0000
0000
0000
0000
0000
0000
0000
0000
0000
0000
0000
0000
0000
0000
0000
0000
3001
0000
0000
0000
0000
0000
0100
0000
0000
0000
0000
0000
0001
0000
0000
0000
0000
0000
0100
0000
0000
0000
0000
0000
0001
0000
0000
0000
0000
0000
0000
0000
0010
0000
0000
0000
0000
0000
0000
0000
0100
0000
0000
0000
0000
0000
0000
0000
1000
0000
0000
0000
0000
0000
0000
0000
0001
0000
0000
0000
0000
0000
0000
0000
0010
0000
0000
0000
0000
0000
0000
0000
0001
0000
0000
0000
0000
0000
0000
0000
1000
0000
0000
0000
0000
0000
0000
0000
0100
0000
0000
0000
0000
0000
0000
0000
0010
0000
0000
0000
0000
0000
0000
0000
0100
0000
0000
0000
0000
0000
0000
0000
1000
0000
0000
0000
0000
0000
0000
0000
,
0010
0100
0001
1000
0100
0010
0100
1000
0001
0100
0010
1000
0001
0010
0100
1000
,
0001
0100
0010
1000
0001
0010
0001
1000
0100
0010
0100
1000
0001
0010
0100
1000
,
0001
0100
0001
0010
0100
1000
0001
0010
0001
1000
0010
0100
0001
0010
0001
1000
,
0100
0010
0100
1000
0001
0100
0010
1000
0001
0010
0100
1000
0001
1000
0010
1000
,
0001
0010
0001
1000
0100
0010
0100
1000
0001
0010
0100
1000
0001
0100
0010
1000
,
0100
0010
0100
1000
0001
0010
0100
1000
0001
0010
0001
1000
0100
1000
0001
0010
,
0001
0100
0010
1000
0001
0010
0100
1000
0001
0100
0010
1000
0100
0010
0001
1000
,
0010
0100
0001
0010
0100
1000
0001
0100
0010
0100
0001
0010
0001
1000
0100
0010
0100
1000
0001
1000
0010
1000
0001
0010
,
0001
0000
0000
0000
0100
0010
1000
0001
0010
0001
1000
0010
1000
0001
0010
0001
,
1000
0100
0010
0100
1000
0001
0010
0100
1000
0001
0100
0010
1000
0100
0010
0001
,
0010
0100
1000
0001
0100
0010
0100
0001
0010
0001
1000
0100
0010
0001
1000
0010
,
1000
0000
0001
0100
0010
0000
0000
0000
0000
0000
0000
0000
0000
0000
0000
0000
;
