#TITLE:"RYUNEN" on the contrary;
#SUBTITLE:Zero Nightmare STEPS;
#ARTIST:Aikaryu;
#TITLETRANSLIT:;
#SUBTITLETRANSLIT:;
#ARTISTTRANSLIT:;
#CREDIT:;
#BANNER:ryunen on the contrary-bn.jpg;
#BACKGROUND:ryunen on the contrary-bg.jpg;
#LYRICSPATH:;
#CDTITLE:;
#MUSIC:ryunen on the contrary.mp3;
#OFFSET:-0.275;
#SAMPLESTART:32.627;
#SAMPLELENGTH:12.000;
#SELECTABLE:YES;
#BPMS:0.000=100.000,15.500=200.000,280.000=99.999,286.500=200.000,598.000=100.000,632.500=200.000;
#STOPS:15.500=2.000
,286.500=1.200
;
#BGCHANGES:;
// cache tags:
#FIRSTBEAT:1.500;
#LASTBEAT:873.000;
#SONGFILENAME:Songs/toune 2/Ryunen on the contrary/ryunen on the contrary.sm;
#HASMUSIC:1;
#HASBANNER:1;
#MUSICLENGTH:288.946;
// end cache tags

//---------------dance-single - ----------------
#NOTES:
     dance-single:
     :
     Challenge:
     15:
     1.000,1.000,0.332,0.478,1.000,2021.000,96.000,138.000,0.000,16.000:
0000
0000
0000
1001
0000
0000
0110
0000
,
0000
1001
0000
0000
0110
0000
0000
0000
,
0000
0000
0000
1001
,
0000
0110
0000
0000
1001
0000
0000
0110
,
0000
0000
1000
0100
0010
0001
0010
0100
1000
0100
0010
0001
0010
0100
1000
1002
,
0000
0000
1003
0001
0010
0100
0010
0001
0010
0100
1000
0100
0010
0100
1000
0100
,
0010
0001
0010
0100
1000
0100
0010
0001
0010
0100
1000
0100
1000
0100
1000
0100
,
0010
0100
0010
0100
0010
0001
0010
0001
0010
0100
1000
0100
0010
0100
1000
0100
,
0010
0001
0010
0001
0010
0001
0010
0100
0010
1000
0100
0010
0001
0010
0100
1000
,
0100
0010
1000
0100
0010
1000
0100
0010
0001
1000
0100
0010
0001
0010
0100
1000
,
0001
0010
0100
1000
0001
0010
0100
1000
0100
0010
0001
0001
0010
0100
0001
0010
,
0100
0010
0100
0010
0100
0010
1000
0100
0010
0001
0010
0100
1000
0100
0010
0001
,
0010
0100
1000
0010
0001
0010
0100
1000
0100
0010
0001
1000
1001
0100
0010
0001
,
0110
0000
0000
0000
1000
0000
0001
0000
0100
0010
0100
0010
1001
0000
0000
0001
,
0000
0100
0000
1000
0000
0100
0000
0010
0000
0001
0000
0010
0000
0100
0000
1000
,
0000
0100
0000
0010
0000
0100
0000
1000
0000
0100
0000
0010
0000
0100
0000
1001
,
0000
0100
0000
0010
0000
0100
0000
0001
0000
0010
0000
0100
0000
0010
0000
0100
,
0000
0010
0000
0100
0000
0010
0000
0100
0000
0010
0000
0100
0000
0010
0000
0001
,
0000
0110
0000
0010
0000
0100
0000
1000
0000
0100
0000
0010
0000
0100
0000
1000
,
0000
0001
0000
0010
0000
0100
0000
1000
0000
0010
0000
0001
0000
0010
0000
0100
,
0000
0010
0000
1000
0000
0110
0000
0100
0000
0001
0000
0010
0000
0100
0000
1000
,
0000
0010
0000
0001
0000
1001
0010
0100
0010
0100
0010
0100
0010
0100
0010
0100
,
0001
1000
0001
1000
0001
1000
0001
1000
1001
2000
0000
3000
0000
0001
0000
1000
,
0000
0001
0000
1000
0000
0000
0000
0000
0000
0000
0200
0000
0000
0300
0010
0000
,
0100
0000
0010
0000
0100
0000
0000
0000
0000
0000
2000
0000
0000
3000
0001
0000
,
1000
0001
1000
0000
0000
1001
1001
0000
,
1001
1001
0000
0000
0000
0000
0000
2000
,
3000
0010
0000
1000
0000
0010
0000
1000
0000
0000
0000
0000
0000
0000
0000
0000
,
0200
0000
0300
0001
0000
1000
0000
0010
0000
0001
0000
0000
0000
0000
1111
0000
,
2000
0000
3000
0001
0000
0100
0000
1000
0000
0010
0000
0000
0000
0000
0000
1000
,
0000
0000
0000
0001
0000
0100
0000
1000
0000
0000
1000
0100
0010
0001
0010
0100
,
1001
1000
0001
1000
0001
1000
0001
1000
0001
1000
0001
1000
0001
1000
0001
1000
,
0001
1001
0100
0010
0100
0010
0100
0010
0100
0010
0100
0010
0100
0010
0100
0010
,
0100
0010
0011
0010
0001
0010
0001
0010
0001
0010
0001
0010
0001
0010
0001
0010
,
0001
0010
0100
1100
0100
1000
0100
1000
0100
1000
0100
1000
0100
1000
0100
1000
,
0100
1000
0100
1000
0100
1000
0110
1000
0100
0010
0100
1000
0100
0010
0100
1000
,
0100
0010
0100
1000
0100
0010
0110
0001
0010
0100
0010
0001
0010
0100
0010
0001
,
0010
0100
0010
0001
0010
0100
0010
0001
0110
1000
0100
0001
0100
1000
0100
0001
,
0100
1000
0100
0001
0100
1000
0100
0001
1001
0010
0001
1010
0001
0010
0100
1000
,
0100
0010
0001
0010
0100
1000
0100
0010
0001
0010
0100
1000
0000
0000
2000
0000
,
3000
0001
0000
1000
0000
0001
0000
1000
0000
0000
0000
0000
0000
0000
2000
0000
,
0000
3000
0001
0000
0010
0000
0001
0000
0010
0000
0000
0000
0000
0000
0000
0000
,
2000
0000
3000
0001
0000
0010
0000
0001
0000
0010
0000
0000
0000
0000
1001
0000
,
1001
0000
0000
0000
0000
1001
0000
1001
0000
0000
0000
0000
0000
0000
0000
0000
,
0000
0000
2000
0000
0000
3000
0001
0000
0100
0000
0001
0000
0100
0000
0000
0000
,
0000
0000
0200
0000
0000
0300
0010
0000
0100
0000
0010
0000
0100
0000
0000
0000
,
0000
0000
0000
2000
0000
0000
3000
0000
0101
0000
1010
0000
0101
0000
1010
0000
,
0000
0000
0000
0000
1001
0000
0000
0000
0000
1000
0000
0100
0000
0001
0000
0000
,
0000
0000
0000
0000
0000
0000
1000
0100
0010
0001
0010
0100
1000
0100
0010
0001
,
0010
0100
1000
0100
0010
0001
0010
0100
1000
0100
0010
0001
0010
0100
1000
0100
,
0010
0001
0010
0100
1000
0100
0010
0001
0010
0100
1000
0100
0010
0001
0010
0100
,
1000
0100
0010
0001
0010
0100
1000
0100
0010
0001
0010
0100
1000
0100
0010
0001
,
0010
0100
1000
0100
0010
0001
0010
0100
1000
0100
0010
0001
0010
0100
1000
0100
,
0010
0001
0010
0100
1000
0100
0010
0001
0010
0100
1000
0100
0010
0001
0010
0100
,
1000
0100
0010
0001
0010
0100
1000
0100
0010
0001
0010
0100
1000
0100
0010
0001
,
0010
0100
1000
0100
0010
0001
0010
0100
1000
0100
0010
0001
0010
0100
1000
0100
,
1001
0000
0000
0000
1001
0100
0010
0100
1000
0001
1000
0001
1000
0000
0000
0000
,
1001
0000
2000
0000
3000
0002
0003
2000
,
0000
0000
3000
0020
2030
3000
0002
0003
,
0000
0000
0000
0000
0002
0000
0003
2000
,
0000
3000
0002
0003
0100
0010
0000
1000
,
0001
0000
2000
0000
0000
0000
0000
3000
,
0000
2000
3000
0200
0000
0300
0020
0000
,
0030
0002
0003
2000
0000
3000
0002
0000
,
0003
2000
0000
3000
0100
0010
0000
0200
,
0000
0300
0020
0000
0030
0000
2000
0000
,
3000
0200
0000
0000
0300
0002
0000
0000
,
0003
0020
0000
0030
2000
0000
0000
3000
,
0020
0000
0030
0020
0000
0000
0030
2000
,
3000
0001
0100
0000
0001
0020
0000
0030
,
2000
0000
3000
0002
2003
3000
0002
2003
,
3002
0000
0003
0000
0002
0000
0003
0000
0001
0000
0001
1000
0100
0010
0100
1000
,
0100
0010
0001
0010
0100
1000
0100
0010
0100
1000
0100
0010
0001
1000
0100
0010
,
0001
1000
0100
0010
0001
0010
0100
1000
0001
0010
0100
1000
0001
0010
0100
1000
,
0010
0100
0001
0010
0100
0001
0010
0100
0001
0010
0100
1000
0100
0010
0001
0010
,
1000
0100
0001
1000
0010
0100
0001
0100
0010
0100
1000
0010
0001
0100
1000
0010
,
0001
1000
0100
0001
1000
0010
0001
0100
1000
0010
1000
0100
0001
0010
0100
0001
,
0100
1000
0100
0010
0001
0010
0100
1000
0100
0010
0001
0010
0100
1000
0100
0010
,
0001
1000
0100
0010
0001
0100
0010
0001
0010
1000
0100
0010
0001
0100
1000
0100
,
0010
0000
0000
0001
0000
0000
0100
0000
0000
1000
0000
0000
1001
0000
0000
0000
0000
0000
0000
0000
0000
0000
0000
0000
0000
0000
0000
0000
1000
0000
0000
0000
0100
0000
0000
0000
0010
0000
0000
0000
0001
0000
0000
0000
0010
0000
0000
0000
,
0100
0000
0000
0000
1000
0000
0000
0000
0100
0000
0000
0000
0010
0000
0000
0000
1001
0000
0000
0000
0000
1000
0000
0000
0000
0000
0000
0001
0000
0000
0000
0000
0000
1000
0000
0000
0000
0000
0000
0001
0000
0000
0000
0000
0000
0010
0000
0000
,
0000
0100
0000
1000
0000
0100
0000
0010
0000
0001
0000
0010
0000
0100
0000
1000
,
0000
0100
0000
0010
0000
0001
0000
1000
0000
0100
0000
0001
0000
0010
0000
1000
,
0000
0100
0000
0010
0000
0001
0000
0010
0000
0100
0000
1000
0000
0100
0000
0010
,
0000
0001
0000
0010
0000
0100
0000
1000
0000
0010
0000
0001
0000
0100
0000
1000
,
0000
0010
0000
0001
0000
0100
0000
1000
0000
0010
0000
0001
0000
0100
0000
1000
,
0000
0001
0000
0010
0000
0100
0000
1000
0000
0001
0000
1000
2002
0000
0000
0000
,
0000
0000
0000
0000
0000
0000
0000
0000
0000
3003
0000
0000
0000
0000
1001
0000
,
0000
0000
1000
0100
1000
0100
1000
0010
0001
0010
0001
0010
1001
0000
0000
0000
,
1000
0100
1000
0100
1000
0100
1000
0100
1000
0100
1000
0100
1000
0100
1000
0010
,
0001
0010
0001
0010
0001
0010
0001
0010
0001
0010
0001
0010
0001
0010
0001
0010
,
1000
0100
0010
0001
0010
0100
1000
0100
0010
0001
1000
0100
0010
0100
0010
0001
,
0100
0010
0001
1000
0100
0010
0001
0100
0010
0001
0010
0001
0010
0100
1000
0001
,
0010
0100
1000
0010
0100
1000
0100
1000
0100
0010
0001
0010
0100
0010
1000
0001
,
0100
0010
1000
0001
0010
1000
0100
0010
0100
0010
0001
0010
0100
1000
0100
0010
,
0001
0010
0100
0000
1000
0010
1000
0100
0010
0001
0010
0100
1000
0100
0010
0001
,
0010
0100
1000
0100
0001
0100
1000
0100
0010
0001
0100
1000
0100
0010
0100
1000
,
0100
0010
0001
0010
0100
0010
0001
0010
0100
0100
1000
0000
0001
0000
0100
0000
,
0010
1001
1001
1001
1001
0100
0010
0001
,
0100
0000
0110
0000
0110
0000
0110
0000
0110
0000
0000
1000
0000
0010
0000
0001
,
0000
0100
0000
1001
0000
1001
0000
1001
0000
1001
0000
0000
2002
0000
3003
0000
,
2002
0000
0000
3003
0000
2002
0000
0000
0000
0000
0000
3003
0000
0000
1000
0000
,
0100
0000
0010
0000
0001
0000
0000
1000
0000
0100
0000
0010
0000
0001
0000
0000
,
1000
0000
0100
0000
0010
0000
0001
0000
0000
1000
0000
0100
0000
0010
0000
0001
,
0000
0000
1000
0000
0100
0000
0010
0000
0001
0000
0000
1000
0000
0100
0000
0010
,
0000
0001
0000
0000
1000
0000
0100
0000
0010
0000
0001
0000
0000
1000
0000
0100
,
0000
0010
0000
0001
0000
0000
1000
0100
0010
0001
1000
0100
0010
0001
1000
0100
,
0010
0001
1000
0100
0010
0001
1000
0100
0010
0001
1000
0100
0010
0001
1000
0100
,
0010
0001
1000
0100
0010
0001
1000
0100
0010
0001
1000
0100
0010
0001
1000
0100
,
0010
0001
1000
0100
0010
0001
1000
0100
0010
0001
1000
0100
0010
0001
1000
0100
,
0020
0000
0000
0000
0000
0000
0030
0000
1000
0001
1000
0001
1000
0000
0000
0000
,
0000
0000
0100
0010
0100
0010
0100
0000
0000
0000
1000
0001
1000
0001
1000
0000
,
0000
0000
0000
0100
0010
0100
0010
0100
0000
0000
0000
0000
1000
0001
1000
0001
,
1000
0000
0000
0000
0010
0100
0010
0100
0010
0000
0000
0000
1000
0000
0001
0000
,
0100
0000
0010
0000
0001
0000
0000
0000
0000
0000
2000
0000
0000
0000
3001
1000
,
0100
0010
0001
0010
0100
1000
0100
0010
0100
1000
0100
0010
0001
0010
0001
0010
,
0100
1000
0100
1000
0100
0010
0100
0010
1000
0001
1000
0001
0010
0100
1000
0100
,
0010
0100
1000
0100
0010
0100
1000
0100
0010
0001
0010
0100
0010
0001
0010
0100
,
0010
0001
0010
0100
1000
0100
0010
0100
1000
0100
0010
0100
1000
0100
0010
0100
,
1000
0100
0010
0001
0010
0100
1000
0100
0010
0100
1000
0100
0010
0100
1000
0100
,
0010
0100
0010
0001
0010
0100
0010
0001
0010
0100
0010
0100
0010
0100
1000
0100
,
0010
0001
0010
0100
1000
0100
0020
0000
0000
0000
0000
0000
0000
0000
0000
0000
,
0000
0000
0000
0030
1000
0000
0010
0000
1000
0000
0000
0000
1000
0000
0001
0000
,
1000
0000
0000
0000
2000
0000
0000
0000
3001
1000
0100
0010
0001
0010
0100
1000
,
0100
0010
0001
0010
0100
1000
0100
0010
0001
0010
0100
0010
0100
1000
0100
0010
,
0001
0010
0100
1000
0100
0010
0001
0010
0100
1000
0100
0010
0001
0010
0100
1000
,
0100
0010
1000
0100
0010
0001
0010
1000
0100
0010
1000
0100
0010
1000
0100
0010
,
0100
1000
0100
0010
1000
0100
0010
0100
1000
0100
0010
0001
0010
0100
0010
0001
,
0010
0100
1000
0010
0001
0010
1000
0010
0001
0100
1000
0100
0001
0100
1000
0100
,
0010
0001
0010
0100
1000
0100
0010
0100
1000
0100
0010
0100
1000
0100
0010
0001
,
0100
1000
0100
0010
0001
0100
1000
0010
0001
0100
1000
0100
0010
0001
0010
0100
,
1000
0010
2002
0000
0000
0000
0010
0000
0000
0000
0000
0010
0000
0000
0010
0000
,
0010
3003
1011
0000
0000
0000
0000
0000
0000
0000
0000
0000
0000
0000
0000
0000
,
0000
1111
0000
0000
0000
0000
0000
0000
,
0000
0000
0000
1111
0000
0000
0000
0000
,
0000
0000
0000
1111
0000
0000
0000
0000
,
0000
0000
1111
0000
,
0000
0000
0000
0000
0000
0000
0000
0000
0000
1111
0000
0000
0000
0000
0000
0000
,
0000
0000
0000
0000
0000
0000
0000
0000
0000
1111
0000
0000
0000
0000
0000
0000
,
0000
0000
0000
0000
0000
0000
1111
1000
,
0010
0001
1000
0100
0010
0001
2002
0000
,
3003
0000
0020
0000
0000
0000
0000
0030
0000
0000
0000
0000
0000
0000
2002
0000
,
0000
0000
3003
0000
0200
0000
0000
0000
0000
0000
0000
0300
0000
0000
2002
0000
,
0000
3003
0020
0000
0000
0030
0000
0000
,
0000
0000
0000
0000
0000
0000
1000
0001
1000
0000
1001
0000
0000
1001
0000
0000
,
1001
2002
0000
0000
0000
0000
3003
0000
,
2000
0000
0000
3000
0002
0000
0000
0000
0000
0000
0003
2000
0000
3000
0000
0020
,
0000
0000
0030
0000
2000
0000
0000
3000
0000
0200
0000
0000
0000
0000
0300
0000
,
2000
0000
0000
3000
1002
0000
0100
0000
0010
0000
0100
0000
1000
0000
0100
0003
,
1000
0000
0100
0000
0010
0000
0001
0000
2002
0000
3003
0000
2000
3000
0020
2030
,
0000
3000
2000
3000
0002
0003
0200
0300
0020
0030
0000
0200
0000
0300
0020
0000
,
0030
0200
0000
0300
0000
0200
0300
0000
0200
0300
0020
0000
0030
0020
0000
0030
,
2000
0000
3000
0000
2000
3000
0002
0003
2000
3000
0002
0000
0000
0000
0000
0003
,
0000
1000
0100
0000
0020
0000
0000
0000
0000
0000
0000
0030
0000
0000
0000
0000
,
0000
2000
0000
3000
0002
2003
3000
0000
2000
3000
0020
0030
0200
0300
0200
0300
,
0020
0230
0000
0300
0020
0000
2030
0000
0000
3000
0000
2000
3000
0002
0003
0200
,
0000
0300
0020
0030
0000
0020
0000
0030
0000
0000
2000
3000
0002
0003
2000
3000
,
0002
0000
0000
0000
0000
0000
0000
0003
,
0000
0000
1000
0100
0010
0001
0010
0100
1000
0100
0010
0100
1000
0100
0010
0001
,
0010
0100
1000
0100
0010
0001
0010
0100
1000
0100
0010
0100
1000
0100
0010
0001
,
0010
0100
1000
0100
0010
0001
0010
0100
1000
0100
0010
0100
1000
0100
0010
0001
,
0010
0100
0010
0001
0010
0100
0010
0001
0010
0100
1000
0100
0010
0100
1000
0100
,
0010
0001
0010
0100
0010
0001
0010
0100
1000
0100
0010
0001
0010
0100
1000
0100
,
0010
0001
0010
0100
1000
0100
0010
0001
0010
0100
1000
0100
1000
0100
1000
0100
,
0010
0001
0010
0001
0010
0100
1000
0100
1000
0100
1000
0100
0010
0001
0010
0100
,
0010
0100
0010
1000
0001
1000
0001
1000
0001
1000
0001
0100
0010
1000
0100
0010
,
0100
1000
0100
0010
0100
1000
0100
0010
0001
0010
0100
0010
0001
0010
0001
0100
,
1000
0100
0010
0001
0100
1000
0100
0001
0100
0010
1000
0100
0001
0010
0100
1000
,
0100
0010
0001
0010
0100
0001
1000
0100
0001
0100
0010
1000
0100
0010
0001
1000
,
0100
0010
0001
0100
1000
0010
0001
0100
1000
0100
0010
0001
0010
0100
1000
0010
,
0001
1000
0100
0010
0001
0010
0100
1000
0100
0010
0001
0010
0100
1000
0100
0010
,
0001
0010
0100
1000
0100
0010
0100
1000
0100
0010
0001
0010
0100
1000
0100
0010
,
0001
0010
0100
0010
0001
0100
0010
0001
0010
0100
1000
0100
0010
0001
0010
0100
,
0010
0001
0001
0010
2002
0000
0000
0000
0000
0000
0000
0000
0000
0000
0000
0000
,
3003
0000
0000
0000
0000
0000
1000
0001
1000
0000
0001
1000
0001
0000
0000
1001
,
0000
1000
0001
1001
0000
0000
0000
0000
,
0000
0000
1000
0010
0110
0000
0000
0000
,
0000
0000
0000
0000
0000
1000
0000
0001
0000
0110
0000
0000
0000
0000
0000
0000
,
0000
0000
0000
1000
0000
0001
0000
0000
,
1000
0000
0000
0000
0000
0000
0100
0000
0000
0000
0100
0010
0000
0000
0010
0000
,
0000
0000
1000
0000
0000
0000
0000
0001
0000
0000
1000
0000
0010
0000
0100
0000
,
0001
0000
0100
0000
0000
0000
0000
0000
0000
0100
0000
0100
0000
0000
0010
0000
,
0010
0001
2000
0000
0000
0000
0000
0000
,
3000
0000
0000
0000
0000
0000
0000
0000
0000
0000
0000
1000
0000
0001
0000
1001
,
0000
0000
0000
0000
0000
0000
0000
0000
0000
0000
0000
0000
0000
1000
0000
0001
,
0000
1001
0000
0000
0000
0000
0000
0000
0000
0000
0000
0000
0000
0000
0000
0000
,
0100
0010
0110
0000
0000
0000
0000
0000
,
1000
1000
0001
0000
0000
1000
0001
0000
,
0000
1000
0000
0001
0001
1000
1000
0000
,
0000
0000
0000
0000
1000
0000
0000
1000
0000
0000
0000
0001
0000
0001
0000
0000
,
0000
0000
0000
0000
0000
1000
0000
0000
0000
0001
0000
1000
0000
0000
0000
0000
,
2002
0000
0000
0000
,
0000
0000
0000
0000
3003
0000
0000
0000
0000
1001
0000
1001
0000
1001
0010
0001
,
0010
0100
1000
0100
0010
0100
1000
0100
0010
0001
0010
0100
0010
0001
0010
0100
,
0010
0001
0010
0100
1000
0100
0010
0001
0010
0100
1000
0010
0001
0010
0100
1000
,
0100
0010
0001
0010
0100
1000
0100
0010
0001
0100
1000
0010
0001
0100
1000
0010
,
1000
0010
0001
0001
0010
0100
1000
0100
0010
0100
1000
0100
0010
0001
0010
0100
,
0010
0001
0010
0100
0010
0001
0010
0100
1000
0100
0010
0001
0010
0100
1000
0010
,
0001
0010
0100
1000
0100
0010
0001
0010
0100
1000
0100
0010
0001
0100
1000
0010
,
0001
0100
1000
0010
1000
0010
0001
0010
0100
1000
0100
0010
0100
1000
0100
0010
,
0001
0010
0100
0010
0001
0010
0100
0010
0001
0010
0100
1000
0100
0010
0001
0010
,
0100
1000
0010
0001
0010
0100
1000
0100
0010
0001
0010
0100
1000
0100
0010
0001
,
0100
1000
0010
0001
0100
1000
0010
1000
0010
0001
1000
0100
0010
0001
0010
0100
,
1000
0100
0010
0001
0010
0100
1000
0100
0010
0001
0010
0100
0010
0001
0010
0100
,
1000
0100
0010
0100
1000
0100
0010
0001
0010
0100
1000
0100
0010
0001
0010
0100
,
1000
0010
0001
0010
0100
1000
0100
0010
0001
0010
0100
1000
0100
0010
0001
0010
,
0100
1000
0100
0010
0001
0010
0100
1000
0100
0010
0100
1000
0100
0010
0100
1000
,
0100
0010
0100
0001
0010
0100
0010
1000
0100
0010
0001
0010
0100
1000
0100
0010
,
0001
0010
0100
1000
0100
0010
0001
0010
0100
1000
0100
0010
0001
0010
0100
0100
,
2022
0000
0000
0000
,
0000
0000
0000
3033
,
0000
2202
0000
0000
0000
0000
0000
0000
,
0000
0000
0000
0000
,
3303
0000
0000
2222
0000
0000
0000
0000
,
0000
0000
0000
0000
,
0000
0000
0000
0000
,
0000
0000
0000
0000
,
0000
0000
0000
0000
,
0000
3333
0000
0000
;
